osu file format v5

[General]
AudioFilename: chung kuo hua-Chinese.mp3
AudioLeadIn: 0
PreviewTime: -1
Countdown: 0
SampleSet: Soft
StackLeniency: 0.7
Mode: 0
LetterboxInBreaks: 1

[Metadata]
Title:Chung Kuo Hua-Chinese
Artist:S.H.E.
Creator:shindrgon
Version:Easy
Source:
Tags:

[Difficulty]
HPDrainRate:3
CircleSize:4
OverallDifficulty:4
SliderMultiplier:1.4
SliderTickRate:2

[Events]
//Background and Video events
0,0,"she pic.jpg"
//Break Periods
2,69200,76080
//Storyboard Layer 0 (Background)
//Storyboard Layer 1 (Failing)
//Storyboard Layer 2 (Passing)
//Storyboard Layer 3 (Foreground)
//Storyboard Sound Samples
//Background Colour Transformations
3,100,163,162,255

[TimingPoints]
0,600,4,2,0,100,1

[HitObjects]
128,96,10200,1,2
296,94,11100,5,2
353,190,11700,1,6
353,358,12600,5,2
255,302,13200,1,2
185,214,13800,5,2
185,101,14400,1,6
186,213,15000,6,2,B|314:341|352:128,2,210
186,100,17700,6,0,B|207:176|327:82,1,140
412,93,18900,6,4,B|464:141|429:177|353:130,1,140
254,94,20100,5,0
256,206,20700,1,0
129,95,21600,1,4
34,35,22200,5,2
128,95,22800,1,2
242,92,23400,1,2
255,203,24000,5,0
261,314,24600,2,4,B|165:314,1,70
303,312,25500,5,4
303,199,26100,5,4
79,190,27300,5,6
253,48,28500,5,6
339,119,29100,5,2
258,196,29700,1,2
173,122,30300,5,2
255,46,30900,1,6
341,117,31500,6,2,B|379:202|187:200,1,140
173,123,32700,1,6
257,196,33300,5,2
172,122,33900,1,2
97,201,34500,1,6
186,267,35100,6,4,B|191:162|291:145|406:144|443:256|301:313|266:241|373:164,1,350
164,202,37500,5,6
258,141,38100,5,4
256,253,38700,5,0
143,254,39300,1,0
144,141,39900,5,0
142,252,40500,2,4,B|174:220|142:188,1,70
53,49,41700,6,4,B|117:103|149:71,1,70
217,125,42600,1,2
328,128,43200,2,4,B|424:128,1,70
370,236,44100,5,2
322,348,44700,1,6
320,179,45600,6,0,B|384:211|192:147,1,140
60,103,47100,5,0
64,214,47700,5,4
161,158,48300,5,4
64,214,48900,6,2,B|33:287|161:289,1,140
260,287,50100,6,2,B|225:224|341:174,1,140
430,147,51300,6,2,B|417:274|289:256,1,140
317,148,52500,5,4
204,148,53100,5,4
317,148,53700,6,2,B|257:225|199:142,1,140
80,33,55200,5,0
83,144,55800,1,0
87,255,56400,1,0
241,189,57300,5,4
330,256,57900,5,4
241,186,58500,6,2,B|241:26,1,140
353,46,59700,6,2,B|513:46,1,140
497,157,60900,6,2,B|468:275|352:219,1,140
256,192,62100,12,6,69000
64,64,77400,5,0
157,126,78000,1,0
253,182,78600,2,6,B|256:257|363:189,1,140
417,94,79800,5,0
322,34,80400,1,0
209,34,81000,2,6,B|60:34|142:-35|139:36,1,140
139,144,82200,6,0,B|139:336|395:336|395:48,1,490
258,151,85200,5,2
188,63,85800,1,2
258,151,86400,1,2
258,151,87000,2,2,B|409:336,2,210
190,57,89400,5,0
255,147,90000,1,0
327,232,90600,1,0
225,279,91200,1,4
121,320,91800,2,4,B|217:320,1,70
119,167,93000,5,4
230,163,93600,6,2,B|234:260|349:86|381:210,1,140
230,164,94800,2,2,B|207:82|80:199,1,140
228,292,96300,5,0
411,162,97500,5,0
186,160,98700,6,4,B|149:157|117:189,1,70
289,162,99900,5,0
257,54,100500,1,0
289,161,101100,6,4,B|257:193|225:161,1,70
104,48,102300,5,0
184,125,102900,1,0
296,126,103500,5,10
378,51,104100,5,10
296,126,104700,5,10
380,199,105300,5,10
296,128,105900,6,14,B|275:242|445:181,1,140
296,128,107100,5,10
210,200,107700,5,10
133,117,108300,6,14,B|55:237|157:231,1,140
243,223,109500,5,8
131,231,110100,5,8
131,118,110700,5,10
228,63,111300,5,10
320,126,111900,6,6,B|437:146|363:246,1,140
322,316,113100,5,0
230,251,113700,1,0
320,316,114300,5,0
380,221,114900,6,6,B|380:157|316:157|284:93,1,140
208,46,116100,6,6,B|112:110|240:142|272:78|240:-18|112:46|80:142|240:110,1,280
316,107,117900,6,6,B|444:203|316:299|188:203|316:171,1,280
402,126,119700,6,6,B|466:-66|530:158|402:222|370:222|530:222|530:62|498:-2,1,420
389,133,122400,6,6,B|69:229|69:101|165:133,1,350
268,153,124500,6,6,B|268:-39|12:153|268:345|460:153|268:313|140:153|236:313|172:313|172:153|428:185,1,560
411,71,127500,6,2,B|440:220|284:54|201:44|274:157,1,280
284,258,129300,6,6,B|-68:-94|316:290|10:289,2,420
256,192,133200,12,6,136500
