osu file format v5

[General]
AudioFilename: the days broken.mp3
AudioLeadIn: 0
PreviewTime: -1
Countdown: 0
SampleSet: Soft
StackLeniency: 0.8
Mode: 0
LetterboxInBreaks: 1
EditorBookmarks: 39691

[Metadata]
Title:The Days Broken
Artist:S.H.E
Creator:osu_CN_yaya
Version:Relaxing
Source:
Tags:S.H.E

[Difficulty]
HPDrainRate:5
CircleSize:4
OverallDifficulty:6
SliderMultiplier:1.3
SliderTickRate:1

[Events]
//Background and Video events
0,0,"cb428250e56d8f7b84352427.jpg"
//Break Periods
2,75345,85903
2,161059,173176
//Storyboard Layer 0 (Background)
//Storyboard Layer 1 (Failing)
//Storyboard Layer 2 (Passing)
//Storyboard Layer 3 (Foreground)
//Storyboard Sound Samples
//Background Colour Transformations
3,100,163,162,255

[TimingPoints]
-49,389.61038961039,4,2,1,100,1
14366,-200,4,2,1,100,0
15145,-100,4,2,0,70,0
15145,-200,4,2,2,60,0
15735,-100,4,2,0,60,0
16314,-100,4,2,1,100,0
18067,-200,4,2,1,100,0
18852,-100,4,2,1,100,0
20600,-200,4,2,1,100,0
20994,-100,4,2,1,100,0
27418,-200,4,2,1,100,0
28202,-100,4,2,1,100,0
30730,-200,4,2,1,100,0
31514,-100,4,2,1,100,0
33847,-200,4,2,1,100,0
35020,-100,4,2,1,100,0
35405,-100,4,2,2,59,0
37353,-100,4,2,1,100,0
40080,-200,4,2,1,100,0
40865,-100,4,2,1,100,0
46314,-200,4,2,1,100,0
46709,-100,4,2,1,100,0
46899,-200,4,2,1,100,0
47488,-100,4,2,1,100,0
51384,-100,4,2,1,0,0
53344,-100,4,2,1,100,0
53717,-200,4,2,1,100,0
54111,-100,4,2,1,100,0
54886,-200,4,2,1,100,0
55475,-100,4,2,1,100,0
55860,-200,4,2,1,100,0
56449,-100,4,2,1,100,0
58976,-200,4,2,1,100,0
59956,-100,4,2,1,100,0
59956,-100,4,2,1,100,0
60340,-200,4,2,2,59,0
62288,-100,4,2,1,100,0
64236,-200,4,2,1,100,0
65800,-100,4,2,1,100,0
67938,-200,4,2,1,100,0
68917,-100,4,2,1,100,0
69301,-200,4,2,1,100,0
69691,-100,4,2,1,100,0
70470,-200,4,2,1,100,0
71839,-100,4,2,1,100,0
72808,-100,4,2,0,60,0
87223,-100,4,2,1,100,0
89951,-200,4,2,1,100,0
90535,-100,4,2,1,100,0
93067,-200,4,2,1,100,0
93847,-100,4,2,1,100,0
96574,-200,4,2,1,100,0
97353,-100,4,2,1,100,0
97743,-100,4,2,0,61,0
99691,-100,4,2,1,100,0
105340,-200,4,2,1,100,0
105925,-100,4,2,1,100,0
109236,-200,4,2,1,100,0
110210,-100,4,2,1,100,0
114106,-200,4,2,1,100,0
115665,-100,4,2,1,100,0
117223,-200,4,2,1,100,0
117808,-100,4,2,1,100,0
120340,-100,4,2,2,100,0
120730,-100,4,2,1,100,0
121314,-200,4,2,1,100,0
122288,-100,4,2,1,100,0
122678,-100,4,2,0,59,0
124626,-100,4,2,1,100,0
126574,-200,4,2,1,100,0
127938,-100,4,2,1,100,0
128522,-200,4,2,1,100,0
128912,-100,4,2,1,100,0
130275,-200,4,2,1,100,0
131249,-100,4,2,1,100,0
132808,-200,4,2,1,100,0
134171,-100,4,2,1,100,0
135145,-100,4,2,0,60,0
137873,-100,4,2,2,61,0
141379,-100,4,2,1,100,0
141671,-100,4,2,2,100,0
142158,-100,4,2,2,100,0
142938,-100,4,2,1,100,0
143327,-100,4,2,2,59,0
145665,-100,4,2,2,69,0
149171,-100,4,2,1,100,0
149561,-100,4,2,2,100,0
149951,-100,4,2,1,100,0
152678,-100,4,2,2,100,0
153067,-100,4,2,1,100,0
155795,-100,4,2,2,100,0
156184,-100,4,2,1,100,0
158522,-100,4,2,2,50,0
174399,-100,4,2,1,100,0
184041,-100,4,2,2,100,0
184236,-100,4,2,1,100,0
184626,-200,4,2,2,72,0
186963,-100,4,2,1,100,0
188912,-200,4,2,1,100,0
190275,-100,4,2,1,100,0
192613,-200,4,2,1,100,0
193392,-100,4,2,1,100,0
195145,-200,4,2,1,100,0
196509,-100,4,2,1,100,0
196704,-100,4,2,0,50,0

[Colours]
Combo1 : 255,200,117
Combo2 : 68,227,240
Combo3 : 253,130,133
Combo4 : 255,255,255

[HitObjects]
171,116,12418,2,0,B|235:180,1,65,0|0
257,195,12808,1,8
334,113,13197,2,0,B|270:177,1,65,0|0
258,194,13587,1,8
256,280,13976,2,0,B|256:200,1,65,2|0
257,194,14366,2,0,L|273:186|257:178|273:170|257:162|273:154|257:146|273:138|257:130|273:122|257:114|273:106|257:98|273:90,1,227.5,8|4
266,91,15925,1,2
368,80,16314,6,0,L|435:133|446:189,1,130,8|0
370,250,17093,2,0,B|302:196,2,65,8|0|0
306,311,17873,1,8
305,311,18067,2,0,B|354:354|354:354|361:351,2,65,0|0|0
305,311,19041,1,0
200,312,19431,6,0,B|127:314|127:313,1,65,8|0
135,314,19821,1,0
75,227,20210,2,0,B|130:170,1,65
150,147,20600,2,0,B|90:82,1,65,8|0
106,100,21184,1,0
208,83,21574,2,2,B|316:15|363:178,1,195
256,192,22548,12,0,24496
144,88,24886,6,0,B|64:152|160:192|160:200,1,130,8|0
255,192,25665,1,8
358,192,26054,2,0,B|422:256|358:312,1,130,0|8
265,336,26834,2,0,B|193:336,2,65,0|0|8
316,336,27418,2,0,B|404:352|356:232,1,130
315,231,28392,6,0,B|235:231,1,65,8|0
250,178,28782,2,0,B|250:106,1,65
197,112,29171,2,0,B|117:112,1,65,8|0
133,164,29561,2,0,B|133:236,1,65
81,237,29950,2,0,B|9:237|9:237,3,65,8|0|0|0
13,188,30730,2,0,B|21:116|133:108,1,130,8|0
184,64,31899,6,0,B|112:104,1,65,8|0
82,122,32288,2,0,B|130:202,1,65
144,221,32678,2,0,B|216:181|216:181,1,65,8|0
242,220,33067,1,0
310,298,33457,1,8
404,300,33847,2,0,C|436:268|408:240|432:216|408:192|432:168|416:144|416:144,1,195,8|0
472,192,35405,5,8
256,192,36184,1,8
40,192,36963,1,8
32,80,37353,6,0,B|128:16|176:80,1,130,8|0
152,160,38132,2,0,B|248:208|288:160,1,130,8|0
238,269,38912,1,8
134,269,39301,1,0
238,270,39691,1,8
326,228,40080,2,0,B|414:284|318:340|302:340,1,130,0|8
222,322,41249,6,0,B|142:322,2,65,0|0|8
226,217,42028,1,0
121,217,42418,1,8
225,218,42808,1,0
227,122,43197,1,8
223,218,43587,2,0,B|127:122,1,130,0|8
64,45,44366,6,0,L|16:125,2,65,0|0|8
168,47,45145,2,0,L|224:103,2,65,0|0|8
111,135,45925,6,0,B|55:167|127:191,1,65
103,231,46314,2,0,B|103:303,1,65,8|0
104,341,46899,2,0,L|160:373|200:333,1,97.5
256,192,47873,12,0,49431
184,232,49821,6,0,B|184:144,1,65,8|0
184,112,50210,1,0
272,168,50600,2,0,B|272:264,1,65,8|0
272,280,50989,1,0
256,192,51379,12,0,53327
120,80,53717,6,0,B|120:160,1,65,8|0
121,249,54496,2,0,B|177:209,1,65,8|0
216,205,54886,2,0,B|288:197|296:277,1,97.5,0|8
389,250,55860,2,0,B|469:234|437:170,1,97.5
435,82,56834,6,0,B|355:82,1,65,8|0
371,82,57223,1,0
367,186,57613,2,0,B|327:274|247:210,1,130,8|0
159,219,58392,1,8
106,219,58587,1,0
45,134,58976,2,0,B|93:38|133:38|141:134,1,162.5,8|0
113,158,60340,5,8
384,155,61119,1,8
257,327,61899,1,8
360,327,62288,6,0,B|432:263,2,65,8|0|0
255,327,63067,2,0,B|183:263,2,65,8|0|0
326,251,63847,2,0,B|382:195,1,65,8|0
338,165,64236,2,0,B|282:109,1,65
327,80,64821,2,0,L|391:16,2,65,8|0|0
288,120,65795,1,0
184,64,66184,5,8
107,134,66574,1,0
187,200,66963,1,8
264,130,67353,1,0
342,62,67743,1,8
394,63,67938,2,0,B|482:63,2,65,0|0|0
395,63,68912,1,0
394,114,69301,6,0,L|338:170,1,65,8|0
270,229,70080,1,8
230,262,70275,1,0
193,227,70470,2,0,L|201:219|193:211|201:203|193:195|201:187|193:179|201:171|193:163|201:155|193:147|201:139|193:131|201:123|193:115|201:107|193:99|201:91|193:83|201:75|193:67|201:59,1,227.5,8|0
195,68,72028,1,2
146,270,72808,5,8
146,62,73587,1,8
353,62,74366,1,8
358,269,75145,1,8
204,45,87223,5,8
308,46,87613,1,0
351,137,88002,1,8
257,183,88392,1,0
164,134,88782,1,8
159,242,89171,1,0
229,318,89561,1,8
227,234,89951,2,2,B|171:194|291:178|203:154,1,97.5,2|2
185,120,90730,5,8
181,223,91119,1,0
98,159,91509,1,8
19,222,91899,1,0
107,276,92288,2,0,B|235:340,1,130,8|0
312,272,93067,2,2,B|360:344|392:216,1,130
474,169,94236,5,8
471,273,94626,1,0
386,212,95015,1,8
290,169,95405,1,0
290,273,95795,1,8
205,212,96184,1,0
205,307,96574,2,2,B|173:255|161:361|112:255|77:313,1,130
34,192,97743,5,8
256,192,98522,1,8
482,190,99301,1,8
459,103,99691,6,0,B|435:175|395:31|339:151,1,130,8|0
359,227,100470,6,0,B|319:171|319:283|231:211,1,130,8|0
240,272,101054,2,0,B|240:344,2,65
187,271,101639,2,0,B|123:303|67:223,1,130,8|0
49,188,102223,1,0
46,135,102418,2,0,B|14:63|94:47,1,97.5,8|0
148,55,103002,1,0
148,56,103197,1,8
194,148,103587,6,0,B|114:148,2,65,0|0|8
298,152,104366,1,0
402,154,104756,1,8
402,257,105145,1,0
399,311,105340,2,2,B|354:290|368:356|295:301,1,97.5
257,311,106119,1,0
257,311,106314,1,8
202,222,106704,6,0,B|146:270|130:158|66:254|66:246,1,130,0|8
75,130,107483,2,0,B|123:66|115:178|195:114,1,130,0|8
290,125,108262,2,0,B|362:125,1,65
407,127,108652,2,0,B|476:144|399:195|446:245,1,130,8|0
435,288,109236,2,2,B|342:236|306:348|276:287,1,162.5
256,192,110405,12,0,111769
176,272,112158,6,0,B|240:208,1,65,8|0
256,192,112548,1,0
352,272,112937,2,0,B|288:208,1,65,8|0
256,192,113327,1,0
256,96,113717,2,0,B|256:176,1,65,8|0
256,192,114106,2,2,L|272:200|256:208|272:216|256:224|272:232|256:240|272:248|256:256|272:264|256:272|272:280|256:288|272:296,1,227.5
267,293,115665,1,0
168,260,116054,6,0,B|112:228|120:156|176:148,1,130,8|0
227,77,116834,2,0,B|299:77,1,65,8|0
326,108,117223,2,2,B|398:180,1,97.5
404,280,118197,1,0
326,210,118587,1,0
259,350,119171,6,0,B|211:350|219:278,2,65,8|0|0
352,304,119951,2,0,B|400:200|320:136|216:144|160:232,1,325,8|0
124,292,121314,2,2,B|44:284|28:220,1,97.5
256,328,122678,5,8
72,72,123457,1,8
448,72,124236,1,8
360,104,124626,6,0,B|296:168,1,65,8|0
280,184,125015,1,0
200,112,125405,6,0,B|144:168,1,65,8|0
120,192,125795,1,0
64,120,126184,2,0,B|8:176,1,65,8|0
8,208,126574,2,2,B|0:304|56:344|160:280|160:280,1,227.5
161,279,128132,1,0
237,304,128522,6,0,B|301:240,1,65,8|0
384,233,129301,2,0,B|384:305,2,65,8|0|0
383,126,130080,1,8
382,70,130275,2,2,B|318:142|310:46|254:94,1,130
248,134,131249,1,0
336,188,131639,6,0,B|288:268,1,65,8|0
272,286,132028,1,0
168,296,132418,2,0,B|96:296,1,65,8|0
101,246,132808,2,2,L|109:238|101:230|109:222|101:214|109:206|101:198|109:190|101:182|109:174|101:166|109:158|101:150|109:142|101:134|109:126|101:118|109:110|101:102|109:94|101:86|109:78|101:70,1,227.5
102,87,134366,1,8
309,83,135145,5,8
314,291,135925,1,8
106,295,136704,1,8
108,87,137483,1,8
196,142,137873,6,2,B|260:190,1,65
290,211,138262,1,0
327,247,138457,1,0
353,291,138652,2,2,L|281:291,1,65,2|2
136,272,139431,6,2,L|24:216|72:64,1,260,10|2
152,88,140600,2,2,L|440:88|440:256,1,455,10|2
440,255,142158,2,2,L|440:296|48:296|48:192|48:192,1,520,10|2
48,120,144106,6,2,L|112:56|160:152|248:48,1,325,10|2
352,64,145665,5,8
352,192,146054,1,8
352,320,146444,1,8
256,192,146834,12,0,148392
256,48,149171,6,0,B|48:48|48:200,1,260,0|8
256,336,150730,1,8
464,192,151509,1,8
256,48,152288,6,0,B|432:48|464:200,1,260,8|8
256,336,153847,1,8
56,192,154626,1,8
256,48,155405,6,0,C|304:96|208:144|272:232,1,260,8|8
64,328,156963,1,8
456,328,157743,1,8
456,120,158522,6,8,C|392:72|392:168|304:112,1,260
48,136,160080,2,8,C|112:80|136:168|208:112,1,260,8|8
392,64,174496,6,0,C|312:64,1,65,8|0
327,64,174886,1,0
327,167,175275,2,0,C|247:167,1,65,8|0
263,168,175665,1,0
264,272,176054,2,0,C|176:272,1,65,8|0
192,320,176444,1,0
88,320,176834,1,8
88,264,177028,2,0,B|8:208|56:112|144:136|200:200,1,260
231,228,178002,1,0
309,296,178392,6,0,B|381:344|437:272,1,130,8|0
424,176,179171,1,8
424,176,179366,1,0
424,176,179561,2,0,B|464:120|376:104|344:176|304:88|344:56,1,195,8|0
240,56,180535,1,2
136,56,180925,1,2
136,56,181119,1,0
57,124,181509,5,8
57,125,181704,1,0
57,124,181899,1,8
54,227,182288,2,0,B|206:227,1,130,0|8
184,331,183067,1,0
184,331,183262,2,0,B|352:331|352:331|352:171,1,325
349,96,184626,6,2,B|261:96,1,65
232,92,185405,2,2,B|152:92,1,65
114,90,186184,2,2,B|26:90,2,65
218,90,187353,5,8
322,87,187743,2,0,B|322:15,2,65,0|0|8
322,191,188522,1,0
322,191,188717,1,0
322,191,188912,2,0,B|322:327|322:327|226:327,1,227.5,8|0
74,322,190860,5,8
139,241,191249,1,0
72,160,191639,1,8
128,73,192028,1,0
232,74,192418,1,8
278,74,192613,2,2,B|334:130,2,65
278,74,193587,1,0
318,169,193976,6,0,B|318:241,2,65,8|0|0
240,238,194756,1,8
240,238,194951,1,0
240,238,195145,2,2,L|248:230|240:222|248:214|240:206|248:198|240:190|248:182|240:174|248:166|240:158|248:150|240:142|248:134|240:126|248:118|240:110|248:102|240:94|248:86|240:78|248:70,1,227.5
293,78,196704,5,8
85,77,197483,1,8
89,284,198262,1,8
296,284,199041,1,8
256,192,199821,12,0,202938
