osu file format v5

[General]
AudioFilename: the days broken.mp3
AudioLeadIn: 0
PreviewTime: -1
Countdown: 0
SampleSet: Soft
StackLeniency: 0.7
Mode: 0
LetterboxInBreaks: 1

[Metadata]
Title:The Days Broken
Artist:S.H.E
Creator:osu_CN_yaya
Version:Alace Difficulty
Source:
Tags:S.H.E

[Difficulty]
HPDrainRate:6
CircleSize:5
OverallDifficulty:7
SliderMultiplier:1.6
SliderTickRate:2

[Events]
//Background and Video events
0,0,"cb428250e56d8f7b84352427.jpg"
//Break Periods
2,76125,86323
//Storyboard Layer 0 (Background)
//Storyboard Layer 1 (Failing)
//Storyboard Layer 2 (Passing)
//Storyboard Layer 3 (Foreground)
//Storyboard Sound Samples
//Background Colour Transformations
3,100,163,162,255

[TimingPoints]
-49,389.61038961039,4,1,0,100,1
6574,-200,4,2,1,100,0
7353,-100,4,2,1,100,0
8132,-200,4,2,1,100,0
8912,-100,4,2,1,100,0
9691,-200,4,2,1,100,0
11249,-100,4,2,1,100,0
14951,-100,4,2,2,100,0
15438,-100,4,1,2,78,0
15632,-100,4,2,2,100,0
15925,-100,4,2,1,100,0
31996,-100,4,2,2,100,0
32970,-100,4,2,1,100,0
33534,-100,4,2,2,100,0
34236,-100,4,2,1,100,0
35405,-200,4,2,1,100,0
35600,-200,4,1,2,84,0
36184,-200,4,2,1,100,0
36379,-200,4,1,2,80,0
36963,-100,4,2,1,100,0
40080,-200,4,2,1,100,0
40275,-200,4,1,2,81,0
40860,-100,4,2,1,100,0
44853,-100,4,2,1,77,0
45048,-100,4,2,1,100,0
45632,-100,4,2,1,73,0
45827,-100,4,2,1,100,0
48262,-200,4,2,1,100,0
48847,-200,4,1,2,82,0
49431,-100,4,2,1,100,0
51476,-100,4,2,2,100,0
51671,-100,4,2,1,100,0
52645,-100,4,1,2,83,0
52840,-100,4,2,1,100,0
60340,-200,4,2,1,100,0
60535,-200,4,1,2,82,0
60925,-200,4,2,1,100,0
61314,-200,4,1,2,82,0
61899,-100,4,2,1,100,0
63847,-200,4,2,1,100,0
64626,-100,4,2,1,100,0
65015,-200,4,2,1,100,0
65210,-200,4,1,2,78,0
65795,-100,4,2,1,100,0
70567,-100,4,2,2,100,0
70860,-100,4,2,1,100,0
71347,-100,4,2,2,100,0
71736,-100,4,2,1,100,0
93067,-200,4,2,1,100,0
93847,-100,4,2,1,100,0
96282,-100,4,2,2,100,0
96476,-100,4,2,1,100,0
97061,-100,4,2,2,100,0
97256,-100,4,2,1,100,0
99399,-100,4,2,1,75,0
99593,-100,4,2,1,100,0
100178,-100,4,2,1,79,0
100373,-100,4,2,1,100,0
102418,-200,4,2,1,100,0
102613,-200,4,1,2,83,0
103197,-100,4,2,1,100,0
105632,-100,4,2,2,100,0
105827,-100,4,2,1,100,0
108763,-100,4,1,2,71,0
108944,-100,4,2,1,82,0
110600,-200,4,2,1,100,0
111379,-100,4,2,2,100,0
111963,-100,4,2,1,100,0
114496,-200,4,2,1,100,0
115275,-100,4,2,1,100,0
116541,-100,4,2,1,79,0
116736,-100,4,2,1,100,0
117321,-100,4,2,1,77,0
117515,-100,4,2,1,100,0
118100,-100,4,2,1,75,0
118295,-100,4,2,1,100,0
126963,-200,4,2,1,100,0
127548,-200,4,1,2,76,0
128132,-100,4,2,1,100,0
133392,-200,4,2,1,100,0
133587,-200,4,1,2,82,0
134171,-100,4,2,1,100,0
135145,-200,4,2,1,100,0
135340,-200,4,2,2,100,0
135730,-200,4,2,1,100,0
136110,-200,4,2,2,100,0
136509,-200,4,2,1,100,0
137483,-100,4,2,1,100,0
149171,-200,4,2,2,100,0
150730,-100,4,2,2,100,0
152288,-200,4,2,2,100,0
152873,-200,4,1,2,82,0
153262,-200,4,2,2,100,0
153847,-100,4,2,2,100,0
155405,-200,4,2,2,100,0
155989,-200,4,1,2,77,0
156379,-200,4,2,2,100,0
156963,-100,4,2,2,100,0

[Colours]
Combo1 : 255,200,117
Combo2 : 68,227,240
Combo3 : 253,130,133
Combo4 : 255,255,255

[HitObjects]
56,136,6574,2,0,B|96:80|128:160|208:96,1,160,2|2
320,48,7743,1,8
432,112,8132,2,0,B|376:152|456:184|392:264,1,160,2|2
320,152,9301,1,8
224,240,9691,2,0,B|168:240|152:296|120:216|64:248,2,160,2|2|2
56,64,12418,5,2
120,64,12613,1,0
184,64,12808,1,8
120,176,13197,1,2
120,240,13392,1,0
120,304,13587,1,0
232,240,13976,1,2
296,240,14171,1,0
360,240,14366,2,0,B|360:328,2,80,8|2|2
360,176,14951,2,0,B|480:128|480:128|384:56|384:56|224:56,1,400,0|8
232,184,16314,5,2
192,232,16509,1,0
152,280,16704,1,0
112,160,17093,1,2
72,112,17288,1,0
32,64,17483,1,8
160,56,17873,2,0,B|248:56,1,80,2|0
304,56,18262,2,0,B|256:128,1,80,0|2
320,120,18652,2,0,B|408:120,2,80,2|0|8
312,248,19431,5,2
368,280,19626,1,0
312,312,19821,1,0
184,280,20210,1,2
128,312,20405,1,0
128,248,20600,1,8
128,120,20989,1,2
192,120,21184,1,0
160,64,21379,1,0
224,64,21574,1,2
256,120,21769,1,2
440,184,22158,5,8
256,232,22548,5,2
440,296,22938,5,2
440,296,23035,1,2
376,296,23230,1,2
376,296,23327,1,2
312,296,23522,1,2
312,296,23619,1,0
312,296,23717,1,8
248,296,23912,2,2,B|248:208,1,80
184,216,24301,2,0,B|184:304,2,80,2|0|8
120,216,24886,5,2
56,216,25080,2,0,B|56:264,2,40,2|0|8
56,152,25470,1,2
120,152,25665,1,2
184,152,25860,2,0,B|184:104,2,40,2|0|0
248,152,26249,2,2,B|312:96,1,80,2|2
360,136,26639,2,0,B|296:192,1,80,2|8
416,240,27223,1,2
312,312,27613,1,0
192,344,28002,1,2
192,344,28197,1,8
144,304,28392,5,8
96,264,28587,1,2
48,216,28782,2,2,B|112:160,1,80
64,112,29171,1,0
64,112,29269,1,2
112,64,29463,1,2
112,64,29561,1,2
176,64,29756,2,0,B|344:64,1,160,2|2
400,56,30340,1,0
456,88,30535,1,2
456,152,30730,1,0
400,184,30925,1,0
336,160,31119,2,0,B|168:160,1,160,2|8
112,48,31899,6,0,B|56:88|48:104|136:152|80:184,1,160,2|0
128,224,32483,1,0
128,288,32678,2,0,B|176:344|232:272|288:312,1,160,2|8
336,272,33262,1,2
400,272,33457,2,0,B|456:224|352:168|424:120,2,160,2|0|2
368,328,34431,1,8
368,328,34528,1,0
368,328,34626,1,8
336,272,34821,1,2
272,272,35015,1,2
272,272,35113,1,2
208,272,35308,1,2
208,272,35405,6,0,B|152:208|224:168|136:136,2,160,0|8|0
368,168,37353,5,2
176,168,37743,1,8
256,344,38132,1,2
64,344,38522,1,0
64,280,38717,6,2,B|40:264|24:224|40:208,1,80
104,224,39106,2,0,B|136:192|104:144,1,80,0|8
48,168,39496,2,0,B|32:144|32:120|56:88,1,80,0|2
104,120,39886,1,8
168,120,40080,2,0,B|336:120,1,160,0|8
456,96,41249,6,0,B|480:152|456:184,1,80,2|2
400,144,41639,2,0,B|368:184|400:216,1,80
456,192,42028,2,0,B|480:240|456:272,1,80,2|8
400,240,42418,2,0,B|376:280|416:320,1,80,8|0
472,336,42808,1,2
280,336,43197,1,0
88,336,43587,1,2
88,144,43976,1,8
256,48,44366,6,0,B|384:160,1,160,2|0
336,200,44951,1,2
295,247,45145,2,0,B|175:141,1,160,2|8
136,192,45730,1,2
96,240,45925,2,0,B|224:352,1,160,2|0
336,296,46704,1,2
440,216,47093,1,8
376,104,47483,1,2
328,64,47678,1,2
272,32,47873,1,0
264,160,48262,6,0,B|144:216|328:272|160:304|168:320|120:320,1,240,2|8
120,184,49821,5,2
120,120,50015,1,0
120,56,50210,1,8
232,120,50600,1,2
296,120,50795,1,2
360,120,50989,1,0
296,224,51379,2,0,B|128:224,1,160,2|8
136,288,51963,1,0
136,352,52158,2,0,B|304:352,2,160,2|8|2
80,320,53132,1,0
80,256,53327,1,8
80,256,53425,1,2
80,192,53619,1,2
80,192,53717,5,2
80,64,54106,1,0
192,128,54496,1,2
256,128,54691,1,2
320,128,54886,1,8
256,232,55275,1,2
256,296,55470,1,8
312,264,55665,1,0
312,264,55762,1,2
376,264,55957,1,2
376,264,56054,1,2
248,264,56444,1,8
312,152,56834,6,0,B|312:64,2,80,2|0|0
184,152,57613,2,0,B|96:152,2,80,2|2|8
184,280,58392,2,0,B|184:368,2,80,2|0|0
312,264,59171,2,0,B|400:264,2,80,2|8|8
248,264,59756,1,2
184,264,59951,1,2
184,264,60048,1,2
184,264,60145,1,2
120,264,60340,6,0,B|48:224|152:176|80:120,2,160,8|8|8
248,264,62288,5,2
296,304,62483,1,0
344,344,62678,1,8
368,216,63067,1,2
416,176,63262,1,2
464,136,63457,1,0
368,216,63847,2,0,B|288:184|320:120|240:112,1,160,2|2
200,152,64821,1,8
160,104,65015,2,0,B|88:160|184:200|80:240,1,160,8|8
216,272,66184,5,2
160,304,66379,1,0
216,336,66574,1,0
336,304,66963,1,2
392,336,67158,1,2
392,272,67353,1,8
464,160,67743,1,2
368,72,68132,1,0
304,72,68327,1,2
304,72,68425,1,2
304,72,68522,2,0,B|136:72,1,160,2|8
24,104,69301,5,2
64,152,69496,1,0
104,200,69691,1,0
224,152,70080,1,2
288,152,70275,1,2
352,152,70470,2,0,B|352:320,1,160,8|2
416,312,71054,1,2
416,312,71152,1,2
416,312,71249,2,0,B|416:144,2,160,0|2|8
224,320,72418,5,2
40,264,72808,1,8
224,224,73197,1,2
40,168,73587,1,8
224,120,73976,1,2
40,72,74366,1,8
224,32,74756,1,2
288,32,74951,1,2
352,32,75145,1,8
352,32,75243,1,2
416,32,75438,1,2
416,32,75535,2,0,B|464:104|376:128|448:184,1,160,2|0
256,32,87223,6,0,B|192:88,1,80,2|2
152,128,87613,1,8
112,176,87808,2,2,B|176:232,1,80
216,272,88197,1,2
264,312,88392,2,0,B|344:280,1,80,8|2
400,280,88782,1,2
464,280,88976,2,0,B|464:368,2,80,2|8|2
464,216,89561,1,2
464,152,89756,1,8
464,88,89951,1,0
464,88,90048,1,2
408,112,90243,1,2
408,112,90340,1,2
344,112,90535,1,2
280,112,90730,6,0,B|280:200,3,80,8|2|0|2
216,192,91509,6,0,B|216:104,3,80,0|2|0|2
152,112,92288,6,0,B|152:208,3,80,8|2|2|8
88,192,93067,6,0,B|88:104,2,80,8|2|8
80,320,94236,5,2
136,288,94431,1,2
192,320,94626,1,0
256,328,94821,2,2,B|264:280|312:272,1,80
328,336,95210,2,0,B|368:360|368:336|392:312,1,80,2|8
368,248,95600,1,2
432,248,95795,1,2
400,192,95989,1,2
400,128,96184,6,0,B|232:128,1,160,0|2
240,224,96769,1,8
240,320,96963,2,0,B|72:320,1,160,8|2
80,320,97548,5,2
80,256,97743,6,0,B|40:240|32:192,1,80
32,128,98132,1,2
32,128,98230,1,2
96,128,98425,1,2
96,128,98522,1,8
160,128,98717,2,2,B|160:40,1,80,2|2
224,48,99106,1,8
256,104,99301,1,8
288,48,99496,1,2
352,40,99691,6,0,B|424:80|424:80|360:136,1,160,2|8
304,128,100275,1,2
240,128,100470,2,0,B|184:200|184:200|240:248,1,160,2|0
232,304,101054,2,2,B|144:304,1,80
88,304,101444,1,2
88,240,101639,1,8
88,176,101834,2,2,B|88:88,1,80
88,32,102223,1,8
144,64,102418,2,0,B|240:80|240:144|288:136,1,160,8|8
408,144,103587,5,2
408,208,103782,1,2
408,272,103976,2,0,B|320:272,3,80,8|0|2|2
264,272,104756,1,8
216,320,104951,1,0
168,272,105145,1,2
120,320,105340,1,2
56,320,105535,2,0,B|32:272|8:224|40:160,1,160,8|2
96,168,106119,1,2
160,168,106314,1,8
32,104,106704,5,2
208,32,107093,1,8
384,104,107483,1,2
208,176,107873,1,8
384,104,108262,5,2
384,168,108457,1,2
384,232,108652,2,0,B|312:280|240:192|232:240,2,160,0|2|8
448,232,109626,1,2
416,288,109821,1,2
352,288,110015,1,2
288,288,110210,1,0
288,288,110308,1,2
224,288,110502,1,2
224,288,110600,2,0,B|152:240|264:184|208:136,1,160,2|2
208,80,111574,1,0
208,80,111671,1,0
208,80,111769,1,0
80,80,112158,5,2
80,144,112353,1,0
80,208,112548,1,8
192,144,112938,1,2
256,144,113132,1,2
320,144,113327,1,8
256,256,113717,1,2
256,192,113912,1,0
256,128,114106,1,8
256,256,114496,2,0,B|192:304|152:264|144:240|96:288,1,160,2|2
104,344,115470,1,2
168,344,115665,1,8
296,344,116054,6,0,B|464:344,1,160,2|0
456,280,116639,1,2
392,280,116834,2,0,B|256:280|224:280,1,160,2|8
232,216,117418,1,2
296,216,117613,2,0,B|464:216,1,160,2|8
456,152,118197,1,2
392,152,118392,2,0,B|224:152,1,160,2|8
104,152,119171,6,0,B|104:320,1,160,2|8
168,312,119756,1,2
168,248,119951,2,0,B|168:80,1,160,2|8
232,80,120535,1,2
232,144,120730,2,0,B|232:312,1,160,2|8
296,296,121314,1,2
296,232,121509,1,2
296,168,121704,1,2
296,168,121801,1,2
296,168,121899,1,8
360,168,122093,2,0,B|448:168,2,80,2|2|8
360,104,122678,5,8
360,104,122775,1,2
296,104,122970,1,2
296,104,123067,1,2
232,104,123262,2,0,B|232:192,3,80,2|8|2|2
232,248,124041,1,8
232,248,124139,1,0
232,247,124236,1,8
104,240,124626,6,0,B|104:328,2,80,2|2|8
104,112,125405,2,0,B|104:24,2,80,2|8|8
208,184,126184,2,0,B|296:184,3,80,2|2|8|2
352,184,126963,2,0,B|400:296|400:296|448:184,1,240,2|8
448,56,128522,5,2
256,56,128912,1,8
64,56,129301,1,2
64,56,129496,1,2
64,56,129691,1,8
64,248,130080,1,2
64,248,130275,1,8
64,248,130470,1,8
256,248,130860,1,2
256,248,131054,1,2
320,248,131249,1,8
320,248,131347,1,2
384,248,131541,1,2
384,248,131639,5,2
448,248,131834,2,0,B|448:160,1,80,2|8
448,104,132223,1,2
384,104,132418,2,0,B|384:192,1,80,2|2
384,248,132808,1,8
384,248,132905,1,2
320,248,133100,1,2
320,248,133197,1,2
256,248,133392,2,0,B|184:200|296:168|224:104,1,160,8|0
160,104,134366,1,8
160,104,134463,1,2
96,104,134658,1,2
96,104,134756,1,2
32,104,134951,1,8
96,104,135145,6,0,B|56:192|128:216|72:264,3,160,8|8|8|8
200,304,137873,6,0,B|280:352|360:304,1,160,2|8
352,240,138457,2,0,B|280:200|184:240,1,160,2|8
144,264,139041,1,2
144,136,139431,5,8
144,136,139626,1,2
144,136,139821,1,2
336,136,140210,1,8
336,328,140600,1,2
144,328,140989,1,8
144,264,141184,1,2
144,200,141379,2,2,B|144:32,2,160,2|8|2
208,200,142353,1,2
208,200,142451,1,2
208,200,142548,1,2
272,200,142743,1,2
336,200,142938,2,8,B|504:200,2,160,8|8|2
208,200,144106,5,2
168,248,144301,1,2
128,200,144496,1,8
168,152,144691,1,2
168,88,144886,1,2
168,152,145080,1,2
168,152,145178,1,2
168,152,145275,1,8
240,48,145665,5,2
424,176,146054,1,8
256,328,146444,1,2
80,184,146834,1,8
80,184,147028,1,8
256,192,147223,12,8,148392
256,192,148587,6,2,B|256:104,2,80
256,256,149171,6,0,B|184:312|160:224|96:272,2,160,2|2|2
320,248,150925,5,0
384,248,151119,5,0
272,184,151509,1,2
384,128,151899,1,0
272,64,152288,6,0,B|112:184|320:240|232:352,1,320,2|2
168,344,154041,5,0
104,344,154236,5,0
24,240,154626,1,2
104,144,155015,1,0
184,240,155405,6,0,B|312:344|408:184|488:248,1,320,2|2
488,184,157158,5,0
440,144,157353,1,0
392,104,157548,1,0
328,104,157743,1,2
328,104,157840,1,0
264,104,158035,1,0
264,104,158132,1,0
200,104,158327,1,0
136,104,158522,5,2
136,360,159301,1,2
392,360,160080,1,2
384,104,160860,1,2
256,192,161639,12,0,162418
