osu file format v7

[General]
AudioFilename: s.h.e. - Superstar.mp3
AudioLeadIn: 0
PreviewTime: 35651
Countdown: 1
SampleSet: Normal
StackLeniency: 0.7
Mode: 0
LetterboxInBreaks: 1

[Editor]
DistanceSpacing: 1
BeatDivisor: 4
GridSize: 8

[Metadata]
Title:Superstar
Artist:S.H.E
Creator:_llkey_18
Version:Normal
Source:
Tags:S.H.E.

[Difficulty]
HPDrainRate:4
CircleSize:3
OverallDifficulty:4
SliderMultiplier:1.1
SliderTickRate:1

[Events]
//Background and Video events
0,0,"029823.jpg"
//Break Periods
2,61950,70865
2,103037,113256
//Storyboard Layer 0 (Background)
//Storyboard Layer 1 (Fail)
//Storyboard Layer 2 (Pass)
//Storyboard Layer 3 (Foreground)
//Storyboard Sound Samples
//Background Colour Transformations
3,100,163,162,255

[TimingPoints]
4359,652.173913043478,4,1,2,70,1,0
13338,-100,4,1,2,90,0,0
14479,-100,4,2,0,70,0,0
25077,-100,4,1,2,70,0,0
35512,-100,4,1,2,70,0,0
35675,-100,4,1,2,70,0,1
54099,-100,4,1,2,70,0,0
82468,-100,4,1,2,70,0,0
82631,-100,4,1,2,70,0,1
101055,-100,4,1,2,70,0,0
119479,-100,4,2,2,27,0,0
129254,-100,4,2,2,50,0,0
139526,-100,4,1,2,80,0,0
139860,-100,4,1,2,100,0,0
142460,-100,4,1,2,70,0,0
142623,-100,4,1,2,70,0,1
161047,-100,4,1,2,70,0,0
173765,-100,4,1,2,70,0,0
173928,-100,4,1,2,70,0,1
181917,-100,4,1,2,70,0,0

[Colours]
Combo1 : 64,128,128
Combo2 : 128,64,64
Combo3 : 0,0,0
Combo4 : 192,192,192

[HitObjects]
120,152,4359,1,0
176,152,4685,1,0
232,152,5011,1,8
232,264,5663,1,0
344,264,6315,1,8
344,152,6967,5,0
344,96,7293,1,0
344,40,7619,1,8
232,40,8272,1,8
232,152,8924,1,8
232,264,9576,5,0
176,264,9902,1,0
120,264,10228,1,8
120,152,10880,1,0
232,152,11532,1,8
344,152,12185,5,0
344,264,12837,1,8
232,264,13489,1,8
176,264,13815,1,8
120,264,14141,1,12
120,152,14793,5,4
232,152,15445,1,2
344,152,16098,1,8
344,40,16750,2,0,B|416:40,4,55,0|2|8|2|0
288,40,18380,1,2
232,40,18706,1,8
232,152,19359,5,2
344,152,20011,1,8
232,152,20663,2,0,B|96:152,1,110,2|8
120,264,21967,5,2
232,264,22619,1,8
232,152,23272,1,2
344,152,23924,2,0,B|344:288,1,110,0|2
248,216,25228,5,0
248,104,25880,1,8
136,104,26532,1,0
192,200,27185,6,0,B|192:80,1,110
304,88,28489,1,0
304,200,29141,1,0
192,200,29793,5,0
192,88,30445,1,0
192,200,31098,1,0
136,200,31424,1,0
80,200,31750,1,0
80,88,32402,5,8
192,88,33054,1,0
304,88,33706,1,8
360,88,34032,1,8
416,88,34358,1,8
416,200,35011,1,8
304,200,35663,5,12
304,88,36315,2,0,B|168:88,1,110
280,160,37619,2,0,B|144:160,1,110
56,160,38924,1,8
56,104,39250,1,0
56,48,39576,1,0
136,128,40228,6,0,B|136:0,2,110,0|0|8
136,240,42185,1,0
248,240,42837,2,0,B|384:240,2,110,8|0|8
248,128,44793,1,0
304,128,45119,1,0
360,128,45445,1,8
360,240,46098,5,4
360,240,46750,2,0,B|224:240,1,110,8|0
144,240,48054,1,8
144,128,48706,2,0,B|8:128,2,110,0|8|0
256,128,50663,5,8
368,128,51315,1,0
368,240,51967,2,0,B|240:240,2,110,8|0|8
368,240,53924,1,4
368,128,54576,5,8
256,128,55228,1,0
144,128,55880,1,8
144,240,56532,1,4
144,128,57185,1,8
256,128,57837,1,0
144,128,58489,1,8
256,128,59141,5,0
312,128,59467,1,0
368,128,59793,1,8
368,240,60445,1,0
312,240,60772,1,0
256,240,61098,1,8
144,240,61750,1,4
208,160,72185,5,0
320,160,72837,1,8
432,160,73489,1,0
432,48,74141,2,0,B|312:48,1,105
208,48,75445,1,8
208,160,76098,1,0
96,160,76750,5,8
208,160,77402,2,0,B|344:160,1,110,0|8
376,160,78380,1,0
432,160,78706,2,0,B|432:296,1,110,0|8
320,272,80011,1,8
320,160,80663,2,0,B|88:160,1,220,8|4
104,48,82619,5,4
104,160,83272,2,0,B|216:160,1,110,8|0
320,160,84576,1,8
376,160,84902,1,0
432,160,85228,1,0
432,272,85880,2,0,B|296:272,2,110,8|0|8
432,160,87837,5,0
320,160,88489,1,8
320,48,89141,1,8
264,48,89467,1,0
208,48,89793,1,8
208,160,90445,1,4
320,160,91098,5,8
432,160,91750,1,0
432,272,92402,1,8
376,272,92728,1,0
320,272,93054,6,0,B|320:136,1,110,0|8
264,160,94032,1,8
208,160,94358,2,0,B|208:288,1,110,0|8
96,272,95663,1,0
96,160,96315,2,0,B|96:40,2,110,8|0|8
208,160,98272,6,0,B|336:160,1,110,0|8
424,160,99576,1,0
424,48,100228,1,8
424,160,100880,1,4
312,160,101532,5,8
200,160,102185,1,0
200,104,102511,1,0
200,48,102837,1,8
256,192,114576,12,4,116532
208,176,117511,5,4
208,176,117837,1,4
320,176,118489,1,4
320,176,119141,1,4
320,64,119793,5,2
208,64,120445,1,2
96,64,121098,1,2
208,64,121750,1,2
208,176,122402,1,2
96,176,123054,1,2
208,176,123706,5,2
320,176,124358,2,2,B|456:176,1,110
432,176,125337,1,2
432,176,125663,1,2
432,64,126315,5,2
432,64,126967,2,0,B|304:64,1,110,0|2
208,64,128272,1,2
208,64,128924,1,0
208,176,129576,5,8
320,176,130228,1,0
208,176,130880,1,8
96,176,131532,1,0
96,120,131858,1,0
96,64,132185,1,8
208,64,132837,2,0,B|344:64,1,110,0|8
320,176,134141,5,0
208,176,134793,1,8
320,176,135445,1,0
208,176,136098,1,8
208,64,136750,2,0,B|72:64,1,110,0|8
208,64,138054,1,0
320,64,138706,2,0,B|320:240,1,165,2|4
264,232,140011,5,8
264,232,140337,1,8
152,232,140989,1,8
152,120,141641,1,8
152,120,141967,1,8
288,120,142619,5,4
288,232,143272,1,8
192,176,143924,2,0,B|320:176,1,110,0|8
408,176,145228,1,0
408,64,145880,2,0,B|288:64,1,110,8|0
184,64,147185,5,8
184,176,147837,1,4
296,176,148489,2,0,B|296:40,1,110,8|0
408,64,149793,1,8
408,176,150445,2,0,B|488:176,2,55,4|0|8
296,176,151750,5,0
240,176,152076,1,0
184,176,152402,1,8
72,176,153054,5,4
72,64,153706,2,0,B|199:64,1,110,8|8
264,136,155011,2,0,B|136:136,1,110,8|0
152,136,156315,1,8
152,248,156967,1,4
264,248,157619,5,8
264,192,157945,1,0
264,136,158272,1,0
264,24,158924,2,0,B|128:24,2,110,8|0|8
264,136,160880,1,4
256,192,161206,12,4,162837
272,160,163489,6,0,B|144:160,1,110,4|8
272,160,164793,1,0
272,48,165445,1,8
160,48,166098,1,4
160,160,166750,2,0,B|280:160,1,110,8|0
376,160,168054,5,8
288,224,168706,2,0,B|288:96,1,110,4|8
176,112,170011,1,8
176,168,170337,1,8
176,224,170663,2,0,B|48:224,1,110,0|4
256,192,171641,12,0,173272
256,168,173924,5,4
256,56,174576,2,0,B|136:56,2,110,8|0|8
368,56,176532,1,8
424,56,176858,1,8
480,56,177185,1,8
480,168,177837,2,0,B|352:168,1,110,0|8
264,168,179141,5,0
264,280,179793,1,8
152,280,180445,2,0,B|152:152,2,110,0|8|4
256,192,182076,12,4,184358
