osu file format v7

[General]
AudioFilename: s.h.e. - Superstar.mp3
AudioLeadIn: 0
PreviewTime: 35651
Countdown: 1
SampleSet: Normal
StackLeniency: 0.7
Mode: 0
LetterboxInBreaks: 1

[Editor]
DistanceSpacing: 1
BeatDivisor: 4
GridSize: 8

[Metadata]
Title:Superstar
Artist:S.H.E
Creator:_llkey_18
Version:Hard
Source:
Tags:S.H.E.

[Difficulty]
HPDrainRate:7
CircleSize:4
OverallDifficulty:7
SliderMultiplier:2.1
SliderTickRate:1

[Events]
//Background and Video events
0,0,"029823.jpg"
//Break Periods
2,61950,71285
//Storyboard Layer 0 (Background)
//Storyboard Layer 1 (Fail)
//Storyboard Layer 2 (Pass)
//Storyboard Layer 3 (Foreground)
//Storyboard Sound Samples
//Background Colour Transformations
3,100,163,162,255

[TimingPoints]
4359,652.173913043478,4,1,2,70,1,0
13338,-100,4,1,2,90,0,0
14479,-100,4,2,0,70,0,0
25077,-100,4,1,2,70,0,0
35512,-100,4,1,2,70,0,0
35675,-100,4,1,2,70,0,1
54099,-100,4,1,2,70,0,0
82468,-100,4,1,2,70,0,0
82631,-100,4,1,2,70,0,1
101055,-100,4,1,2,70,0,0
116194,-200,4,1,2,70,0,0
117352,-100,4,1,2,70,0,0
119479,-100,4,2,2,27,0,0
129254,-100,4,2,2,50,0,0
138694,-200,4,2,2,50,0,0
139526,-100,4,1,2,80,0,0
139860,-100,4,1,2,100,0,0
140838,-100,4,1,2,100,0,0
142460,-100,4,1,2,70,0,0
142623,-100,4,1,2,70,0,1
161047,-100,4,1,2,70,0,0
173765,-100,4,1,2,70,0,0
173928,-100,4,1,2,70,0,1
181917,-100,4,1,2,70,0,0

[Colours]
Combo1 : 64,128,128
Combo2 : 128,64,64
Combo3 : 0,0,0
Combo4 : 192,192,192

[HitObjects]
144,128,4359,1,0
248,128,4685,1,0
352,128,5011,1,8
152,200,5663,1,8
208,200,5826,1,0
264,200,5989,1,8
368,200,6315,1,8
176,112,6967,5,0
280,112,7293,1,0
384,112,7619,1,8
192,192,8272,1,8
248,192,8435,1,0
304,192,8598,1,8
408,192,8924,1,8
216,280,9576,5,0
112,280,9902,1,0
112,176,10228,1,8
192,112,10554,1,0
288,64,10880,1,8
288,120,11043,1,0
288,176,11206,1,8
184,176,11532,1,8
392,168,12185,5,0
392,200,12348,1,0
392,232,12511,1,0
392,264,12674,1,0
392,296,12837,1,8
224,168,13163,1,8
16,168,13489,1,8
16,168,13652,1,8
16,168,13815,1,8
224,168,14141,1,12
424,104,14793,5,4
280,240,15445,1,2
280,136,15772,1,2
280,32,16098,1,8
280,32,16750,2,0,B|400:32,4,105,0|2|8|2|0
280,136,18380,1,2
176,136,18706,1,8
488,176,19685,5,2
376,64,20011,1,8
272,176,20337,1,2
160,64,20663,2,0,B|48:64,2,105,2|0|8
264,64,21641,5,0
368,64,21967,1,2
368,64,22293,2,0,B|472:64,2,52.5,0|0|8
368,272,22945,1,2
160,272,23272,1,2
160,64,23598,1,2
368,64,23924,2,0,B|368:280,1,210,0|8
192,160,25228,5,0
296,160,25554,1,0
296,56,25880,1,8
192,56,26206,1,0
104,112,26532,1,0
232,280,27185,6,0,B|232:160,2,105,0|0|0
336,280,28163,1,0
232,280,28489,1,0
336,280,28815,1,0
336,176,29141,1,0
128,176,29793,5,0
232,176,30119,1,0
232,176,30282,1,0
232,176,30445,1,0
232,72,30772,1,0
336,72,31098,1,0
232,72,31424,1,0
128,72,31750,1,0
272,224,32402,5,0
376,224,32728,2,0,B|496:224,2,105
376,120,33706,1,0
272,120,34032,1,0
168,120,34358,1,8
168,120,34522,1,8
168,120,34685,1,8
168,120,34848,1,8
168,120,35011,1,8
168,120,35174,1,8
168,120,35337,1,8
264,72,35663,5,12
472,104,36315,2,0,B|320:104,2,105,8|0|0
472,160,37130,1,0
472,216,37293,2,0,B|344:216,2,105,8|0|0
264,216,38272,1,0
56,216,38598,1,0
200,64,38924,1,8
144,264,39250,1,0
288,112,39576,1,0
288,320,40228,6,0,B|288:192,1,105,8|0
352,296,40880,2,0,B|352:168,1,105
352,88,41532,1,8
248,88,41859,1,0
352,88,42185,1,0
248,88,42511,1,0
144,88,42837,2,0,B|144:208,1,105,8|0
40,192,43489,2,0,B|192:192,1,105,4|0
248,192,44141,5,8
456,192,44793,1,0
456,136,44956,1,0
456,80,45119,1,0
352,80,45445,1,8
248,80,45772,5,0
248,184,46098,1,4
352,184,46424,1,0
248,184,46750,2,0,B|120:184,1,105,8|0
224,120,47402,2,0,B|368:120,1,105
440,120,48054,1,8
440,224,48380,1,0
336,224,48706,2,0,B|112:224,1,210,0|8
128,120,49685,1,0
128,120,50011,1,4
328,80,50663,5,8
328,80,50989,1,0
328,184,51315,1,0
432,184,51641,1,0
432,288,51967,2,0,B|304:288,2,105
432,184,52945,1,0
432,80,53272,2,0,B|184:80,1,210,0|4
32,160,54576,5,0
136,160,54902,1,8
240,160,55228,1,0
184,160,55391,1,8
136,160,55554,1,8
136,264,55880,1,8
408,104,56532,5,4
408,264,56859,1,0
264,200,57185,1,0
264,40,57511,1,0
120,104,57837,1,0
120,264,58163,1,0
264,200,58489,1,0
448,144,59141,5,0
448,144,59304,1,0
448,144,59467,1,0
448,144,59793,1,0
32,144,60445,1,0
240,144,60772,1,0
448,144,61098,1,0
32,144,61750,1,4
208,160,72185,5,0
416,160,72837,1,8
312,160,73163,1,0
416,160,73489,1,0
208,160,74141,2,0,B|88:160,2,105,8|0|0
368,160,75119,1,0
368,320,75445,1,8
368,160,75772,1,0
368,0,76098,1,0
96,160,76750,5,8
200,160,77076,2,0,B|320:160,2,105
200,56,78054,1,8
256,56,78217,1,0
312,56,78380,1,0
416,56,78706,2,0,B|416:184,1,105
232,264,79358,5,8
440,264,79685,1,8
264,152,80011,1,8
472,152,80337,1,8
312,40,80663,2,0,B|96:40,1,210
104,96,81478,5,8
104,152,81641,1,8
104,208,81804,1,8
104,264,81967,1,8
160,264,82130,1,8
216,264,82293,1,8
272,264,82456,1,8
328,264,82619,5,4
328,56,83272,6,8,B|192:56,1,105
223,56,83761,1,0
223,56,83924,2,0,B|112:56,1,105
120,160,84576,1,8
120,160,84902,1,0
120,264,85228,2,0,B|256:264,1,105
224,264,85717,1,0
224,264,85880,1,8
432,264,86206,1,0
432,56,86532,1,0
248,160,87185,6,0,B|112:160,2,105,8|0|0
304,160,88000,1,0
352,160,88163,1,0
456,160,88489,1,8
456,56,88815,2,0,B|224:56,1,210
136,56,89793,1,8
136,56,89956,1,0
136,56,90119,1,0
136,160,90445,1,4
344,160,91098,5,8
136,160,91750,1,0
192,160,91913,1,0
248,160,92076,1,0
248,264,92402,1,8
144,264,92728,1,0
40,264,93054,6,0,B|40:112,1,105
40,104,93543,1,0
40,56,93706,1,8
144,56,94032,1,0
248,56,94358,2,0,B|248:144,1,52.5
248,108,94685,1,0
40,168,95011,5,8
208,296,95337,1,0
376,168,95663,1,0
168,168,95989,1,0
376,168,96315,2,0,B|376:56,2,105,8|0|0
192,64,97619,5,8
88,64,97945,1,0
88,168,98272,2,0,B|304:168,1,210,0|8
472,56,99250,1,0
472,264,99576,1,0
264,264,99902,1,0
432,136,100228,1,8
240,56,100554,1,0
368,224,100880,1,4
168,160,101532,5,8
272,160,101858,1,8
376,160,102185,1,0
400,112,102348,1,8
424,64,102511,1,8
320,64,102837,1,8
120,144,103489,5,0
120,144,103652,1,0
120,144,103815,1,0
224,144,104141,1,8
224,144,104304,1,0
224,144,104467,1,0
328,144,104793,1,0
328,144,104956,1,0
328,144,105119,1,0
328,344,105445,1,8
328,24,105772,1,8
216,32,106098,5,0
160,32,106261,1,0
104,32,106424,1,0
104,344,106750,1,8
104,32,107076,1,0
104,136,107402,5,0
160,136,107565,1,0
216,136,107728,1,0
144,208,108054,1,8
200,208,108217,1,0
256,208,108380,1,0
184,280,108706,1,0
240,280,108869,1,0
296,280,109032,1,0
32,280,109358,1,8
480,280,109685,1,8
480,176,110011,5,0
424,176,110174,1,0
368,176,110337,1,0
32,176,110663,1,8
368,176,110989,1,0
376,72,111315,1,0
320,72,111478,1,0
264,72,111641,1,0
160,72,111967,1,8
160,72,112293,1,4
160,176,112619,6,0,B|240:176,2,52.5
352,272,113272,2,0,B|448:272,2,52.5,8|0|0
352,64,113924,2,0,B|424:64,2,52.5
144,64,114576,1,8
144,272,114902,1,8
328,176,115228,2,0,B|408:176,2,52.5
120,168,115880,1,8
320,80,116206,2,0,B|144:80,1,157.5
208,176,117511,5,4
208,176,117837,1,4
416,176,118489,1,4
416,176,119141,1,4
120,80,119793,5,2
256,160,120119,1,2
120,80,120445,1,2
392,240,121098,5,2
256,160,121424,1,2
384,72,121750,1,2
256,160,122076,1,2
120,240,122402,1,2
256,160,122728,1,2
96,160,123054,1,2
400,224,124032,6,2,B|544:224,3,105
400,224,125337,1,2
296,224,125663,1,2
296,120,125989,1,2
296,120,126152,1,2
296,120,126315,6,2,B|184:120,1,105,0|2
192,64,126804,1,0
192,64,126967,2,0,B|72:64,1,105,0|2
88,120,127456,1,0
88,120,127619,2,0,B|200:120,1,105,0|2
112,192,128272,1,2
112,192,128435,1,2
112,192,128598,2,0,B|240:192,1,105,2|0
424,160,129576,5,8
280,312,129902,1,0
272,104,130228,1,8
400,272,130554,1,0
400,64,130880,1,8
296,64,131206,6,0,B|208:64,2,52.5,0|0|8
192,64,131858,1,0
192,168,132185,1,8
88,168,132511,1,0
88,272,132837,2,0,B|216:272,1,105,8|0
296,272,133489,1,8
376,208,133815,6,0,B|376:120,1,52.5
376,155,134141,1,8
376,56,134467,2,0,B|280:56,1,52.5
322,54,134793,1,8
112,56,135119,1,0
112,272,135445,1,8
296,160,135772,1,0
88,160,136098,1,8
176,104,136424,6,0,B|248:104,1,52.5
228,102,136750,1,8
320,48,137076,2,0,B|232:48,1,52.5
267,48,137402,1,8
320,240,137728,1,0
320,48,138054,1,8
320,352,138380,1,0
320,136,138706,2,0,B|144:136,1,157.5,2|4
160,240,140011,5,8
160,240,140174,1,0
160,240,140337,1,8
368,240,140989,1,8
368,240,141152,1,0
368,240,141315,1,8
264,240,141641,1,8
264,136,141967,1,8
264,136,142130,1,8
264,136,142293,1,8
160,136,142619,5,4
56,136,142945,2,0,B|56:248,1,105,0|8
56,240,143435,1,0
56,240,143598,1,0
152,280,143924,2,0,B|272:280,1,105
257,280,144413,1,0
257,280,144576,2,0,B|384:280,1,105,8|0
360,176,145228,5,0
360,72,145554,1,0
256,72,145880,2,0,B|128:72,1,105,8|0
151,72,146369,1,0
151,72,146532,2,0,B|32:72,1,105
64,176,147185,5,8
168,176,147511,2,0,B|288:176,1,105
376,176,148163,1,0
376,176,148326,1,0
376,176,148489,2,0,B|376:32,1,105,8|0
168,80,149141,5,0
168,288,149467,1,0
376,288,149793,1,8
376,80,150119,1,0
192,184,150445,2,0,B|272:184,3,52.5,4|0|0|0
296,184,151098,1,8
88,184,151750,5,0
88,80,152076,1,0
192,80,152402,1,8
192,80,152565,1,0
192,80,152728,2,0,B|328:80,1,105,0|4
297,80,153217,1,0
297,80,153380,2,0,B|416:80,1,105,0|8
408,160,154032,5,0
304,160,154358,1,0
384,232,154685,1,0
384,232,154848,1,0
384,232,155011,2,0,B|240:232,1,105,8|0
176,232,155663,2,0,B|176:112,2,105,0|0|8
176,232,156478,1,0
176,232,156641,2,0,B|56:232,1,105,0|4
72,120,157293,5,0
176,120,157619,1,8
280,120,157945,1,0
384,120,158272,1,0
384,120,158435,1,0
384,120,158598,2,0,B|384:256,1,105,0|8
280,224,159250,6,0,B|160:224,2,105
280,120,160228,5,8
280,120,160391,1,0
280,120,160554,1,0
280,120,160717,1,0
280,120,160880,1,4
256,192,161206,12,0,162837
272,160,163163,5,0
272,160,163326,1,0
272,160,163489,2,0,B|144:160,1,105
272,160,164141,1,8
376,160,164467,1,0
376,160,164630,1,0
376,160,164793,1,0
376,56,165119,6,0,B|264:56,1,105,0|8
272,56,165608,1,0
272,56,165772,1,0
168,56,166098,1,0
64,56,166424,1,0
64,160,166750,2,0,B|200:160,1,105,8|0
168,160,167239,1,0
168,160,167402,1,0
272,160,167728,5,0
376,160,168054,1,8
480,160,168380,1,0
480,160,168543,1,0
480,160,168706,2,0,B|480:40,1,105
376,56,169358,1,8
376,56,169522,1,0
376,56,169685,1,0
376,56,169848,1,0
376,56,170011,1,0
272,56,170337,6,0,B|192:56,1,52.5
216,112,170663,1,8
216,168,170826,1,8
216,224,170989,2,0,B|104:224,1,105,0|4
216,224,171641,5,0
272,224,171804,1,0
328,224,171967,1,8
384,224,172130,1,8
440,224,172293,1,8
440,168,172456,1,8
440,112,172619,1,8
440,56,172782,1,8
384,56,172945,1,8
328,56,173108,1,8
272,56,173272,1,4
232,152,173598,5,0
136,152,173924,1,0
136,152,174087,1,0
136,152,174250,1,0
136,256,174576,2,0,B|256:256,1,105,8|0
344,256,175228,1,0
344,256,175391,1,0
344,256,175554,2,0,B|344:184,1,52.5
344,160,175880,1,8
344,56,176206,6,0,B|264:56,2,52.5
240,56,176858,1,8
184,56,177022,1,8
128,56,177185,1,8
128,112,177348,1,8
128,168,177511,2,0,B|248:168,1,105,0|4
232,168,178000,1,0
232,168,178163,1,0
336,168,178489,5,8
440,168,178815,1,0
440,272,179141,1,0
440,272,179304,1,0
440,272,179467,2,0,B|304:272,1,105,0|8
280,272,179956,1,0
224,272,180119,1,0
224,168,180445,5,0
168,168,180608,1,0
112,168,180772,1,0
56,168,180935,1,0
56,112,181098,1,8
56,56,181261,1,8
112,56,181424,1,8
168,56,181587,1,8
224,56,181750,1,4
256,192,182076,12,4,184358
