osu file format v9

[General]
AudioFilename: love to be.mp3
AudioLeadIn: 2000
PreviewTime: 49318
Countdown: 0
SampleSet: Soft
StackLeniency: 0.7
Mode: 0
LetterboxInBreaks: 0

[Editor]
Bookmarks: 50084,108040,124599,141158,194974,213085,253965,256552,265867
DistanceSpacing: 2
BeatDivisor: 4
GridSize: 4

[Metadata]
Title:Not Yet Lovers
Artist:S.H.E
Creator:sherrie__fay
Version:Sumisola
Source:
Tags:Girl's dorm Sumisola Selina Hebe Ella chinese lian ren wei man

[Difficulty]
HPDrainRate:7
CircleSize:4
OverallDifficulty:7
ApproachRate:7
SliderMultiplier:1.8
SliderTickRate:2

[Events]
//Background and Video events
0,0,"BG.jpg"
//Break Periods
2,99971,107150
//Storyboard Layer 0 (Background)
//Storyboard Layer 1 (Fail)
//Storyboard Layer 2 (Pass)
//Storyboard Layer 3 (Foreground)
//Storyboard Sound Samples
//Background Colour Transformations
3,100,163,162,255

[TimingPoints]
418,517.464424320828,4,2,2,50,1,0
547,-100,4,2,1,50,0,0
4428,-100,4,2,2,50,0,0
4687,-100,4,2,1,50,0,0
8568,-100,4,2,2,50,0,0
8826,-100,4,2,1,50,0,0
10637,-100,4,2,2,50,0,0
10896,-100,4,2,1,50,0,0
12707,-100,4,2,2,50,0,0
12966,-100,4,2,1,50,0,0
14777,-100,4,2,2,50,0,0
15036,-100,4,2,1,50,0,0
16847,-100,4,2,2,50,0,0
17106,-100,4,2,1,50,0,0
20987,-100,4,2,2,50,0,0
21245,-100,4,2,1,50,0,0
25126,-100,4,2,2,50,0,0
25385,-100,4,2,1,50,0,0
27196,-100,4,2,2,50,0,0
27455,-100,4,2,1,50,0,0
29266,-100,4,2,2,50,0,0
29525,-100,4,2,1,50,0,0
31336,-100,4,2,2,50,0,0
31595,-100,4,2,1,50,0,0
32112,-200,4,2,1,50,0,0
33018,-100,4,2,1,60,0,0
33406,-100,4,2,2,60,0,0
33665,-100,4,2,1,60,0,0
37546,-100,4,2,2,60,0,0
37804,-100,4,2,1,60,0,0
41685,-100,4,2,2,60,0,0
41944,-100,4,2,1,60,0,0
43755,-100,4,2,2,60,0,0
44014,-100,4,2,1,60,0,0
45825,-100,4,2,2,60,0,0
46084,-100,4,2,1,60,0,0
47895,-100,4,2,2,60,0,0
48154,-100,4,2,1,60,0,0
49706,-100,4,2,1,55,0,0
49965,-100,4,2,2,55,0,0
50223,-100,4,2,1,55,0,0
52035,-100,4,2,2,55,0,0
52293,-100,4,2,1,55,0,0
54104,-100,4,2,2,55,0,0
54363,-100,4,2,1,55,0,0
56174,-100,4,2,2,55,0,0
56433,-100,4,2,1,55,0,0
58244,-100,4,2,2,55,0,0
58503,-100,4,2,1,55,0,0
60314,-100,4,2,2,55,0,0
60573,-100,4,2,1,55,0,0
62384,-100,4,2,2,55,0,0
62643,-100,4,2,1,55,0,0
64454,-100,4,2,2,55,0,0
66524,-100,4,2,1,55,0,0
66653,-100,4,2,2,60,0,1
66782,-100,4,2,1,60,0,0
74803,-100,4,2,2,60,0,0
75062,-100,4,2,1,60,0,0
78943,-100,4,2,2,60,0,0
79201,-100,4,2,1,60,0,0
81013,-100,4,2,2,60,0,0
81271,-100,4,2,1,60,0,0
83212,-100,4,2,2,50,0,1
83341,-100,4,2,1,60,0,0
91362,-100,4,2,2,60,0,0
91621,-100,4,2,1,60,0,0
93432,-100,4,2,2,60,0,0
93690,-100,4,2,1,60,0,0
95502,-100,4,2,2,60,0,0
95760,-100,4,2,1,60,0,0
97571,-100,4,2,2,60,0,0
97830,-100,4,2,1,60,0,0
99771,-100,4,2,1,60,0,1
99900,-100,4,2,2,60,0,0
108050,-100,4,2,2,50,0,0
108179,-100,4,2,1,60,0,0
116200,-100,4,2,2,60,0,0
116459,-100,4,2,1,60,0,0
120340,-100,4,2,2,60,0,0
120599,-100,4,2,1,60,0,0
122410,-100,4,2,2,60,0,0
122668,-100,4,2,1,60,0,0
124609,-100,4,2,2,40,0,0
124674,-100,4,2,1,60,0,0
132759,-100,4,2,2,60,0,0
133018,-100,4,2,1,60,0,0
134829,-100,4,2,2,60,0,0
135088,-100,4,2,1,60,0,0
136899,-100,4,2,2,60,0,0
137157,-100,4,2,1,60,0,0
138969,-100,4,2,2,60,0,0
139227,-100,4,2,1,60,0,0
141168,-100,4,2,2,45,0,0
141233,-100,4,2,1,60,0,0
149318,-100,4,2,2,60,0,0
149577,-100,4,2,1,60,0,0
151388,-100,4,2,2,60,0,0
151646,-100,4,2,1,60,0,0
153458,-100,4,2,2,60,0,0
153716,-100,4,2,1,60,0,0
155010,-100,4,2,2,60,0,0
155269,-100,4,2,1,60,0,0
155527,-100,4,2,2,60,0,0
155786,-100,4,2,1,60,0,0
157727,-100,4,2,2,60,0,1
157856,-100,4,2,1,70,0,0
165877,-100,4,2,2,70,0,0
166135,-100,4,2,1,70,0,0
170016,-100,4,2,2,70,0,0
170275,-100,4,2,1,70,0,0
172086,-100,4,2,2,70,0,0
172345,-100,4,2,1,70,0,0
174156,-100,4,2,1,60,0,0
174286,-100,4,2,2,50,0,1
174415,-100,4,2,1,70,0,0
176226,-100,4,2,2,70,0,0
177002,-100,4,2,1,70,0,0
180366,-100,4,2,2,70,0,0
181142,-100,4,2,1,70,0,0
182436,-100,4,2,2,70,0,0
182694,-100,4,2,1,70,0,0
184505,-100,4,2,2,70,0,0
184764,-100,4,2,1,70,0,0
186575,-100,4,2,2,70,0,0
186834,-100,4,2,1,70,0,0
188645,-100,4,2,2,70,0,0
188904,-100,4,2,1,70,0,0
190844,-100,4,2,1,60,0,0
194855,-200,4,2,2,60,0,0
195113,-200,4,2,1,60,0,0
196148,-100,4,2,1,60,0,0
196925,-100,4,2,2,60,0,0
197183,-100,4,2,1,60,0,0
197442,-100,4,2,2,60,0,0
197701,-100,4,2,1,60,0,0
198477,-100,4,2,2,60,0,0
198736,-100,4,2,1,60,0,0
198994,-200,4,2,2,60,0,0
199253,-200,4,2,1,60,0,0
200288,-100,4,2,1,60,0,0
201064,-100,4,2,2,60,0,0
201323,-100,4,2,1,60,0,0
201582,-100,4,2,2,60,0,0
201841,-100,4,2,1,60,0,0
202617,-100,4,2,2,60,0,0
202875,-100,4,2,1,60,0,0
203134,-133.333333333333,4,2,2,60,0,0
203393,-133.333333333333,4,2,1,60,0,0
204169,-100,4,2,1,60,0,0
205204,-100,4,2,2,60,0,0
205463,-100,4,2,1,60,0,0
211349,-200,4,2,1,5,0,0
211414,-200,4,2,2,70,0,0
211672,-200,4,2,1,5,0,0
213483,-100,4,2,1,60,0,0
213613,-100,4,2,2,60,0,1
213742,-100,4,2,1,80,0,1
217623,-100,4,2,2,80,0,1
217882,-100,4,2,1,80,0,1
221763,-100,4,2,2,80,0,1
222022,-100,4,2,1,80,0,1
223962,-100,4,2,2,80,0,1
224091,-100,4,2,1,80,0,1
225903,-100,4,2,2,80,0,1
226161,-100,4,2,1,80,0,1
228102,-100,4,2,2,80,0,1
228231,-100,4,2,1,80,0,1
230042,-100,4,2,1,60,0,0
230172,-100,4,2,2,60,0,1
230301,-100,4,2,1,80,0,1
234182,-100,4,2,2,80,0,1
234441,-100,4,2,1,80,0,1
238322,-100,4,2,2,80,0,1
238581,-100,4,2,1,80,0,1
240392,-100,4,2,2,80,0,1
240650,-100,4,2,1,80,0,1
242461,-100,4,2,2,80,0,1
242720,-100,4,2,1,80,0,1
244531,-100,4,2,2,80,0,1
244790,-100,4,2,1,80,0,1
246731,-100,4,2,1,75,0,0
248671,-100,4,2,2,70,0,0
248930,-100,4,2,1,70,0,0
250870,-200,4,2,2,60,0,0
251000,-200,4,2,1,60,0,0
252811,-200,4,2,2,60,0,0
253070,-200,4,2,1,5,0,0
253975,-200,4,2,1,40,0,0
254104,-200,4,2,1,5,0,0
255010,-200,4,2,1,40,0,0
255916,-200,4,2,1,5,0,0
256562,-200,4,2,1,50,0,0
256950,-133.333333333333,4,2,2,40,0,0
257209,-133.333333333333,4,2,2,40,0,0
259538,-133.333333333333,4,2,2,30,0,0
259797,-133.333333333333,4,2,2,25,0,0
260314,-133.333333333333,4,2,2,40,0,0
263289,574.162679425837,4,2,2,50,1,0
264437,652.173913043478,4,2,2,50,1,0

[Colours]
Combo1 : 128,128,255
Combo2 : 0,155,0
Combo3 : 0,128,255
Combo4 : 255,147,147
Combo5 : 255,150,100
SliderBorder : 255,255,255

[HitObjects]
256,192,418,2,0,B|280:160|332:140|388:160|416:192,2,180,2|0|4
332,256,1711,1,0
332,256,2229,1,0
331,145,2487,6,0,B|324:112|260:72|192:88|148:136|136:208|176:272|244:280,1,360,0|8
256,192,3781,1,0
256,192,3910,1,0
256,192,4040,1,0
243,280,4298,1,0
256,192,4557,6,0,B|280:196|312:216|332:248|328:292,2,135,2|0|0
160,152,5592,2,0,B|171:113|213:77|273:76|307:102,1,180,4|0
352,184,6368,1,0
344,280,6627,6,0,B|300:276|271:251|257:216|258:191,2,135
352,184,7662,2,0,B|352:136|304:108,1,90,8|0
100,192,8438,1,2
160,124,8697,5,2
100,192,8956,1,0
80,168,9085,1,0
72,136,9214,1,0
108,52,9473,1,2
236,60,9732,2,0,B|263:89|274:143|244:195|204:212,1,180,4|0
136,272,10508,1,0
100,192,10767,6,0,B|60:212|44:240|45:284|56:308,2,135,2|0|0
164,132,11802,1,8
248,160,12060,1,0
248,160,12190,1,0
248,160,12319,2,0,B|264:112|232:76,1,90
148,47,12837,6,0,B|132:92|164:132,1,90,2|0
176,148,13225,1,0
184,164,13354,2,0,B|216:204|199:248,1,90
172,332,13872,2,0,B|124:313|116:267,1,90,4|2
96,180,14389,2,0,B|49:188|31:235,1,90
52,324,14907,2,0,B|98:315|116:268,1,90,2|0
116,268,15295,1,2
116,268,15424,1,0
96,180,15683,5,2
172,332,15941,1,8
172,332,16459,5,0
252,288,16718,1,2
272,196,16976,2,0,B|232:188|198:196|172:224|163:256,2,135,2|2|2
336,260,18011,2,0,B|352:308|320:344,1,90,4|0
360,176,18787,1,0
432,112,19046,2,0,B|459:141|470:195|440:247|400:264,2,180,0|0|4
344,88,20340,1,0
344,88,20469,1,0
344,88,20599,2,0,B|292:100|280:144,1,90
193,169,21116,6,0,B|195:196|218:226|253:243|297:234,2,135,2|0|0
148,96,22151,1,4
72,260,22668,1,0
112,180,22927,1,0
148,96,23186,2,0,B|188:72|232:92|232:92|276:112|324:96,2,180,0|0|4
56,96,24480,6,0,B|4:96,2,45
104,20,24997,1,0
148,96,25256,2,0,B|192:176,1,90,2|0
196,184,25644,1,0
200,192,25773,2,0,B|292:192,1,90,0|2
380,192,26291,1,4
332,268,26549,5,2
424,116,26808,1,0
464,192,27067,1,2
336,116,27326,2,0,B|328:68|372:40,1,90,2|0
372,40,27714,1,0
372,40,27843,2,0,B|413:8|455:32,1,90,0|2
464,192,28361,1,4
424,272,28619,6,0,B|424:360,2,45,0|0|0
424,272,29137,1,2
384,192,29396,2,0,B|320:156|256:192,2,135,2|0|0
424,272,30430,1,4
344,324,30689,1,0
160,192,31207,1,0
256,192,31465,1,2
208,268,31724,1,2
208,268,31853,1,0
208,268,31983,1,0
156,344,32242,6,0,B|116:313|116:268,1,90,2|0
116,268,33276,5,0
160,192,33535,2,0,B|116:168|72:192,1,90,2|0
156,344,34053,1,0
208,268,34311,1,2
256,192,34570,2,0,B|300:168|344:192,1,90,4|0
256,344,35346,5,0
208,268,35605,1,0
208,268,36123,1,0
208,268,36640,2,0,B|120:268,1,90,4|0
96,268,37028,1,0
72,268,37157,2,0,B|44:312|72:356,1,90
172,128,37675,5,2
117,192,37934,2,0,B|72:192,2,45
172,128,38451,1,0
256,128,38710,2,0,B|284:172|256:216,1,90,4|2
172,340,39227,2,0,B|144:296|172:252,1,90
256,128,39745,1,0
212,192,40004,1,0
256,128,40262,2,0,B|340:88|432:128,1,180,0|4
492,192,41038,5,0
492,192,41168,1,0
492,192,41297,2,0,B|492:280,1,90
416,240,41815,2,0,B|416:296|416:296|416:320|432:340|448:352|472:356,2,135,2|0|0
336,192,42850,1,4
256,236,43108,1,2
20,192,43626,5,0
96,240,43885,2,0,B|96:296|96:296|96:320|80:340|64:352|40:356,2,135,2|0|0
96,148,44919,1,4
176,192,45178,1,0
256,24,45696,5,2
256,108,45954,1,2
256,192,46213,1,0
256,192,46342,1,0
256,192,46472,1,0
316,260,46731,2,0,B|360:284|404:260,1,90,0|4
460,192,47248,2,0,B|508:192,2,45
360,192,47765,1,0
256,192,48024,6,0,B|164:192,1,90,2|0
152,192,48412,1,2
140,192,48542,1,0
68,244,48800,1,8
256,108,49318,1,0
444,244,49835,5,0
344,192,50094,2,0,B|256:192,1,90,2|0
254,192,50482,1,2
254,192,50612,1,0
256,272,50870,2,0,B|348:272,1,90,2|4
416,232,51388,1,0
256,108,51905,5,0
196,32,52164,2,0,B|163:54|136:100|160:162|196:188,1,180,2|0
256,108,52940,1,2
312,32,53199,1,8
312,32,53458,1,2
440,192,53975,5,2
392,268,54234,2,0,B|256:268,1,135,2|0
244,268,54751,2,0,B|208:264|188:236|184:208,1,90
256,192,55269,2,0,B|352:192,2,90,8|2|0
164,192,56045,5,0
208,272,56304,1,2
308,120,56692,1,0
308,120,56821,2,0,B|416:120,1,90,0|2
452,192,57339,1,8
396,264,57597,2,0,B|344:264,2,45
452,192,58115,1,2
512,84,58374,6,0,B|510:69|498:53|480:36|456:36|456:36|400:36,1,135,2|0
380,36,58891,2,0,B|288:36,1,90,0|2
256,120,59408,1,4
224,36,59667,1,2
344,304,60185,6,0,B|300:324|256:304,1,90,0|2
300,220,60702,1,0
300,220,60831,1,2
300,220,60961,2,0,B|344:200|388:220,1,90,0|2
256,304,61478,1,8
212,220,61737,1,2
212,220,62254,5,2
308,68,62513,1,2
256,140,62772,1,0
256,140,62901,1,0
256,140,63031,2,0,B|212:160|168:140,1,90
256,4,63548,5,8
308,68,63807,1,2
308,68,63936,1,0
308,68,64066,1,0
360,140,64324,1,2
320,268,64583,6,0,B|302:285|267:299|230:296|196:267,1,135,2|0
196,268,65101,2,0,B|176:312|196:356,1,90,0|2
256,192,65618,1,8
196,268,65877,2,0,B|148:268,2,45,2|0|0
312,268,66394,1,2
256,116,66653,5,4
324,156,66912,1,0
256,192,67170,1,0
324,80,67429,1,0
192,156,67688,2,0,B|170:110|196:69,1,90,4|2
256,264,68464,5,0
332,312,68723,2,0,B|308:348|256:372|201:347|180:312,2,180,0|0|8
376,232,70016,1,0
376,232,70146,1,0
376,232,70275,2,0,B|335:207|289:229,1,90,0|2
80,304,70793,5,2
144,232,71051,1,0
144,232,71181,1,0
144,232,71310,1,0
204,304,71569,1,0
100,152,71828,2,0,B|144:128|188:152,1,90,4|2
144,372,72604,5,0
80,304,72863,2,0,B|104:276|180:276|204:304,1,135
216,320,73380,1,0
300,372,73639,1,2
372,320,73897,2,0,B|468:320,1,90,8|2
460,320,74286,1,0
460,320,74415,2,0,B|482:277|458:233,1,90,0|2
372,236,74932,6,0,B|237:236,2,135,2|0|2
452,192,75967,1,4
376,148,76226,1,2
60,192,76744,5,0
140,148,77002,2,0,B|276:148,1,135
292,148,77520,2,0,B|315:191|292:233,1,90,0|2
216,280,78037,1,8
292,328,78296,1,2
144,224,78813,5,2
144,132,79072,2,0,B|284:132,1,135,2|0
296,132,79590,1,0
264,48,79848,2,0,B|172:48,1,90,2|4
144,132,80366,1,2
256,332,80883,5,0
312,264,81142,2,0,B|364:192,1,90,2|0
364,191,81530,1,2
364,191,81659,1,0
272,192,81918,2,0,B|212:264,1,90,2|8
172,192,82436,2,0,B|156:212|156:212|132:240|128:276|140:316|180:336|204:336,1,180,2|0
256,80,83212,5,4
212,152,83471,1,0
256,8,83729,1,0
340,80,83988,1,0
212,152,84247,2,0,B|256:136|300:152,1,90,4|0
256,272,84764,1,0
376,152,85023,1,0
172,80,85282,5,0
192,124,85799,1,2
212,160,86317,1,8
260,236,86575,5,2
260,236,86705,1,0
260,236,86834,2,0,B|308:312,1,90,0|2
172,80,87352,5,2
128,160,87610,2,0,B|104:200,2,45
172,80,88128,1,0
256,32,88386,2,0,B|344:32,1,90,4|2
440,192,88904,2,0,B|348:192,1,90
256,116,89421,5,0
352,116,89680,1,0
352,116,89809,1,0
352,116,89939,2,0,B|448:116,1,90,0|2
352,272,90456,1,8
308,192,90715,5,2
396,192,90974,2,0,B|488:192,1,90,0|2
440,276,91491,2,0,B|436:324|392:348,1,90,2|0
376,348,91879,1,0
360,348,92009,2,0,B|272:348,1,90,0|2
256,192,92526,1,4
348,192,92785,5,2
304,264,93044,1,0
208,120,93302,1,0
256,191,93561,2,0,B|304:172|300:121,1,90,2|0
299,120,93949,1,0
299,120,94079,1,0
208,120,94337,2,0,B|164:100|120:120,1,90,2|8
28,264,94855,5,2
72,192,95113,1,0
116,264,95372,1,2
28,120,95631,2,0,B|72:100|116:120,1,90,2|0
140,156,96019,1,2
168,192,96148,2,0,B|211:211|255:191,1,90
212,112,96666,1,4
300,268,96925,6,0,B|333:244|353:193|335:136|299:112,1,180,2|0
256,40,97701,1,2
300,112,97960,1,0
300,112,98089,1,2
300,112,98218,2,0,B|392:112,1,90,0|2
432,192,98736,5,8
392,272,98994,1,2
392,272,99124,1,0
392,272,99253,1,0
300,272,99512,1,2
256,192,99771,1,0
256,192,108050,6,4,B|248:244|196:256,1,90,4|0
168,172,108568,2,0,B|176:124|224:104,2,90,0|0|4
112,300,109344,2,0,B|130:335|177:364|236:354|266:323,1,180
364,192,110120,5,0
396,244,110637,1,0
436,296,111155,1,8
492,352,111672,2,0,B|524:320|512:268,1,90
408,112,112190,5,0
276,192,112449,1,0
364,192,112707,1,0
228,112,112966,1,0
316,112,113225,2,0,B|272:196,1,90,4|2
144,112,113742,2,0,B|144:64|188:40,1,90
316,112,114260,5,2
284,168,114777,1,0
252,220,115295,1,8
216,272,115812,6,0,B|116:272,1,90,0|2
36,272,116330,2,0,B|35:225|80:196,1,90,2|0
100,184,116718,1,0
124,180,116847,2,0,B|216:180,1,90,0|2
292,224,117364,1,4
184,368,117882,6,0,B|240:296,1,90
344,152,118399,1,0
292,224,118658,1,0
256,108,118917,2,0,B|274:72|321:43|380:53|410:84,1,180,0|8
464,348,119952,5,0
452,260,120211,1,2
440,172,120469,2,0,B|415:175|383:194|362:225|364:269,2,135,2|0|0
412,84,121504,2,0,B|364:88|332:128,1,90,4|2
256,288,122280,5,0
104,192,122539,1,2
180,240,122798,2,0,B|202:202|204:140|157:104|116:100,1,180
92,284,123574,1,8
104,192,123833,1,2
104,192,124350,5,2
120,100,124609,2,0,B|136:56|192:48,1,90,4|0
256,104,125126,1,0
256,104,125385,1,2
328,48,125644,1,4
396,104,125903,2,0,B|417:136|420:195|371:234|328:240,1,180
183,240,126679,6,0,B|140:234|91:195|94:136|116:104,1,180
188,152,127455,1,2
73,270,127714,2,0,B|38:246|28:196,1,90,4|0
20,172,128102,1,2
15,143,128231,2,0,B|12:100|44:60,1,90,0|2
192,48,128749,6,0,B|256:20|324:48,2,135,2|0|0
256,192,129784,1,8
256,112,130042,1,2
176,192,130301,6,0,B|176:244|224:268,1,90
256,272,130689,1,0
292,265,130819,2,0,B|336:244|336:192,1,90
300,112,131336,2,0,B|256:92|212:112,1,90
124,268,131853,1,4
168,192,132112,2,0,B|212:192,2,45,2|2|0
76,192,132630,5,2
132,360,132888,2,0,B|175:354|202:328|215:293|214:268,1,135,2|0
213,267,133406,1,0
168,192,133665,1,2
124,268,133923,1,4
76,192,134182,6,0,B|36:216|36:268,2,90,2|0|2
180,96,134958,2,0,B|223:101|250:127|264:164|260:188,1,135,2|2
260,204,135476,2,0,B|252:252|200:272,1,90,0|2
123,314,135993,2,0,B|100:268|124:228,1,90,4|2
404,80,136769,5,0
448,156,137028,2,0,B|480:240,1,90,2|0
480,240,137416,1,0
480,240,137546,1,0
440,320,137804,1,0
392,240,138063,6,0,B|356:156,1,90,4|0
356,157,138451,1,2
356,157,138581,5,0
404,80,138839,1,2
392,240,139098,2,0,B|352:257|315:248|285:223|276:200,1,135,2|2
268,184,139615,2,0,B|256:136|288:96,1,90,0|2
448,156,140133,1,8
256,328,140650,5,0
192,256,140909,1,2
256,192,141168,2,0,B|304:208|328:248,1,90,4|0
326,245,141556,1,0
326,245,141685,1,0
192,256,141944,2,0,B|162:223|150:162|190:118|227:107,1,180,8|0
256,328,142979,5,0
192,256,143238,2,0,B|224:226|285:214|329:254|340:291,2,180,0|0|8
368,372,144790,1,0
340,292,145049,2,0,B|388:276|424:308,1,90,2|0
256,328,145696,1,2
256,328,145825,2,0,B|240:284|264:240,1,90
344,200,146342,1,4
344,200,146601,1,2
432,176,146860,2,0,B|444:228|412:260,1,90
264,240,147377,6,0,B|247:200|256:163|281:133|304:124,1,135
316,112,147895,1,0
404,88,148154,1,2
432,176,148412,1,4
404,88,148671,1,0
388,64,148800,1,2
360,40,148930,1,0
272,36,149189,1,2
140,132,149447,6,0,B|136:153|140:192|153:226|192:246,1,135,2|0
212,256,149965,2,0,B|252:284|256:332,1,90,0|2
168,328,150482,2,0,B|72:328,2,90,4|2|0
256,331,151258,1,0
348,328,151517,6,0,B|344:280|320:252|288:236|260:236,1,135,2|2
248,236,152035,1,0
160,236,152293,1,2
204,156,152552,2,0,B|248:132|292:156,1,90,8|2
304,168,152940,1,2
316,180,153070,2,0,B|348:216|332:264,1,90,0|2
204,156,153587,5,2
236,216,153846,1,0
168,96,154104,1,2
240,96,154363,1,0
164,216,154622,5,8
204,36,154881,1,2
276,156,155139,1,2
132,156,155398,1,0
204,36,155657,6,0,B|296:36,1,90,2|0
294,36,156045,1,2
294,36,156174,1,0
360,96,156433,1,2
440,136,156692,2,0,B|424:180|368:188,1,90,8|2
276,156,157209,1,2
216,92,157468,5,2
216,92,157597,1,0
216,92,157727,2,0,B|176:120|188:172,1,90,4|0
364,176,158244,1,0
276,156,158503,1,2
296,236,158762,1,4
336,92,159020,1,0
336,92,159538,5,0
364,176,159797,2,0,B|400:212|384:260,1,90,0|0
316,316,160314,1,0
404,340,160573,2,0,B|476:368,2,45,0|0|8
316,316,161090,1,0
296,308,161220,1,0
276,300,161349,1,0
196,260,161608,1,0
56,164,161866,6,0,B|64:116|116:96,1,90,2|0
196,260,162384,1,0
152,180,162643,1,0
108,260,162901,1,4
200,108,163160,1,2
200,108,163678,5,0
244,184,163936,2,0,B|288:208|332:184,1,90
324,28,164454,2,0,B|280:56|288:108,1,90,0|2
384,256,164971,1,8
384,256,165230,2,0,B|436:256,2,45
320,192,165747,1,2
408,176,166006,6,0,B|448:156|496:176,1,90,2|0
500,200,166394,1,2
504,220,166524,2,0,B|524:268|496:308,1,90,0|2
408,176,167041,1,4
408,176,167559,5,0
320,192,167817,1,0
380,260,168076,2,0,B|432:276|464:244,1,90
464,244,168464,1,0
464,244,168593,1,0
496,160,168852,1,0
320,192,169111,1,8
320,192,169628,6,0,B|280:224|288:272,1,90,0|2
356,108,170146,1,2
412,180,170405,1,0
356,108,170663,1,0
280,56,170922,1,0
280,56,171051,1,0
280,56,171181,2,0,B|188:56,1,90,4|2
72,192,171698,5,0
136,124,171957,1,2
196,192,172216,1,2
136,260,172474,2,0,B|104:296,2,45
196,192,172992,1,2
256,260,173251,1,8
196,192,173509,2,0,B|230:164|292:156|333:197|342:234,1,180,2|0
228,344,174286,5,4
256,260,174544,1,0
316,328,174803,1,0
196,192,175062,1,2
256,260,175320,2,0,B|292:232|288:180,1,90,4|2
144,120,175838,5,0
196,192,176097,1,0
232,112,176355,2,0,B|228:72|188:24|128:28|91:53,2,180,2|2|8
196,192,177649,2,0,B|176:232,2,45,2|2|0
232,112,178167,1,0
136,312,178425,5,2
76,192,178684,1,0
196,192,178943,1,0
136,240,179201,1,2
256,136,179460,2,0,B|284:176|272:224,1,90,4|2
264,312,179978,5,0
188,256,180236,1,0
200,168,180495,2,0,B|210:125|248:84|312:89|342:114,2,180,2|2|8
188,256,181789,1,2
188,256,181918,1,0
188,256,182048,1,0
272,284,182306,1,2
360,304,182565,6,0,B|372:256|336:220,1,90,2|0
337,221,182953,1,0
337,221,183082,1,0
304,136,183341,1,2
392,148,183600,1,4
336,220,183859,6,0,B|284:236|252:204,2,90,2|0|0
392,148,184635,1,2
360,64,184894,1,0
360,64,185023,1,0
360,64,185152,2,0,B|320:32|276:48,1,90,0|0
216,116,185670,1,8
249,204,185928,6,0,B|200:220|164:192,2,90,2|0|2
304,136,186705,1,2
216,116,186963,2,0,B|240:76,2,45
164,192,187481,2,0,B|116:272,2,90,0|4|2
256,40,188257,5,0
304,116,188516,2,0,B|392:116,1,90,2|2
444,192,189033,1,0
444,192,189163,1,2
444,192,189292,1,0
396,268,189551,1,2
348,344,189809,6,0,B|256:344,1,90,8|2
258,344,190198,1,0
258,344,190327,2,0,B|168:344,1,90,0|2
76,344,190844,6,0,B|76:296|116:268,1,90,0|0
170,193,191362,2,0,B|216:216|216:264,1,90,0|2
72,192,191879,1,4
216,112,192138,2,0,B|252:136|279:193|250:244|217:264,1,180
116,100,192914,2,0,B|115:61|143:10|206:2|246:20,1,180
404,240,193949,5,8
372,192,194467,1,0
340,144,194984,6,0,B|299:126|237:133|208:184|209:223,1,180,4|4
300,228,196278,1,0
300,228,196795,1,0
356,264,197054,5,2
240,192,197313,1,0
300,296,197571,1,2
356,192,197830,1,0
240,264,198089,5,8
300,160,198348,1,2
416,228,198606,1,2
356,124,198865,1,2
356,336,199124,6,0,B|315:353|253:346|224:295|225:256,1,180,4|4
256,192,200418,1,2
256,192,200935,1,0
316,156,201194,5,2
196,156,201452,1,0
316,224,201711,1,2
256,124,201970,1,0
196,224,202229,5,8
316,84,202487,1,2
256,192,202746,1,2
196,84,203005,1,2
256,260,203264,6,0,B|240:292|200:300|170:295|148:280,2,101.249996982515,4|0|2
372,124,204298,1,4
372,124,204816,2,0,B|464:124,1,90
464,192,205333,5,2
304,124,205592,1,0
416,56,205851,1,0
372,192,206110,1,2
300,56,206368,6,0,B|248:64|236:116,2,90,4|2|0
368,56,207145,1,2
368,56,207274,1,0
368,56,207403,2,0,B|516:56,2,135
256,192,208438,1,8
348,192,208697,2,0,B|400:192,2,45,2|2|0
256,192,209214,1,0
256,100,209473,2,0,B|212:76|168:100,1,90
148,268,210249,5,2
148,269,210508,2,0,B|186:298|223:299|256:286|272:268,2,135
104,176,211543,6,0,B|74:186|49:211|16:263|24:328|73:380|146:390|189:363,1,315,2|8
324,208,213613,5,4
360,124,213872,1,0
400,208,214130,1,0
360,124,214389,1,2
320,44,214648,2,0,B|228:44,1,90,4|2
132,192,215165,5,0
184,120,215424,1,2
132,192,215683,2,0,B|92:168|96:116,1,90,0|0
100,96,216071,1,0
104,80,216200,2,0,B|120:36|172:31,1,90,0|0
256,32,216718,1,4
344,32,216976,2,0,B|396:32,2,45,2|0|0
304,112,217494,1,2
344,32,217753,6,0,B|392:48|396:100,1,90,2|0
396,192,218270,2,0,B|396:284,2,90,0|2|4
304,192,219046,1,2
304,192,219176,1,0
304,192,219305,1,0
256,268,219564,1,2
208,192,219822,6,0,B|164:220|164:272,1,90
304,344,220340,2,0,B|348:316|348:264,1,90
400,192,220857,1,4
352,116,221116,1,2
352,116,221245,1,0
352,116,221375,1,0
256,116,221634,1,2
200,36,221892,6,0,B|168:60|148:112|168:168|204:192,1,180,2|0
304,192,222668,1,2
400,192,222927,2,0,B|492:192,1,90,4|2
448,272,223445,1,0
352,272,223703,1,2
352,272,223833,1,0
352,272,223962,2,0,B|260:272,2,90,2|0|0
400,192,224738,1,2
356,116,224997,1,4
304,192,225256,6,0,B|264:212|216:192,2,90,2|0|2
436,60,226032,2,0,B|411:23|355:3|303:23|279:55,1,180,2|0
284,144,226808,2,0,B|336:144|356:96,1,90,2|4
280,54,227326,1,2
372,192,227584,2,0,B|416:212|460:192,1,90,0|2
460,192,227972,1,0
459,192,228102,2,0,B|460:56,2,135,2|2|2
460,284,229137,5,4
380,328,229396,1,2
300,288,229654,1,0
208,288,229913,5,2
208,288,230042,1,2
208,288,230172,2,0,B|164:264|120:288,1,90,4|0
80,364,230689,2,0,B|124:388|168:364,1,90
256,192,231207,2,0,B|232:160|180:140|124:160|100:196,1,180,4|0
36,288,231983,1,0
100,196,232242,6,0,B|96:148|48:120,1,90
100,196,232759,2,0,B|60:164|16:180,1,90
100,196,233276,1,4
124,284,233535,1,2
124,284,233665,1,0
124,284,233794,1,0
188,220,234053,1,2
256,40,234311,6,0,B|212:24|168:40,1,90,2|0
256,40,234829,2,0,B|300:24|344:40,1,90
332,128,235346,2,0,B|308:160|256:180|200:160|176:124,1,180,4|0
256,40,236123,1,0
332,128,236381,6,0,B|380:156|380:208,1,90,2|0
324,288,236899,2,0,B|276:260|276:208,1,90
284,44,237416,2,0,B|317:22|373:21|418:59|429:101,1,180,4|0
448,192,238192,1,2
412,288,238451,6,0,B|316:288,1,90,2|0
322,288,238839,1,2
322,288,238969,1,0
256,228,239227,1,2
188,288,239486,1,4
256,228,239745,1,2
300,144,240004,2,0,B|256:120|212:144,1,90,0|2
256,228,240521,5,2
324,288,240780,2,0,B|372:288,2,45,0|0|0
256,348,241297,1,0
188,288,241556,1,4
96,288,241815,1,0
52,208,242073,2,0,B|92:184|140:208,1,90,0|2
140,368,242591,6,0,B|93:391|53:367,1,90,2|0
53,367,242979,1,0
53,367,243108,1,0
0,288,243367,1,2
52,208,243626,2,0,B|108:132,1,90,4|2
164,68,244143,5,0
256,32,244402,2,0,B|324:92,1,90,2|2
240,124,244919,2,0,B|308:184,1,90
224,220,245437,1,2
296,276,245696,5,4
380,240,245954,2,0,B|420:280,2,45,2|0|0
308,184,246472,1,2
240,124,246731,6,0,B|206:95|168:93|133:108|116:125,1,135
116,144,247248,2,0,B|116:232,1,90,0|2
176,304,247765,1,4
224,228,248024,2,0,B|262:237|315:218|345:167|340:124,1,180
280,60,248800,6,0,B|297:42|331:27|369:29|403:58,1,135,2|2
412,72,249318,2,0,B|440:116|420:164,1,90,0|2
344,192,249835,1,4
344,192,250094,2,0,B|360:240|412:248,2,90,2|0|2
332,104,250870,6,0,B|308:72|256:52|200:72|176:108,1,180,4|4
136,192,252164,1,0
136,192,252681,5,0
228,192,252940,2,0,B|260:169|281:117|263:61|228:36,2,180,2|0|0
140,36,255527,1,0
140,36,255786,2,0,B|280:36,1,135
256,192,257080,6,0,B|120:192,1,134.999995976687,4|2
76,268,257856,1,0
164,268,258115,1,2
340,268,258632,2,0,B|376:212,1,67.4999979883433,0|0
420,136,259150,5,2
456,80,259667,1,2
488,20,260185,1,2
256,192,261220,54,0,B|112:192,2,134.999995976687,2|0|2
360,292,262772,2,0,B|312:244,1,67.4999979883433
256,192,263289,21,2
220,160,264437,5,2
184,124,265741,5,2
