osu file format v9

[General]
AudioFilename: S.H.E - .mp3
AudioLeadIn: 0
PreviewTime: 72336
Countdown: 0
SampleSet: Soft
StackLeniency: 0.6
Mode: 0
LetterboxInBreaks: 1

[Editor]
DistanceSpacing: 1
BeatDivisor: 4
GridSize: 4

[Metadata]
Title:London Bridge Is Falling Down
Artist:S.H.E
Creator:shenpei310
Version:Hard
Source:
Tags:Album Play chickgod popner Selina Hebe Ella

[Difficulty]
HPDrainRate:6
CircleSize:4
OverallDifficulty:6
ApproachRate:7
SliderMultiplier:1.8
SliderTickRate:2

[Events]
//Background and Video events
0,0,"20080505104729157.jpg"
//Break Periods
2,56536,69436
2,88536,93436
2,136536,149436
//Storyboard Layer 0 (Background)
//Storyboard Layer 1 (Fail)
//Storyboard Layer 2 (Pass)
//Storyboard Layer 3 (Foreground)
//Storyboard Sound Samples
//Background Colour Transformations
3,100,163,162,255

[TimingPoints]
336,500,4,2,2,40,1,0
6595,-100,4,2,2,50,0,0
6845,-100,4,2,2,60,0,0
7095,-100,4,2,2,70,0,0
7345,-100,4,2,2,80,0,0
7595,-100,4,2,2,90,0,0
7845,-100,4,2,2,100,0,0
10086,-100,4,1,1,35,0,0
10461,-100,4,2,2,100,0,0
11211,-100,4,1,1,40,0,0
11711,-100,4,2,2,100,0,0
13211,-100,4,1,1,40,0,0
13711,-100,4,2,2,100,0,0
16336,-100,4,2,2,50,0,0
16711,-100,4,2,2,100,0,0
17211,-100,4,1,1,50,0,0
17711,-100,4,2,2,100,0,0
18211,-100,4,1,1,40,0,0
18461,-100,4,2,2,100,0,0
19211,-100,4,1,1,50,0,0
19711,-100,4,2,2,100,0,0
21211,-100,4,1,1,50,0,0
21711,-100,4,2,2,100,0,0
24336,-100,4,2,2,70,0,0
39211,-100,4,1,1,60,0,0
40211,-100,4,2,2,100,0,0
41211,-100,4,1,1,50,0,0
41711,-100,4,2,2,100,0,0
46211,-100,4,1,1,50,0,0
46461,-100,4,2,2,100,0,0
47211,-100,4,2,2,60,0,0
47461,-100,4,2,2,100,0,0
49211,-100,4,1,1,50,0,0
49711,-100,4,2,2,100,0,0
72336,-100,4,2,2,100,0,1
73211,-100,4,1,1,60,0,1
73711,-100,4,2,2,100,0,1
79211,-100,4,1,1,50,0,1
80211,-100,4,1,1,100,0,1
80461,-100,4,2,2,100,0,1
81211,-100,4,1,1,60,0,1
81711,-100,4,2,2,100,0,1
85211,-100,4,1,1,60,0,1
85711,-100,4,2,2,100,0,1
87269,-100,4,1,1,50,0,1
88211,-100,4,2,2,100,0,1
88336,-100,4,2,2,100,0,0
96211,-100,4,1,1,60,0,0
96461,-100,4,2,2,100,0,0
105205,-100,4,2,1,100,0,0
106211,-100,4,1,1,60,0,0
106461,-100,4,2,2,100,0,0
107211,-100,4,1,1,40,0,0
107461,-100,4,2,2,100,0,0
108211,-100,4,1,1,60,0,0
108461,-100,4,2,2,100,0,0
110211,-100,4,1,1,50,0,0
110461,-100,4,2,2,100,0,0
111211,-100,4,1,1,50,0,0
111461,-100,4,2,2,100,0,0
113211,-100,4,1,1,50,0,0
113711,-100,4,2,2,100,0,0
115711,-100,4,2,2,80,0,0
116211,-100,4,2,2,100,0,0
117211,-100,4,1,1,50,0,0
118205,-100,4,2,1,80,0,0
118793,-100,4,2,2,100,0,0
123961,-100,4,1,1,50,0,0
124211,-100,4,2,2,100,0,0
125217,-100,4,1,1,50,0,0
125711,-100,4,2,2,100,0,0
152336,-100,4,2,2,100,0,1
153211,-100,4,1,1,60,0,1
153711,-100,4,2,2,100,0,1
157211,-100,4,1,1,60,0,1
157711,-100,4,2,2,100,0,1
159211,-100,4,1,1,40,0,1
160211,-100,4,1,1,100,0,1
160461,-100,4,2,2,100,0,1
161211,-100,4,1,1,60,0,1
161711,-100,4,2,2,100,0,1
162211,-100,4,1,1,60,0,1
162461,-100,4,2,2,100,0,1
165211,-100,4,1,1,50,0,1
165711,-100,4,2,2,100,0,1
168336,-100,4,2,2,100,0,0

[Colours]
Combo1 : 83,255,87
Combo2 : 255,128,255
Combo3 : 0,226,244

[HitObjects]
256,192,6336,12,4,8336
400,128,8836,5,2
224,80,9336,1,0
240,168,9586,1,0
152,144,9836,1,2
128,320,10336,5,0
296,248,10836,1,8
152,144,11336,1,0
240,168,11586,1,0
224,80,11836,1,2
384,152,12336,5,2
328,320,12836,1,2
216,184,13336,1,0
216,184,13586,1,0
216,184,13836,1,2
256,192,14336,12,2,15836
400,192,16336,5,6
328,80,16711,1,0
304,120,16836,1,2
288,208,17086,1,0
200,192,17336,1,0
216,104,17586,1,0
304,120,17836,1,2
400,272,18336,6,0,B|312:272,1,90
352,192,18836,1,8
264,32,19336,2,0,B|168:32,1,90
216,112,19836,1,2
392,160,20336,5,2
280,240,20711,1,0
280,240,20836,1,2
264,152,21086,1,0
144,208,21336,1,0
136,72,21586,1,0
264,120,21836,1,2
88,304,22336,6,0,B|104:352|160:360,2,90,2|0|8
168,272,23086,2,0,B|208:240|264:256,2,90
224,336,23836,1,0
312,312,24086,1,0
368,240,24336,5,0
368,240,24836,2,0,B|424:208|400:128,1,90,2|0
320,168,25336,2,0,B|280:144|224:168,4,90,0|0|2|0|0
144,112,26836,1,0
132,292,27336,1,2
184,216,27586,1,0
232,292,27836,1,2
184,216,28086,5,0
272,200,28336,1,0
96,160,28836,2,0,B|96:100|168:56|232:88,1,180,2|0
184,168,29586,1,0
168,256,29836,1,2
224,184,30086,1,0
312,160,30336,1,0
312,160,30836,2,0,B|392:80|288:248|448:168,1,180,0|2
112,144,32586,5,0
112,144,32711,1,0
112,144,32836,1,0
168,216,33086,1,2
248,264,33336,1,0
336,272,33586,1,0
288,344,33836,1,2
432,120,34586,5,2
432,120,34711,1,2
432,120,34836,1,0
352,152,35086,1,2
280,104,35336,2,0,B|256:144|272:192,2,90,0|2|0
432,256,36586,6,0,B|424:328|360:320|360:320,1,90,0|2
336,240,37086,2,0,B|320:288|256:264,1,90,0|2
184,224,37586,1,0
240,152,37836,1,0
256,192,38086,12,0,39836
144,120,40336,6,0,B|216:64|216:64|312:64,1,180,4|2
216,224,41336,1,0
304,208,41586,1,0
368,144,41836,1,2
456,176,42086,1,0
384,232,42336,2,0,B|320:232|320:304|320:304,1,90
256,352,42836,2,0,B|200:352|200:280,1,90
201,295,43336,1,2
344,288,44086,6,0,B|392:248|344:176,1,90
448,48,44836,2,0,B|408:16|344:56|344:56,1,90,2|0
328,128,45336,2,0,B|184:128|216:128|216:128,3,90,2|0|2|0
192,208,46336,1,0
344,296,46836,2,0,B|384:240|336:176|336:176,1,90
272,248,47336,1,4
256,192,48586,5,0
256,192,48711,1,0
256,192,48836,1,0
256,192,49086,1,2
232,104,49336,2,0,B|168:96|168:176,2,90,0|0|2
272,280,50586,5,2
312,264,50711,1,0
336,224,50836,1,0
256,192,51086,1,2
336,152,51336,2,0,B|336:96|256:104,2,90,0|2|8
256,192,52586,12,4,56336
248,144,70336,6,0,B|304:128|352:168,1,90,2|0
264,240,70836,2,0,B|208:256|160:216,1,90,2|0
256,192,71336,12,4,72336
200,176,72711,5,2
224,136,72836,1,0
312,104,73086,1,2
400,112,73336,2,0,B|472:120|480:248|384:264,1,180,0|2
232,240,74336,6,0,B|232:312|320:336|368:288,1,180,0|2
312,112,75336,2,0,B|264:112|240:160,2,90,0|0|8
136,128,76336,6,0,B|136:224|64:224|64:224,1,135,2|0
64,176,76836,2,0,B|8:144|64:104,1,90,2|0
136,56,77336,2,0,B|192:56|216:136,1,90
176,192,77836,2,0,B|224:208|264:168,1,90,2|0
408,64,78586,5,0
360,72,78711,1,0
328,104,78836,1,0
376,184,79086,1,0
240,208,79336,1,0
360,272,79586,1,0
232,224,79836,1,0
304,344,80086,1,0
224,232,80336,6,0,B|184:280|104:216|152:144,1,135,4|0
176,152,80836,2,0,B|96:152|80:152,1,90,2|0
132,76,81336,2,0,B|176:52|220:76,2,90,0|0|10
72,248,82336,5,0
240,320,82836,2,0,B|296:336|312:280,1,90,2|0
240,232,83336,2,0,B|240:176|168:176,2,90,2|2|8
288,56,84336,5,2
184,144,84711,1,0
160,184,84836,1,2
272,264,85086,1,0
376,352,85336,1,0
296,232,85586,1,0
424,264,85836,1,2
320,200,86086,2,0,B|448:208|432:16|304:48,1,270,0|2
224,48,87086,5,0
224,48,87211,1,0
224,48,87336,1,0
144,160,87586,1,0
272,192,87836,1,0
176,288,88086,1,0
144,160,88336,1,4
80,88,94336,5,2
192,128,94586,1,0
72,136,94836,1,2
192,128,95086,1,0
88,176,95336,1,2
192,128,95586,1,0
112,208,95836,1,2
192,128,96086,1,0
280,120,96336,5,4
408,164,96711,1,2
408,180,96836,1,0
360,256,97086,1,2
272,264,97336,1,0
136,216,97586,1,0
248,124,97836,1,2
256,192,98586,5,2
256,200,99086,1,2
256,208,100336,5,2
256,216,101086,1,2
336,194,102336,6,0,B|296:146|288:250|232:162,1,90,2|8
256,192,103086,1,0
192,256,103336,2,0,B|192:344,4,45,2|2|0|0|0
128,192,104086,1,2
192,128,104336,6,0,B|204:184|268:232|328:228,1,180,4|0
348,48,105336,1,2
144,280,106336,5,4
208,216,106586,2,0,B|264:264,4,45
120,192,107336,1,0
176,120,107586,2,0,B|224:160|288:104,1,90,2|0
312,192,108086,1,2
400,224,108336,5,4
328,272,108586,2,0,B|296:272|296:320,4,45,0|0|0|0|2
240,240,109336,2,0,B|240:304|176:256|192:352,1,90,0|2
104,288,109836,2,0,B|96:232|144:216,1,90,0|2
208,152,110336,1,0
208,152,110836,2,0,B|320:112|256:68|192:112|304:152,1,180,2|0
296,240,111586,1,2
296,240,112086,1,2
384,168,112336,5,2
304,120,112586,1,0
264,104,112711,1,0
216,96,112836,2,0,B|160:88|112:136,1,90,0|2
72,184,113336,1,0
136,248,113586,2,0,B|192:240|208:152,1,90,0|2
352,72,114586,6,0,B|296:72,2,45,2|2|0
392,152,115086,1,2
368,240,115336,1,2
280,224,115586,1,2
304,136,115836,1,4
192,160,116586,6,0,B|136:160|96:80,1,90,0|2
208,88,117086,2,0,B|256:88|296:152,1,90
368,104,117586,1,0
448,152,117836,1,0
440,240,118086,2,0,B|368:336|296:232|296:232|224:336|144:232,1,360,0|2
216,184,119336,5,2
296,152,119586,1,0
376,192,119836,1,2
296,152,120086,1,0
376,104,120336,6,0,B|336:56|264:52|216:96,1,180,4|2
280,264,121336,2,0,B|292:176,4,90,0|0|2|0|0
280,264,122836,1,2
376,168,123211,1,2
376,168,123336,1,2
288,152,123586,1,2
211,200,123836,1,2
208,112,124086,1,0
288,152,124336,6,0,B|184:176|184:304,1,180,0|2
112,120,125336,1,0
68,196,125586,1,0
112,276,125836,1,2
200,264,126086,1,0
272,212,126336,2,0,B|226:156|153:163|116:226,2,180,0|0|2
352,256,127586,5,2
432,296,127836,1,0
472,216,128086,1,0
392,176,128336,1,2
352,256,128586,5,0
320,288,128711,1,0
280,312,128836,2,0,B|232:336|192:288,1,90,0|2
120,256,129336,1,0
160,176,129586,1,0
240,216,129836,1,2
224,64,130586,5,0
264,88,130711,1,0
288,128,130836,2,0,B|320:168|296:216,1,90,2|0
232,280,131336,1,2
320,264,131586,1,2
240,224,131836,1,0
256,192,132586,12,4,136336
256,192,150336,12,4,152336
128,136,152711,6,2,B|184:96,1,45,2|0
248,88,153086,1,2
384,112,153336,1,0
304,224,153586,1,0
440,248,153836,1,2
448,72,154336,6,0,B|424:8|304:24|304:112,1,180,0|2
328,264,155336,2,8,B|384:264|384:208,2,90,2|2|8
168,184,156336,6,0,B|232:128|304:184,1,135,2|0
280,216,156836,2,0,B|240:248|184:216,1,90,2|0
144,152,157336,1,0
72,200,157586,1,0
128,272,157836,1,10
195,221,158086,2,0,B|240:224|272:264,1,90,0|0
328,192,158586,5,2
352,184,158711,1,2
376,192,158836,1,0
384,280,159086,1,0
256,320,159336,1,0
136,264,159586,1,0
104,136,159836,1,0
200,40,160086,1,0
176,128,160336,6,0,B|152:208|248:256,1,135,4|0
272,256,160836,1,2
280,168,161086,1,0
328,240,161336,1,0
288,160,161586,1,0
368,200,161836,1,10
224,96,162336,5,0
208,272,162836,2,0,B|152:232|200:160,1,90,2|0
272,208,163336,2,0,B|272:152|336:152,2,90,2|0|8
448,176,164336,5,2
320,288,164711,1,0
320,288,164836,1,2
192,264,165086,1,0
176,128,165336,1,0
304,80,165586,1,0
400,176,165836,1,0
256,192,166086,12,4,168336
