osu file format v9

[General]
AudioFilename: S.H.E - .mp3
AudioLeadIn: 0
PreviewTime: 72336
Countdown: 0
SampleSet: Soft
StackLeniency: 0.7
Mode: 0
LetterboxInBreaks: 1

[Editor]
DistanceSpacing: 0.8
BeatDivisor: 4
GridSize: 4

[Metadata]
Title:London Bridge Is Falling Down
Artist:S.H.E
Creator:shenpei310
Version:Easy
Source:
Tags:Album Play chickgod popner Selina Hebe Ella

[Difficulty]
HPDrainRate:2
CircleSize:3
OverallDifficulty:1
ApproachRate:3
SliderMultiplier:1.3
SliderTickRate:2

[Events]
//Background and Video events
0,0,"20080505104729157.jpg"
//Break Periods
2,56536,68896
2,88536,102896
2,136536,148896
//Storyboard Layer 0 (Background)
//Storyboard Layer 1 (Fail)
//Storyboard Layer 2 (Pass)
//Storyboard Layer 3 (Foreground)
//Storyboard Sound Samples
//Background Colour Transformations
3,100,163,162,255

[TimingPoints]
336,500,4,2,2,100,1,0
6580,-100,4,2,2,50,0,0
6830,-100,4,2,2,60,0,0
7080,-100,4,2,2,70,0,0
7330,-100,4,2,2,80,0,0
7580,-100,4,2,2,90,0,0
7830,-100,4,2,2,100,0,0
72336,-100,4,2,2,100,0,1
88336,-100,4,2,2,100,0,0
152336,-100,4,2,2,100,0,1
168336,-100,4,2,2,100,0,0

[Colours]
Combo1 : 83,255,87
Combo2 : 255,128,255
Combo3 : 0,226,244

[HitObjects]
256,192,6336,12,4,8336
256,192,10336,5,0
256,192,12336,1,2
256,192,14336,12,4,16336
360,88,17336,5,0
360,192,17836,1,2
360,296,18336,2,0,B|216:296,1,130,0|8
248,192,19336,2,0,B|104:192,1,130,0|2
80,96,20336,5,2
168,40,20836,1,0
272,40,21336,2,0,B|416:40,1,130,0|2
256,192,22336,12,0,24336
256,48,25336,5,2
64,136,26336,1,0
200,288,27336,1,2
112,160,28086,6,0,B|160:112,1,65
240,48,28836,2,0,B|316:48|340:116,1,130,2|0
360,216,29836,1,0
256,240,30336,1,0
152,256,30836,2,0,B|84:224|88:152,1,130,0|2
280,80,32336,5,0
240,280,33336,1,0
328,96,34336,1,0
288,296,35336,2,0,B|344:352|416:296,1,130,0|2
400,200,36336,6,0,B|364:-4|148:-4|112:200,1,455
68,224,38336,2,0,B|108:384|260:400|412:384|452:208,1,520,0|4
260,132,41336,5,2
64,192,42336,1,0
128,272,42836,2,0,B|176:352|256:288,1,130,0|2
136,184,44086,6,0,B|232:184,1,65
304,184,44836,2,0,B|368:232|448:176,1,130,2|0
432,88,45836,1,0
328,88,46336,2,0,B|48:168|480:168|144:88|144:88,1,260,0|2
384,112,48336,6,0,B|364:176|364:176|380:204|380:204|352:216|352:216|328:280|328:280|272:304|272:304|231:250|231:250|296:216,1,390,0|2
144,260,50336,6,0,B|164:196|164:196|148:168|148:168|176:156|176:156|200:92|200:92|256:68|256:68|296:122|296:122|232:156,1,390,0|8
256,192,52586,12,4,56336
256,192,70336,12,4,72336
244,292,73336,5,0
140,292,73836,1,10
148,192,74336,2,0,B|156:136|228:136|236:192,1,130,0|2
328,144,75336,1,0
408,208,75836,1,8
360,296,76336,5,2
256,328,76836,1,0
168,272,77336,1,0
208,176,77836,2,0,B|272:160,2,65
256,192,78586,12,4,80336
344,248,81336,6,0,B|344:328|232:328,1,130,0|10
152,328,82336,1,0
208,240,82836,1,2
100,236,83336,2,0,B|80:172|100:108,1,130,0|8
208,104,84336,6,0,B|272:124|336:104,1,130,0|2
440,116,85336,1,0
376,204,85836,1,2
256,192,86086,12,4,88336
256,192,104336,12,2,107336
256,192,108336,12,4,111336
228,312,112336,5,0
436,312,113336,1,0
232,264,114336,1,0
440,264,115336,2,0,B|416:176|392:344|336:216,1,130,0|2
256,192,116586,12,4,120336
64,152,121336,5,0
256,72,122336,1,0
448,152,123336,1,2
236,172,124336,5,0
136,208,124836,2,0,B|132:280|188:320|188:320|224:264|224:264|256:320|256:320|288:264|288:264|324:320|324:320|380:280|376:208,1,520,2|2
276,172,127336,1,4
132,312,128336,6,0,B|256:388|380:312,2,260,0|0|2
256,140,131336,2,0,B|200:176|312:208|256:248,1,130,0|8
256,192,132586,12,4,136336
256,192,150336,12,4,152336
152,192,153336,6,0,B|64:192,2,65,0|0|10
88,112,154336,2,0,B|88:64|132:32|176:44,1,130,0|2
280,48,155336,2,0,B|360:48,2,65,0|0|8
280,152,156336,5,0
376,192,156836,1,2
376,296,157336,1,0
272,296,157836,2,0,B|184:296,2,65,2|0|0
308,200,158836,5,0
244,116,159336,1,0
152,164,159836,1,0
88,80,160336,6,0,B|40:128|40:128|88:168,1,130,2|0
192,184,161336,2,0,B|240:232|240:232|192:272,1,130,0|10
96,308,162336,5,0
192,348,162836,1,2
288,312,163336,2,0,B|384:312|384:224,1,130,0|8
384,136,164336,6,0,B|320:116|256:136,1,130,2|0
164,184,165336,1,0
256,236,165836,1,2
256,192,166086,12,4,168336
