osu file format v9

[General]
AudioFilename: S.H.E - .mp3
AudioLeadIn: 0
PreviewTime: 72336
Countdown: 0
SampleSet: Soft
StackLeniency: 0.6
Mode: 0
LetterboxInBreaks: 1

[Editor]
Bookmarks: 169336
DistanceSpacing: 0.8
BeatDivisor: 4
GridSize: 4

[Metadata]
Title:London Bridge Is Falling Down
Artist:S.H.E
Creator:shenpei310
Version:Collab
Source:
Tags:Album Play chickgod popner Selina Hebe Ella

[Difficulty]
HPDrainRate:8
CircleSize:4
OverallDifficulty:7
ApproachRate:8
SliderMultiplier:2.6
SliderTickRate:2

[Events]
//Background and Video events
0,0,"20080505104729157.jpg"
//Break Periods
2,56536,67586
2,88536,93586
//Storyboard Layer 0 (Background)
//Storyboard Layer 1 (Fail)
//Storyboard Layer 2 (Pass)
//Storyboard Layer 3 (Foreground)
Sprite,Foreground,Centre,"SB\bar.png",320,240 M,1,3336,3836,770,320,554,320 F,0,3336,169336,0.5 F,0,169336,171336,0.5,0
Sprite,Foreground,Centre,"SB\bar.png",320,240 M,1,3461,4086,740,360,524,360 F,0,3461,169336,0.5 F,0,169336,171336,0.5,0
Sprite,Foreground,Centre,"SB\bar.png",320,240 M,1,3586,4211,710,400,494,400 F,0,3586,169336,0.5 F,0,169336,171336,0.5,0
Sprite,Foreground,Centre,"SB\Collab.png",320,240 M,0,3836,4336,450,320 F,0,3836,4336,0,1 V,0,3836,4336,1,0,1,1 F,0,3836,169336,1 F,0,169336,171336,1,0
Sprite,Foreground,Centre,"SB\chickgod.png",320,240 M,0,4036,4536,420,360 F,0,4036,4536,0,1 V,0,4036,4536,1,0,1,1 F,0,4536,169336,1 F,0,169336,171336,1,0
Sprite,Foreground,Centre,"SB\popner.png",320,240 M,0,4336,4836,390,400 F,0,4336,4836,0,1 V,0,4336,4836,1,0,1,1 F,0,4836,169336,1 F,0,169336,171336,1,0
//Storyboard Sound Samples
//Background Colour Transformations
3,100,163,162,255

[TimingPoints]
336,500,4,2,2,40,1,0
6595,-100,4,2,2,50,0,0
6845,-100,4,2,2,60,0,0
7095,-100,4,2,2,70,0,0
7345,-100,4,2,2,80,0,0
7595,-100,4,2,2,90,0,0
7845,-100,4,2,2,100,0,0
10211,-100,4,1,1,25,0,0
10461,-100,4,2,2,100,0,0
11211,-100,4,1,1,30,0,0
11461,-100,4,2,2,100,0,0
13211,-100,4,1,1,40,0,0
13711,-100,4,2,2,100,0,0
17211,-100,4,1,1,40,0,0
17711,-100,4,2,2,100,0,0
18211,-100,4,1,1,30,0,0
18461,-100,4,2,2,100,0,0
19211,-100,4,1,1,40,0,0
19711,-100,4,2,2,100,0,0
21211,-100,4,1,1,40,0,0
21711,-100,4,2,2,100,0,0
22211,-100,4,1,1,50,0,0
22461,-100,4,2,2,100,0,0
23211,-100,4,1,1,50,0,0
23711,-100,4,2,2,70,0,0
33836,-100,4,2,2,50,0,0
34336,-100,4,2,2,70,0,0
38455,-100,4,2,2,70,0,0
38705,-100,4,2,2,100,0,0
38955,-100,4,2,2,70,0,0
39285,-100,4,1,1,40,0,0
40307,-100,4,2,2,100,0,0
42211,-100,4,1,1,40,0,0
42461,-100,4,2,2,80,0,0
43211,-100,4,1,1,40,0,0
43711,-100,4,2,2,80,0,0
44711,-100,4,1,1,50,0,0
44961,-100,4,2,2,80,0,0
46211,-100,4,1,1,40,0,0
46461,-100,4,2,2,80,0,0
47211,-100,4,2,2,60,0,0
47461,-100,4,2,2,80,0,0
48211,-100,4,2,2,70,0,0
48461,-100,4,2,2,80,0,0
49211,-100,4,1,1,50,0,0
49711,-100,4,2,2,80,0,0
51961,-100,4,1,1,40,0,0
52211,-100,4,1,0,60,0,0
68336,-100,4,2,2,80,0,0
71301,-100,4,2,2,100,0,0
71527,-100,4,1,1,80,0,0
71649,-100,4,2,2,100,0,0
72032,-100,4,1,1,80,0,0
72147,-100,4,2,2,100,0,0
72267,-100,4,2,2,100,0,0
72336,-100,4,2,2,100,0,1
73211,-100,4,1,1,50,0,1
73711,-100,4,2,2,100,0,1
74211,-100,4,1,1,50,0,1
74461,-100,4,2,2,100,0,1
75034,-100,4,1,1,50,0,1
75961,-100,4,2,2,100,0,1
76232,-100,4,1,1,50,0,1
76461,-100,4,2,2,100,0,1
78336,-100,4,1,0,60,0,1
78586,-100,4,2,2,80,0,1
79221,-100,4,1,0,50,0,1
80211,-100,4,1,1,80,0,1
80461,-100,4,2,2,100,0,1
81211,-100,4,1,1,50,0,1
81711,-100,4,2,2,100,0,1
82461,-100,4,1,1,50,0,1
82669,-100,4,2,2,100,0,1
83017,-100,4,1,1,50,0,1
83139,-100,4,2,2,100,0,1
84272,-100,4,1,1,50,0,1
84461,-100,4,2,2,100,0,1
85211,-100,4,1,1,50,0,1
85711,-100,4,2,2,100,0,1
87292,-100,4,1,1,50,0,1
88336,-100,4,2,2,100,0,0
97211,-100,4,1,1,50,0,0
97711,-100,4,2,2,100,0,0
103205,-100,4,2,2,80,0,0
104330,-100,4,2,2,100,0,0
105205,-100,4,2,1,100,0,0
106211,-100,4,1,1,50,0,0
106461,-100,4,2,2,100,0,0
107227,-100,4,1,1,40,0,0
107711,-100,4,2,2,100,0,0
109211,-100,4,1,1,40,0,0
109461,-100,4,2,2,100,0,0
110211,-100,4,1,1,50,0,0
110461,-100,4,2,2,100,0,0
111211,-100,4,1,1,50,0,0
111461,-100,4,2,2,100,0,0
113211,-100,4,1,1,40,0,0
113461,-100,4,2,2,100,0,0
114211,-100,4,1,1,50,0,0
114461,-100,4,2,2,100,0,0
118205,-100,4,2,1,80,0,0
118798,-100,4,2,2,100,0,0
118955,-100,4,2,2,80,0,0
120330,-100,4,2,2,100,0,0
122211,-100,4,1,1,50,0,0
122461,-100,4,2,2,100,0,0
123961,-100,4,1,1,50,0,0
124211,-100,4,2,2,100,0,0
125461,-100,4,1,1,50,0,0
125961,-100,4,2,2,100,0,0
126211,-100,4,1,1,50,0,0
126461,-100,4,2,2,100,0,0
127961,-100,4,1,1,50,0,0
128211,-100,4,2,2,100,0,0
129211,-100,4,1,1,50,0,0
129711,-100,4,2,2,100,0,0
131961,-100,4,1,1,40,0,0
132211,-100,4,2,2,100,0,0
135461,-100,4,1,1,25,0,0
135961,-100,4,2,2,100,0,0
137461,-100,4,1,1,50,0,0
137961,-100,4,2,2,100,0,0
139455,-100,4,2,2,100,0,0
142299,-100,4,1,1,30,0,0
143269,-100,4,2,2,100,0,0
143457,-100,4,2,2,100,0,0
146543,-100,4,2,2,100,0,0
147272,-100,4,1,1,50,0,0
147497,-100,4,2,2,100,0,0
149241,-100,4,2,2,100,0,0
152007,-100,4,1,1,30,0,0
152277,-100,4,1,1,100,0,0
152336,-100,4,2,2,100,0,1
153211,-100,4,1,1,50,0,1
153711,-100,4,2,2,100,0,1
155211,-100,4,1,1,50,0,1
155711,-100,4,2,2,100,0,1
157211,-100,4,1,1,50,0,1
157711,-100,4,2,2,100,0,1
159211,-100,4,1,1,50,0,1
160211,-100,4,1,1,100,0,1
160461,-100,4,2,2,100,0,1
161211,-100,4,1,1,50,0,1
161711,-100,4,2,2,100,0,1
162211,-100,4,1,1,50,0,1
162461,-100,4,2,2,100,0,1
163211,-100,4,1,1,50,0,1
163711,-100,4,2,2,100,0,1
164211,-100,4,1,1,50,0,1
164461,-100,4,2,2,100,0,1
165211,-100,4,1,1,50,0,1
165711,-100,4,2,2,100,0,1
167279,-100,4,1,1,50,0,1
168211,-100,4,2,2,100,0,1
168336,-100,4,2,2,100,0,0

[Colours]
Combo1 : 83,255,87
Combo2 : 255,128,255
Combo3 : 0,226,244

[HitObjects]
256,192,6336,12,4,8336
144,152,8711,6,0,B|164:120|188:104,1,65,0|2
296,104,9086,1,0
248,200,9336,2,0,B|288:220|340:212|372:180,2,130,0|0|2
432,296,10336,5,0
328,280,10586,1,0
248,344,10836,1,8
370,183,11336,2,0,B|330:163|278:171|246:203,2,130,0|0|2
152,168,12336,5,2
176,324,12711,2,0,B|144:304|140:272,1,65,0|2
240,248,13086,1,0
344,224,13336,1,0
384,128,13586,1,0
280,152,13836,1,2
256,192,14336,12,4,15836
168,96,16336,5,2
104,240,16711,1,0
104,240,16836,1,2
200,200,17086,1,0
296,160,17336,1,0
336,256,17586,1,0
240,296,17836,1,2
200,200,18086,1,0
112,144,18336,6,0,B|124:100|170:69|212:72,1,130
256,168,18836,1,8
256,168,19086,1,0
302,71,19336,2,0,B|341:69|388:100|400:144,1,130
336,256,19836,1,2
336,256,20086,1,0
136,312,20336,5,2
168,160,20711,1,0
168,160,20836,1,2
264,204,21086,1,0
424,252,21336,1,0
324,116,21586,1,0
324,284,21836,1,2
424,148,22086,1,0
264,204,22336,6,0,B|236:240|188:252|148:236,2,130,4|0|8
180,144,23086,2,0,B|208:108|256:96|296:112,3,130,0|0|0|2
464,56,24086,5,0
400,136,24336,1,2
296,112,24586,1,2
296,112,24711,1,0
296,112,24836,1,2
296,112,24961,1,0
296,112,25086,1,2
224,32,25336,6,0,B|176:84|196:152,1,130
280,212,25836,2,0,B|232:268|164:248,1,130,2|0
48,248,26336,1,2
136,200,26586,1,2
168,204,26711,1,0
184,176,26836,1,2
164,152,26961,1,0
136,168,27086,1,2
180,268,27336,1,0
280,232,27586,2,0,B|352:232|392:152,1,130,0|2
216,40,28086,5,2
312,88,28336,1,0
208,64,28586,1,0
120,120,28836,2,0,B|176:160|176:160|148:228|180:296|248:312,1,260,2|0
272,208,29586,1,0
264,104,29836,1,2
272,208,30086,1,0
280,104,30336,1,2
272,208,30586,1,0
296,312,30836,2,0,B|364:296|396:228|368:160|368:160|424:120,1,260,2|0
480,208,31586,5,0
436,304,31836,2,0,B|368:292|328:236,1,130,2|0
252,48,32336,1,2
228,148,32586,5,0
228,148,32711,1,0
228,148,32836,1,0
152,216,33086,1,2
84,136,33336,1,0
160,68,33586,1,0
228,148,33836,1,4
360,56,34336,5,0
440,120,34586,1,0
440,120,34711,1,0
440,120,34836,1,2
344,152,35086,1,0
240,176,35336,2,0,B|264:248|336:260,2,130,2|2|8
64,192,36336,5,0
168,216,36586,2,0,B|212:276|284:244,1,130,0|2
244,148,37086,2,0,B|316:116|360:176,1,130,0|2
400,272,37586,1,0
400,272,37836,1,0
400,272,38086,1,2
280,144,38336,5,2
264,312,38586,1,8
264,144,38836,1,2
136,256,39086,1,8
104,88,39336,5,0
88,96,39461,1,0
80,112,39586,1,0
80,128,39711,1,0
88,144,39836,1,0
104,152,39961,1,0
120,152,40086,1,0
136,144,40211,1,0
152,128,40336,6,0,B|248:80|336:248|216:304,1,260,4|2
242,287,41086,1,0
192,208,41336,1,2
104,256,41586,1,0
192,208,41836,1,2
296,232,42086,1,0
220,304,42336,6,0,B|152:308|104:256,1,130
56,164,42836,2,0,B|84:96|156:92,1,130,0|0
156,200,43336,1,4
264,112,43586,1,0
104,244,43836,1,2
320,72,44086,6,0,B|364:124|344:196,1,130,0|0
272,268,44586,1,0
436,264,44836,2,0,B|408:324|340:348,1,130,4|0
272,268,45336,2,0,B|208:252|148:292,1,130
216,372,45836,2,0,B|280:388|340:348,1,130,2|0
368,248,46336,5,0
412,156,46586,1,0
488,228,46836,2,0,B|440:276|436:348,1,130,2|0
296,312,47336,1,4
336,216,47586,1,0
256,152,47836,1,0
164,200,48086,1,0
188,300,48336,1,4
88,120,48586,5,2
88,120,48711,1,2
88,120,48836,1,0
224,88,49086,1,2
368,168,49336,1,0
200,200,49586,1,0
368,184,49836,1,2
248,304,50086,1,0
376,192,50336,5,2
280,160,50586,1,0
240,180,50711,1,0
200,200,50836,1,2
100,176,51086,1,0
132,276,51336,6,0,B|192:320|256:284,2,130,2|2|2
100,176,52086,1,0
240,96,52336,1,0
256,192,52586,12,4,56336
256,192,68336,12,0,70086
272,288,70336,6,0,B|320:240|392:244,1,130,2|0
240,96,70836,2,0,B|192:144|120:140,1,130,2|0
144,264,71336,5,2
124,260,71461,1,0
108,248,71586,1,0
96,232,71711,1,0
92,212,71836,1,2
96,192,71961,1,0
104,176,72086,1,0
120,164,72211,1,0
140,160,72336,6,0,B|172:152|208:184|208:216|208:216|304:200,1,195,4|0
304,200,72836,1,2
392,176,73086,1,0
304,120,73336,2,0,B|328:48|376:48|376:48|392:32|392:32|408:48|408:48|456:48|488:136|488:136,1,260,0|2
392,176,74086,1,0
200,256,74336,5,0
280,320,74586,1,0
312,328,74711,1,0
344,320,74836,1,2
368,304,74961,1,2
384,280,75086,1,0
432,184,75336,2,0,B|364:160|308:208,2,130,0|0|8
432,184,76086,1,0
240,96,76336,6,0,B|160:80|160:80|148:132|84:160,1,195,4|0
36,176,76836,2,0,B|108:176|148:236,1,130,2|0
176,332,77336,2,0,B|104:340|56:288,1,130
147,234,77836,2,0,B|212:220|272:256,1,130,2|0
332,172,78336,1,0
376,344,78586,5,0
376,344,78711,1,0
376,344,78836,1,0
248,304,79086,1,0
216,144,79336,1,0
360,232,79586,1,0
196,152,79836,1,0
372,68,80086,1,0
200,128,80336,6,0,B|252:36|368:52,1,195,4|0
356,104,80836,2,0,B|312:160|240:152,1,130,2|0
316,224,81336,2,0,B|356:280|360:344,2,130,0|0|10
216,256,82086,1,0
112,240,82336,5,2
128,136,82586,1,0
144,104,82711,1,0
168,88,82836,1,2
200,76,82961,1,2
232,80,83086,1,0
224,184,83336,2,0,B|184:240|112:240,2,130,2|2|8
312,120,84086,1,0
384,200,84336,5,4
384,200,84711,1,2
384,200,84836,1,0
248,72,85086,1,2
96,144,85336,1,0
128,312,85586,1,0
296,340,85836,2,0,B|356:312|424:328,2,130
344,96,86836,1,0
356,200,87086,5,0
356,200,87211,1,0
356,200,87336,2,0,B|308:264|236:240,1,130
156,184,87836,2,0,B|204:120|276:144,1,130
356,200,88336,1,4
224,160,94336,5,2
288,160,94586,1,0
192,224,94836,1,2
320,224,95086,1,0
160,160,95336,1,2
352,160,95586,1,0
128,224,95836,1,2
380,224,96086,1,0
256,192,96336,5,4
352,144,96711,1,2
348,128,96836,1,0
244,92,97086,1,2
160,160,97336,1,0
176,264,97586,1,0
280,300,97836,1,2
256,192,98586,5,2
256,200,99086,1,2
256,208,100336,5,2
256,216,101086,1,2
392,336,102336,6,0,B|384:328|384:328|376:344|376:344|368:328|368:328|360:344|360:344|352:328|352:328|344:344|344:344|336:328|336:328|328:344|328:344|320:328|320:328|312:344|312:344|296:336,1,130,2|0
120,336,103086,6,0,B|128:328|128:328|136:344|136:344|144:328|144:328|152:344|152:344|160:328|160:328|168:344|168:344|176:328|176:328|184:344|184:344|192:328|192:328|200:344|200:344|216:336,1,130,2|2
208,328,103461,1,2
232,312,103586,1,0
248,280,103711,1,0
232,256,103836,1,2
208,232,103961,1,2
192,200,104086,1,0
208,168,104211,1,2
232,144,104336,6,0,B|234:10|440:10|440:232|298:230|261:192,1,390,4|0
304,137,105336,1,8
88,256,106336,5,4
104,152,106586,1,0
136,163,106711,1,0
164,184,106836,1,0
184,212,106961,1,0
192,244,107086,1,0
208,144,107336,5,4
312,132,107586,2,0,B|244:108|224:44,1,130,0|0
120,64,108086,1,2
328,24,108336,5,4
412,88,108586,1,0
420,120,108711,1,0
416,152,108836,1,0
404,184,108961,1,0
380,204,109086,1,0
260,34,109336,6,0,B|199:71|189:140,1,130,0|2
98,187,109836,2,0,B|135:248|204:258,1,130,0|2
251,349,110336,2,0,B|312:312|322:243,1,130,0|2
413,196,110836,2,0,B|376:135|307:125,1,130,0|2
280,224,111336,1,0
184,184,111586,1,2
184,184,112086,1,2
88,72,112336,5,4
48,168,112586,1,0
56,200,112711,1,0
72,224,112836,1,0
96,240,112961,1,0
128,248,113086,1,2
232,224,113336,1,0
257,124,113586,2,0,B|184:112|144:172,3,130,2|0|0|4
232,224,114586,6,0,B|232:288,4,65,2|2|2|2|0
336,240,115336,5,2
360,136,115586,1,2
336,240,115836,1,2
440,208,116086,1,0
304,48,116336,5,6
200,68,116586,1,0
192,92,116711,1,0
176,108,116836,1,0
152,116,116961,1,0
128,108,117086,1,0
192,192,117336,5,2
264,112,117586,1,2
368,112,117836,1,0
431,194,118086,2,0,B|431:266|375:290|375:290|375:274|375:274|391:282|391:282|375:290|375:290|351:298|319:298|319:298|303:298|303:298|311:282|311:282|319:298|319:298|303:298|303:298|279:298|247:290|247:290|231:282|231:282|247:274|247:274|247:290|247:290|191:266|192:176,1,520,0|8
192,192,119336,5,2
164,176,119461,1,2
152,148,119586,1,0
164,120,119711,1,0
192,104,119836,1,2
220,120,119961,1,2
240,148,120086,1,0
224,176,120211,1,0
196,192,120336,6,0,B|240:248|312:236,2,130,4|0|2
280,128,121086,1,0
384,120,121336,2,0,B|372:48|304:28,1,130,2|0
200,36,121836,2,0,B|212:108|280:128,1,130,2|0
280,128,122336,5,0
384,120,122586,1,0
448,200,122836,1,2
392,288,123086,1,0
368,312,123211,1,2
336,328,123336,1,2
240,288,123586,1,2
216,184,123836,1,2
296,120,124086,1,0
392,168,124336,5,4
312,232,124586,1,0
288,248,124711,1,0
256,264,124836,1,0
224,264,124961,1,0
192,248,125086,1,2
144,152,125336,5,2
232,88,125586,1,0
240,184,125836,1,0
240,184,126086,1,0
152,240,126336,2,0,B|192:304|276:308|340:264|344:192,2,260,0|2|0
104,328,127586,5,2
104,328,128086,1,0
224,160,128336,5,4
144,88,128586,1,0
168,64,128711,1,0
200,52,128836,1,0
236,52,128961,1,0
264,64,129086,1,2
320,152,129336,2,0,B|380:104|360:36,2,130,0|0|2
216,128,130086,1,0
272,216,130336,1,2
248,312,130586,5,2
240,320,130711,1,2
232,328,130836,1,0
168,248,131086,1,2
104,168,131336,2,0,B|164:128|228:164,2,130,2|2|0
64,264,132086,1,0
268,244,132336,1,0
256,192,132586,12,2,135336
144,96,135586,5,0
144,96,135836,1,0
144,96,136086,1,2
312,120,136336,1,4
152,176,136586,5,0
176,192,136711,1,0
208,200,136836,1,0
240,200,136961,1,0
272,192,137086,1,0
232,96,137336,1,2
408,168,137586,5,0
312,208,137836,1,0
328,104,138086,1,0
392,272,138336,1,4
312,208,138586,5,0
328,180,138711,1,0
308,156,138836,1,0
276,168,138961,1,0
280,200,139086,1,0
216,120,139336,1,2
48,192,139586,6,0,B|100:192|100:192|100:240|156:240,1,130,0|2
80,316,140086,2,0,B|208:316|208:316|220:244|304:244,1,260
376,316,140836,1,2
303,244,141086,1,0
300,140,141336,1,0
200,116,141586,2,0,B|128:128|76:88,2,130,0|2|0
120,296,142336,5,0
224,304,142586,1,0
320,264,142836,1,0
400,192,143086,1,0
400,192,143211,1,0
400,192,143336,1,2
376,96,143586,6,0,B|308:68|256:116,1,130
188,196,144086,2,0,B|135:244|67:216,2,130,0|4|0
232,100,144836,1,2
128,112,145086,1,0
188,196,145336,2,0,B|240:236|312:224,1,130
408,192,145836,1,0
468,108,146086,1,0
464,280,146336,1,4
256,112,146836,5,2
256,112,147211,1,0
256,112,147336,1,0
256,112,147586,2,0,B|244:152|268:204|256:240,2,130
152,256,148336,6,0,B|84:236|64:168,1,130,2|0
360,256,148836,2,0,B|428:236|448:168,1,130,2|0
256,242,149336,5,2
152,256,149586,2,0,B|192:344|320:344|360:256,1,260,0|2
256,192,150336,5,2
136,88,150586,1,0
256,192,150836,1,2
376,88,151086,1,0
256,192,151336,1,2
256,336,151586,1,0
256,192,151836,5,2
232,208,151961,1,2
200,192,152086,1,0
208,160,152211,1,0
240,160,152336,1,4
112,256,152711,6,0,B|124:288|152:308,1,65,0|2
256,296,153086,1,0
448,228,153336,1,0
240,228,153586,1,0
448,228,153836,1,2
256,160,154086,1,0
352,120,154336,6,0,B|296:104|296:104|288:32|224:32|216:104|216:104|152:120,1,260,0|2
256,268,155086,1,0
196,188,155336,2,0,B|232:160|280:160|320:188,2,130,0|0|8
100,144,156086,1,0
288,112,156336,6,0,B|380:172|472:112,1,195,2|0
440,68,156836,2,0,B|376:36|316:68,1,130,8|0
104,40,157336,1,0
288,112,157586,1,0
76,84,157836,1,2
168,132,158086,2,0,B|160:140|160:140|176:148|176:148|160:156|160:156|176:164|176:164|160:172|160:172|176:180|176:180|160:188|160:188|168:196,1,130,8|2
80,256,158586,5,2
104,280,158711,1,0
136,288,158836,1,2
240,288,159086,1,0
248,120,159336,1,0
416,88,159586,1,0
408,256,159836,1,0
240,288,160086,1,0
280,192,160336,6,0,B|336:136|432:200|384:280,1,195,4|0
389,270,160836,1,2
312,340,161086,1,0
331,238,161336,1,0
488,104,161586,1,0
292,32,161836,1,10
331,238,162086,1,0
104,272,162336,5,0
104,272,162586,1,0
40,192,162836,2,0,B|96:148|164:184,1,130,2|0
104,272,163336,2,0,B|136:336|208:336,2,130,0|0|8
200,232,164086,1,0
296,200,164336,5,4
144,160,164711,1,0
144,160,164836,1,2
232,112,165086,1,0
384,192,165336,1,0
280,320,165586,1,0
128,256,165836,1,2
216,112,166086,2,0,B|288:72|400:112|400:280|288:320|208:272,1,390,0|2
256,188,167086,5,0
244,208,167211,1,0
268,208,167336,1,0
328,80,167586,1,0
144,120,167836,1,0
184,304,168086,1,0
368,264,168336,1,4
