osu file format v5

[General]
AudioFilename: sfa_esa_promesa.mp3
AudioLeadIn: 1004
PreviewTime: -1
Countdown: 1
SampleSet: Normal
StackLeniency: 0.7
Mode: 0
LetterboxInBreaks: 1

[Editor]
Bookmarks: 3818,16818,24818,32819,48819,64820,96821,112822,130822,134823
DistanceSpacing: 0.800000011920929
BeatDivisor: 4
GridSize: 16

[Metadata]
Title:Esa Promesa
Artist:S.F.A
Creator:JJDulin
Version:Kardovi Promise
Source:
Tags:

[Difficulty]
HPDrainRate:5
CircleSize:5
OverallDifficulty:5
SliderMultiplier:1.4
SliderTickRate:2

[Events]
//Background and Video events
0,0,"Granado Espada.jpg"
//Break Periods
2,15760,31606
2,48519,64120
2,96521,111622
2,131000,133600
//Storyboard Layer 0 (Background)
//Storyboard Layer 1 (Fail)
//Storyboard Layer 2 (Pass)
//Storyboard Layer 3 (Foreground)
//Storyboard Sound Samples
//Background Colour Transformations
3,100,163,162,255

[TimingPoints]
816,499.858435482868,4,1,0,100,1,0

[Colours]
Combo1 : 0,83,0
Combo2 : 204,0,0
Combo3 : 4,4,219
Combo4 : 128,0,64
Combo5 : 215,6,215

[HitObjects]
64,160,3815,1,0
112,160,4065,1,0
160,160,4315,1,0
208,160,4564,1,0
256,160,4814,6,4,B|256:384,4,210,4|8|8|8|4
368,352,8813,1,0
352,304,9063,1,0
32,64,10813,1,0
80,64,11063,1,0
384,16,11812,6,0,B|160:16,5,210
96,96,32806,5,0
192,96,33306,1,0
288,96,33806,1,0
384,96,34306,1,0
384,192,34806,5,0
288,192,35306,1,0
192,192,35806,1,0
96,192,36305,1,0
96,288,36805,5,0
192,288,37305,1,0
288,288,37805,1,0
384,288,38305,1,0
384,192,38805,5,0
288,192,39305,1,0
192,192,39804,1,0
96,192,40304,1,0
96,288,40804,6,8,B|256:288,3,140
224,224,42804,6,8,B|64:224,4,140
288,192,45303,5,0
192,192,45803,1,0
96,192,46303,1,0
96,288,46802,1,0
192,288,47302,1,0
288,288,47802,1,0
384,288,48302,1,0
352,64,65297,5,0
352,160,65797,1,0
352,256,66297,1,0
352,352,66797,1,2
96,64,68796,5,0
96,160,69296,1,0
96,256,69796,1,0
96,352,70296,1,2
256,192,70796,12,0,73045
160,224,73295,5,0
160,224,73420,1,0
208,240,73670,1,0
352,64,74795,5,0
352,160,75294,1,0
352,256,75794,1,0
352,352,76294,1,0
288,256,76794,5,0
288,128,77294,1,0
160,128,77794,1,0
160,256,78294,1,0
256,192,78793,12,0,81293
96,224,82792,5,0
192,224,83292,1,0
272,288,83792,1,2
288,240,84042,1,2
336,224,84292,1,2
464,224,84792,5,0
352,224,85292,1,0
240,224,85791,1,0
128,224,86291,1,0
128,112,86791,5,0
240,112,87291,1,0
352,112,87791,1,0
464,112,88291,1,0
96,128,90290,5,0
192,128,90790,1,0
288,128,91290,1,0
384,128,91790,1,0
384,224,92290,1,0
288,224,92789,1,0
192,224,93289,1,0
96,224,93789,1,0
256,192,94289,12,0,96288
256,32,112784,5,0
256,96,113284,1,0
256,160,113784,1,0
256,224,114283,1,0
256,288,114783,1,0
272,352,115283,1,0
352,352,115783,2,8,B|352:64,1,280
384,192,117283,5,0
272,192,117782,1,0
160,192,118282,1,0
48,192,118782,1,0
48,304,119282,1,0
160,304,119782,2,8,B|448:304,1,280
384,224,121281,5,0
320,224,121781,1,0
256,224,122281,1,0
192,224,122781,1,0
128,224,123281,1,0
128,160,123781,2,8,B|416:160,1,280
480,160,125280,5,0
416,160,125780,1,0
352,160,126280,1,0
288,160,126780,1,0
224,160,127280,1,0
160,160,127780,1,0
128,160,128779,6,8,B|416:160,2,280
288,64,134778,5,4
240,288,135777,1,0
272,336,136027,1,0
320,304,136277,1,0
288,256,136527,1,0
288,256,136777,2,8,B|448:256,3,140
384,192,138776,5,4
160,176,139776,1,0
112,144,140026,1,0
96,192,140276,1,0
160,192,140526,1,0
160,192,140776,2,8,B|160:352,3,140
272,352,142775,5,4
368,96,144025,1,0
336,144,144275,1,0
304,192,144525,1,0
272,240,144775,2,8,B|464:240|432:240,3,140
384,192,146774,6,4,B|160:192|160:192,1,210
160,128,147774,6,8,B|400:128,2,210
288,192,149773,5,0
160,192,150273,1,0
160,304,150773,1,0
272,304,151273,1,0
288,256,151523,6,8,B|448:256,5,140
160,176,155272,6,8,B|320:176,7,140,0|0|0|0|0|0|0|0
96,128,159271,5,0
192,128,159770,1,0
288,128,160270,1,0
384,128,160770,1,6
384,224,161270,1,0
288,224,161770,1,0
192,224,162270,1,0
96,224,162770,1,6
256,192,163769,12,0,166269
96,64,166769,5,0
96,160,167268,1,0
96,256,167768,1,0
96,352,168268,1,0
256,352,168768,5,0
256,256,169268,1,0
256,160,169768,1,0
256,64,170268,1,14
352,64,170767,6,8,B|352:224,7,140
160,96,175266,5,0
240,96,175766,1,6
288,256,176766,6,8,B|128:256,6,140
400,240,180265,5,0
384,176,180515,1,0
384,112,180765,1,0
272,128,181264,1,0
160,112,181764,1,0
160,176,182014,1,0
128,224,182264,1,0
96,272,182514,1,0
160,320,182764,5,2
272,320,183264,1,0
320,320,183514,1,0
368,320,183764,1,0
384,224,184264,1,2
384,160,184513,6,0,B|224:160,5,140
192,224,188262,5,0
224,224,188512,1,0
256,224,188762,1,0
224,160,189262,1,4
192,128,189762,1,0
224,128,190012,1,0
256,128,190262,1,0
288,128,190512,1,0
112,112,191262,5,0
112,160,191511,1,0
112,208,191761,1,0
192,192,192011,6,8,B|352:192,2,140
288,160,193511,2,8,B|288:0,5,140
224,96,196760,5,0
224,208,197260,1,0
128,256,197760,1,0
176,256,198010,1,0
224,256,198260,1,0
272,256,198510,1,4
256,192,198759,12,4,203758
256,320,204758,5,0
256,224,205258,1,0
256,128,205757,1,0
288,96,206007,1,0
256,64,206257,1,0
224,96,206507,1,4
96,160,208757,5,0
160,160,209007,1,8
272,160,209506,1,0
320,128,209756,1,8
384,192,210756,5,0
320,192,211006,1,8
192,192,211506,1,0
128,192,211756,1,8
320,96,212755,5,0
256,96,213005,1,8
160,160,213505,5,0
224,160,213755,1,8
336,160,214255,1,8
