osu file format v5

[General]
AudioFilename: sfa_esa_promesa.mp3
AudioLeadIn: 1004
PreviewTime: -1
Countdown: 1
SampleSet: Normal
StackLeniency: 0.7
Mode: 0
LetterboxInBreaks: 1

[Editor]
Bookmarks: 3818,16818,24818,32819,48819,64820,96821,112822,130822,134823
DistanceSpacing: 0.800000011920929
BeatDivisor: 4
GridSize: 16

[Metadata]
Title:Esa Promesa
Artist:S.F.A
Creator:JJDulin
Version:Bernelli Promise
Source:
Tags:

[Difficulty]
HPDrainRate:5
CircleSize:5
OverallDifficulty:5
SliderMultiplier:1.4
SliderTickRate:2

[Events]
//Background and Video events
0,0,"Granado Espada.jpg"
//Break Periods
2,15518,31619
2,48769,64120
2,96771,111622
2,131022,133623
//Storyboard Layer 0 (Background)
//Storyboard Layer 1 (Fail)
//Storyboard Layer 2 (Pass)
//Storyboard Layer 3 (Foreground)
//Storyboard Sound Samples
//Background Colour Transformations
3,100,163,162,255

[TimingPoints]
810,499.958435482868,4,1,0,100,1,0

[Colours]
Combo1 : 0,196,0
Combo2 : 204,0,0
Combo3 : 4,4,219
Combo4 : 228,20,94
Combo5 : 215,6,215

[HitObjects]
192,128,4076,2,8,L|192:32,2,70
288,128,5076,2,8,L|288:32,2,70
384,64,6076,2,8,L|384:160|384:160,1,70
320,224,6826,2,0,L|160:224,3,140
96,128,8826,5,0
160,128,9076,1,0
224,128,9326,2,8,L|224:288,4,140
336,160,11826,5,0
272,160,12076,1,0
208,160,12326,1,0
144,160,12576,2,8,L|144:320,5,140
160,96,33324,5,0
224,96,33574,1,0
288,96,33824,1,0
352,96,34074,1,2
352,160,34324,2,8,L|192:160,5,140
320,192,37323,5,0
256,192,37573,1,0
192,192,37823,1,0
128,192,38073,1,2
64,192,38323,2,8,L|64:32,5,140
128,128,41323,5,0
192,128,41573,1,0
256,128,41823,2,2,L|256:256,2,105
320,160,42823,5,0
384,160,43073,2,8,L|384:320,1,140,0|0
320,288,43823,1,0
256,288,44073,2,8,L|96:288,4,140
320,128,46823,5,0
256,128,47073,1,0
192,128,47323,1,0
128,128,47573,2,8,L|128:288,1,140
176,304,48323,1,0
176,304,48448,1,0
80,192,65321,5,0
112,192,65446,1,0
160,160,65696,2,8,L|352:160,1,175
368,48,66821,1,0
400,112,67071,2,8,L|400:240,1,105
384,240,67571,1,0
320,240,67821,1,0
64,64,69321,6,0,L|224:64,1,140
192,160,70321,2,0,L|32:160,1,140
64,256,71321,2,0,L|224:256,1,140
224,256,71946,1,0
304,256,72321,1,0
272,208,72571,1,0
192,64,73320,5,0
208,80,73445,1,0
240,112,73695,2,0,L|240:240,2,105
336,160,74820,5,0
336,208,75070,2,8,L|336:368,1,140
384,352,75820,2,8,L|384:192,1,140
400,160,76570,1,0
352,160,76820,2,8,L|192:160,3,140
160,256,78820,5,0
256,224,79320,1,0
368,192,79820,2,4,L|368:96,3,70,12|4|12|4
320,128,80820,5,2
256,128,81070,1,2
192,128,81320,2,10,L|192:288|192:288,1,140
240,288,82070,1,2
288,256,82320,1,2
336,272,82570,6,8,L|336:112,1,140
368,96,83320,1,0
416,96,83570,1,0
464,96,83820,2,8,L|464:224,2,105
256,192,85194,12,0,87569
192,160,88319,5,0
256,160,88569,1,0
224,320,89319,5,0
224,288,89444,1,0
224,224,89694,2,0,L|352:224,2,105
160,160,90819,6,8,L|160:0,3,140
208,32,92569,1,0
208,80,92819,1,0
208,128,93069,1,0
256,192,94319,12,0,96569
96,192,112817,6,0,L|256:192,1,140
208,304,113817,2,0,L|48:304,1,140
96,176,114817,1,0
64,128,115067,1,0
32,80,115317,1,0
16,32,115567,1,0
64,16,115817,2,8,L|64:176,1,140
160,256,116817,6,0,L|320:256,1,140
256,352,117817,2,0,L|96:352,1,140
32,320,118817,1,0
32,256,119067,1,0
32,192,119317,1,0
32,128,119567,1,0
32,64,119817,2,8,L|192:64,1,140
288,64,120817,6,0,L|288:224,1,140
400,208,121816,2,0,L|400:48,1,140
512,32,122816,1,0
496,80,123066,1,0
464,128,123316,1,0
432,176,123566,1,0
400,224,123816,2,8,L|240:224,1,140
160,272,124816,6,0,L|160:112,1,140
48,144,125816,2,0,L|48:304,1,140
160,320,126816,1,0
208,288,127066,1,0
256,256,127316,1,0
304,224,127566,1,0
352,192,127816,2,8,L|128:192,1,210
128,128,128816,6,0,L|352:128,1,210
304,80,129816,2,0,L|144:80,1,140
256,192,134815,12,4,135815
128,96,136815,6,0,L|256:96,1,105
256,160,137440,2,8,L|192:160,3,35
112,128,138315,2,0,L|112:288,2,140
224,224,139815,5,0
288,224,140065,1,0
352,224,140315,1,0
320,320,140815,6,0,L|192:320,2,105
384,320,141815,6,0,L|384:160,1,140,0|0
448,64,142815,1,0
160,64,144065,5,0
224,64,144315,1,0
288,64,144565,1,0
352,64,144815,2,0,L|352:192,2,105
416,64,145814,2,8,L|416:128,4,35
416,192,146814,6,0,L|256:192,1,140
288,288,147814,2,0,L|448:288,1,140
448,192,148814,2,8,L|448:64,2,105
400,176,149814,2,0,L|400:16,1,140
272,48,150814,5,0
160,48,151314,1,2
160,160,151814,1,0
272,160,152314,1,2
352,96,152814,1,0
240,96,153314,1,2
128,96,153814,1,0
128,208,154314,1,4
240,208,154814,5,0
240,320,155314,1,2
352,320,155814,1,0
352,208,156314,1,2
432,272,156814,1,0
320,272,157313,1,2
208,272,157813,1,0
208,160,158313,1,2
256,160,158563,2,4,L|256:256,1,70
368,240,159313,5,0
256,240,159813,1,2
144,240,160313,1,0
208,144,160813,1,2
320,144,161313,1,0
256,48,161813,1,2
256,160,162313,1,0
256,272,162813,2,4,L|256:368,2,70
256,192,163813,12,6,166813
80,192,167313,5,0
112,192,167438,1,0
160,224,167688,2,8,L|160:384,1,140
240,352,168563,5,0
288,352,168813,2,0,L|288:224,1,105
256,192,169562,1,0
304,192,169812,1,0
352,96,171312,6,0,L|256:96,5,70
288,144,172812,6,0,L|288:240,3,70
160,128,174312,5,0
224,128,174562,1,0
176,288,175312,5,0
192,256,175437,1,0
144,208,175687,2,0,L|240:208,2,70
128,160,176812,6,0,L|288:160,1,140
288,256,177812,2,0,L|128:256,1,140
192,352,178812,2,0,L|352:352,2,140
256,192,180312,12,0,181811
192,224,182311,5,0
240,224,182561,1,0
288,224,182811,5,0
336,224,183061,1,0
384,224,183311,2,2,L|384:320,1,70
336,320,183811,1,0
288,288,184061,1,0
240,272,184311,2,2,L|240:176,1,70
192,160,184811,6,0,L|288:160,3,70
256,224,185811,6,0,L|256:320,1,70
192,288,186311,2,0,L|192:192,1,70
128,224,186811,2,8,L|128:320,2,70
352,224,188311,5,0
352,160,188561,1,0
352,96,188811,2,2,L|256:96,1,70
224,96,189311,2,2,L|128:96,1,70
96,96,189811,1,0
96,160,190061,1,0
96,224,190311,1,0
96,288,190561,1,6
240,192,191311,5,0
224,160,191436,1,0
176,112,191686,2,0,L|48:112,1,105
64,160,192311,6,8,L|64:256,1,70
128,224,192811,6,8,B|128:128,1,70
192,160,193310,6,8,B|192:256,1,70
256,224,193810,6,8,L|256:128,1,70,0|0
320,160,194310,6,8,B|320:256,1,70
384,224,194810,6,12,B|384:64,3,140
272,80,196810,6,8,L|272:240,2,140
208,80,198060,1,0
176,128,198310,1,2
144,176,198560,1,0
256,192,198810,12,6,203810
368,96,204810,6,8,L|368:256,2,140
304,96,206059,1,0
240,96,206309,1,0
176,96,206559,2,0,L|176:320,4,210
448,64,210809,5,0
384,64,211059,1,2
448,160,211559,1,0
384,160,211809,1,2
160,64,212809,1,0
96,64,213059,1,2
160,160,213559,1,0
96,160,213809,1,2
256,192,214309,5,12
