osu file format v9

[General]
AudioFilename: S.E.S - DREAMS COME TRUE [KR ].mp3
AudioLeadIn: 0
PreviewTime: -1
Countdown: 0
SampleSet: Soft
StackLeniency: 0.7
Mode: 0
LetterboxInBreaks: 1
SkinPreference:fushigiOsu

[Editor]
DistanceSpacing: 0.8
BeatDivisor: 4
GridSize: 8

[Metadata]
Title:Dreams Come True
Artist:S.E.S
Creator:Elaine Spencer
Version:Normal
Source:
Tags:

[Difficulty]
HPDrainRate:7
CircleSize:3
OverallDifficulty:8
ApproachRate:5
SliderMultiplier:1.4
SliderTickRate:1

[Events]
//Background and Video events
Video,0,"dreams_come_true_fy.wmv"
//Break Periods
2,31764,36748
2,78360,87811
2,98147,103131
2,145541,151641
2,183041,192652
//Storyboard Layer 0 (Background)
//Storyboard Layer 1 (Fail)
//Storyboard Layer 2 (Pass)
//Storyboard Layer 3 (Foreground)
//Storyboard Sound Samples
//Background Colour Transformations
3,100,163,162,255

[TimingPoints]
6033.21529292291,638.297872340426,4,2,1,100,1,0

[Colours]
Combo1 : 255,0,128
Combo2 : 255,128,192
Combo3 : 255,128,255
Combo4 : 255,0,255

[HitObjects]
256,184,12416,1,0
336,72,13054,1,0
360,128,13373,2,0,B|322:149|329:142,3,35
353,131,14011,1,0
353,131,14331,1,0
327,240,14969,5,0
160,242,15607,1,0
246,127,16086,2,0,B|279:97|279:97|281:96,2,35
387,123,16724,1,0
247,126,17522,5,0
251,14,18160,1,0
178,55,18480,2,0,B|146:99,3,35
136,104,19118,1,0
136,104,19437,1,0
256,192,19597,12,0,22628
256,120,23267,1,0
240,256,23586,2,0,B|296:256,3,35
304,256,24224,1,0
304,256,24543,1,0
256,360,25182,5,0
256,248,25820,1,0
160,88,26299,2,0,B|256:48|320:104|320:104,1,140
392,192,27735,5,0
280,192,28373,1,0
224,192,28692,2,0,B|168:192,3,35
189,192,29331,1,0
136,192,29650,1,0
48,304,30288,2,0,B|344:304,1,280
96,192,37948,5,0
160,192,38267,2,0,B|208:192,1,35
248,192,38745,1,0
296,192,39065,2,0,B|416:192,1,105
400,192,39703,1,0
256,44,40501,5,0
321,82,40820,2,0,B|355:106|316:133|316:135,1,35
256,216,41299,1,0
80,216,41618,2,0,B|32:112|152:48,2,175
256,192,43852,12,0,46884
80,40,47203,5,0
176,136,47522,1,0
256,40,47841,1,0
360,152,48160,2,0,B|440:32,1,140
360,152,49437,2,0,B|256:280,1,140
256,280,50714,1,0
256,280,51033,2,0,B|144:192,1,140
145,193,51990,1,0
145,193,52309,2,0,B|256:40,1,175
240,48,53745,1,0
224,320,55182,2,0,B|72:152|232:40|248:192|304:48|400:184|304:40,1,420
344,40,57416,5,0
384,80,57575,1,0
416,112,57734,1,0
448,152,58053,1,0
464,296,58373,5,0
256,296,59011,1,0
16,304,59650,1,0
16,0,60926,5,0
80,56,61245,2,0,B|120:88,1,35
104,72,61724,2,0,B|188:146,1,105
192,144,62522,2,0,B|225:169,1,35
40,352,63480,5,0
128,312,63799,2,0,B|240:296|264:288|320:208,1,210
136,192,65394,2,0,B|256:112|256:64|256:64|400:192,1,350
176,104,67628,6,0,B|216:104,2,35
176,104,68267,1,0
72,192,68586,1,0
256,336,69224,1,0
432,192,69863,1,0
432,48,71139,5,0
344,48,71458,2,0,B|296:48,1,35
176,48,71937,1,0
32,192,72416,1,0
144,264,72735,2,0,B|200:296,1,35
256,192,73533,12,0,78160
56,128,89011,5,0
248,48,89650,1,0
328,112,89969,2,0,B|360:144,3,35
328,112,90607,1,0
352,208,90926,1,0
256,320,91565,5,0
88,256,92203,1,0
64,136,92682,2,0,B|96:112,1,35
184,56,93001,2,0,B|272:56,1,70
256,192,94118,5,0
392,64,94756,1,0
440,168,95075,2,0,B|432:208,1,35
433,202,95394,2,0,B|408:240,1,35
376,256,95714,1,0
296,280,96033,1,0
192,272,96671,6,0,B|128:232|208:184|112:136|208:96|120:56|208:24|272:96|272:96,1,280
256,192,104331,5,0
256,192,104650,2,0,B|256:248,1,35
328,192,105128,2,0,B|232:192,1,70
256,192,105926,2,0,B|200:192,1,35
48,48,106883,5,0
48,48,107043,1,0
256,48,107362,1,0
440,48,107841,1,0
464,200,108160,1,0
256,200,108480,1,0
48,152,108799,2,0,B|-24:200|48:312,1,175
24,200,113586,5,0
256,352,113905,1,0
488,200,114224,1,0
256,64,114543,1,0
256,64,114703,1,0
256,192,115022,1,0
256,352,115341,1,0
40,192,115660,2,0,B|200:192,1,140
256,192,116458,1,0
400,32,117097,6,0,B|432:64,1,35
448,192,117575,1,0
352,344,118054,1,0
112,352,118373,1,0
64,192,118692,2,0,B|184:56|456:192,1,420
32,24,123958,5,0
32,24,124118,1,0
32,24,124277,1,0
256,16,124597,1,0
472,16,124916,1,0
256,208,125554,1,0
32,368,126033,1,0
32,192,127309,5,0
144,192,127628,1,0
144,192,127788,1,0
256,192,128267,1,0
368,192,128745,1,0
472,192,129065,1,0
472,192,129224,1,0
472,40,129863,5,0
256,32,130182,1,0
256,32,130342,1,0
160,184,130820,1,0
224,120,131139,1,0
272,192,131458,1,0
272,192,131618,1,0
384,104,131938,1,0
440,224,132416,2,0,B|408:296|288:328,1,175
104,280,134011,6,0,B|96:256|112:232,2,35
104,280,134650,2,0,B|240:280,1,105
312,280,135607,2,0,B|456:224|360:40,1,280
256,192,137522,12,0,142469
240,192,142788,6,0,B|312:192,8,70
256,192,152841,12,0,155554
40,192,159224,5,0
120,264,159543,1,0
216,296,159863,1,0
320,304,160182,1,0
432,296,160501,2,0,B|496:168,1,140
464,80,161458,1,0
368,32,161777,1,0
256,0,162097,1,0
128,32,162416,1,0
128,32,162894,2,0,B|88:136|104:224,1,175
48,56,164490,5,0
48,56,164809,1,0
432,56,165128,1,0
432,56,165448,1,0
256,184,165767,1,0
256,184,166405,1,0
80,312,166884,1,0
256,320,167203,1,0
440,320,167522,1,0
440,216,167841,2,0,B|440:128|312:48,1,210
264,160,169437,6,0,B|264:272,1,105
264,265,170235,2,0,B|328:240|336:192,1,105
335,194,171033,1,0
352,88,171352,1,0
264,16,171671,1,0
144,32,171990,1,0
80,96,172309,1,0
32,176,172628,2,0,B|48:216|128:232,1,105
256,280,173586,1,0
344,200,173905,1,0
392,104,174224,2,0,B|320:40|184:112,1,210
48,192,175980,1,0
256,272,176458,1,0
432,200,176937,1,0
432,200,177256,1,0
256,64,177735,1,0
64,48,178054,2,0,B|40:152|216:152|216:152|136:272|184:336|184:336,1,385
256,192,180128,12,0,182841
120,48,193852,5,0
256,48,194491,1,0
408,48,195129,1,0
96,192,196405,2,0,B|184:192,1,70
166,192,196884,2,0,B|296:192,1,105
271,192,197522,2,0,B|384:192,1,105
376,192,198160,1,0
384,328,198799,5,0
152,336,199118,1,0
152,336,199278,1,0
72,224,199597,1,0
144,96,200235,1,0
288,48,200554,1,0
288,48,200714,1,0
384,192,201033,1,0
376,296,201352,2,0,B|240:344|104:264,1,280
96,184,202948,5,0
96,184,203107,1,0
96,184,203267,1,0
256,184,203745,1,0
424,184,204065,1,0
256,336,204703,1,0
88,192,205341,1,0
88,48,206618,5,0
248,184,206937,1,0
248,184,207097,1,0
416,48,207416,1,0
424,296,207894,1,0
256,304,208213,1,0
256,304,208372,1,0
256,192,209011,12,0,214277
