osu file format v9

[General]
AudioFilename: S.E.S - DREAMS COME TRUE [KR ].mp3
AudioLeadIn: 0
PreviewTime: -1
Countdown: 0
SampleSet: Normal
StackLeniency: 0.7
Mode: 0
LetterboxInBreaks: 1
SkinPreference:fushigiOsu

[Editor]
DistanceSpacing: 0.8
BeatDivisor: 4
GridSize: 8

[Metadata]
Title:Dreams Come True
Artist:S.E.S
Creator:Elaine Spencer
Version:Easy
Source:
Tags:

[Difficulty]
HPDrainRate:2
CircleSize:3
OverallDifficulty:1
ApproachRate:3
SliderMultiplier:1.4
SliderTickRate:1

[Events]
//Background and Video events
Video,0,"dreams_come_true_fy.wmv"
//Break Periods
2,32402,36508
2,99424,102891
2,123679,132571
//Storyboard Layer 0 (Background)
//Storyboard Layer 1 (Fail)
//Storyboard Layer 2 (Pass)
//Storyboard Layer 3 (Foreground)
//Storyboard Sound Samples
//Background Colour Transformations
3,100,163,162,255

[TimingPoints]
6033.21529292291,638.297872340426,4,1,0,100,1,0

[Colours]
Combo1 : 255,0,128
Combo2 : 255,128,192
Combo3 : 255,128,255
Combo4 : 255,0,255

[HitObjects]
256,32,12416,1,0
256,192,13054,1,0
256,352,13692,1,0
256,352,14011,1,0
256,352,14331,1,0
480,192,14969,5,0
256,192,15607,1,0
16,192,16245,1,0
16,192,16565,1,0
16,192,16884,1,0
32,32,17522,5,0
256,192,18160,1,0
496,32,18799,1,0
496,32,19118,1,0
496,32,19437,1,0
256,192,19756,12,0,22628
264,192,23267,1,0
40,344,23905,1,0
40,344,24224,1,0
40,344,24543,1,0
472,336,25182,5,0
256,192,25820,1,0
40,40,26458,1,0
40,40,26777,1,0
40,40,27097,1,0
32,192,27735,5,0
256,192,28373,1,0
480,192,29011,1,0
480,192,29331,1,0
480,192,29650,1,0
56,280,30288,2,0,B|112:128|272:112|488:200|424:184,1,420
24,192,37948,5,0
152,192,38267,1,0
152,192,38426,1,0
336,192,39224,5,0
448,192,39543,1,0
448,192,39703,1,0
256,32,40501,5,0
256,144,40820,1,0
256,144,40980,1,0
256,144,41777,5,0
256,144,42097,2,0,B|400:32|440:272|248:320|248:320|144:248|88:152|152:96|264:152,1,700
128,192,47203,5,0
256,192,47522,1,0
384,192,47841,1,0
384,80,48160,1,0
256,72,48480,1,0
256,72,48639,1,0
144,192,49437,5,0
256,192,49756,1,0
256,192,49916,1,0
256,72,50714,5,0
256,192,51033,1,0
256,192,51192,1,0
416,192,51990,2,0,B|288:320|88:192,1,350
256,192,55022,12,0,57416
104,192,58373,5,0
256,192,59011,1,0
424,192,59650,1,0
256,48,60926,5,0
256,184,61565,1,0
256,184,62203,1,0
256,328,62841,1,0
48,328,63480,5,0
48,192,64118,1,0
256,192,64756,1,0
432,192,65394,1,0
432,88,66033,2,0,B|336:56|256:32|256:32|136:64,1,280
112,88,68586,5,0
112,88,69224,1,0
112,88,69863,1,0
256,88,71139,1,0
432,88,71777,1,0
272,192,72416,1,0
424,184,73054,1,0
256,192,73692,12,0,78799
56,80,79437,5,0
184,80,80075,1,0
184,80,80394,1,0
184,80,80714,1,0
304,72,81352,5,0
424,144,81990,1,0
376,288,82628,1,0
296,288,82947,1,0
216,288,83266,1,0
96,200,83905,5,0
136,80,84543,1,0
256,72,85182,1,0
376,112,85501,1,0
256,192,85820,1,0
240,120,86458,6,0,B|392:32|400:128|256:264|256:264|112:128|72:64|224:120,1,630
240,120,89650,1,0
344,176,90288,1,0
344,176,90607,1,0
344,176,90926,1,0
256,304,91565,5,0
152,232,92203,1,0
152,112,92841,1,0
152,112,93160,1,0
152,112,93480,1,0
440,192,94118,5,0
256,192,94756,1,0
88,200,95394,1,0
88,200,95714,1,0
88,200,96033,1,0
80,112,96671,2,0,B|240:104|240:104|232:256|232:256|368:248|432:376,1,560
256,192,104331,5,0
256,96,104650,1,0
256,96,104809,1,0
256,192,105607,5,0
256,304,105926,1,0
256,304,106086,1,0
256,192,106884,5,0
408,192,107203,1,0
408,192,107363,1,0
256,192,108160,1,0
80,184,108480,1,0
80,184,108639,2,0,B|136:80|264:64|264:64|336:112|312:248,1,420
128,48,113586,5,0
248,48,113905,1,0
360,48,114224,1,0
424,136,114543,2,0,B|408:168,1,35
408,167,115182,1,0
256,272,115820,1,0
256,160,116139,1,0
256,160,116299,1,0
80,56,117097,5,0
256,56,117416,1,0
256,56,117575,1,0
256,56,118373,5,0
384,56,118692,1,0
384,56,118852,1,0
416,160,119171,2,0,B|448:232|384:296,1,140
48,56,121565,6,0,B|392:56|128:328,1,420
160,88,134011,5,0
160,88,134171,1,0
160,88,134331,1,0
272,88,134650,1,0
384,88,134969,1,0
320,192,135607,1,0
200,192,136245,1,0
256,192,137522,12,0,145182
