osu file format v9

[General]
AudioFilename: milky ice bear.mp3
AudioLeadIn: 2000
PreviewTime: 68571
Countdown: 0
SampleSet: Normal
StackLeniency: 0.7
Mode: 1
LetterboxInBreaks: 0

[Editor]
DistanceSpacing: 0.7
BeatDivisor: 4
GridSize: 4

[Metadata]
Title:milky ice bear
Artist:S-C-U
Creator:MMzz
Version:Taiko Oni
Source:REFLEC BEAT
Tags:colette Deif Sync limelight

[Difficulty]
HPDrainRate:6
CircleSize:5
OverallDifficulty:6
ApproachRate:5
SliderMultiplier:1.4
SliderTickRate:1

[Events]
//Background and Video events
0,0,"The-best-top-desktop-bears-wallpapers-hd-bear-wallpaper-28-polar-bear-in-the-arctic-full-of-ice.jpg"
//Break Periods
//Storyboard Layer 0 (Background)
//Storyboard Layer 1 (Fail)
//Storyboard Layer 2 (Pass)
//Storyboard Layer 3 (Foreground)
//Storyboard Sound Samples
//Background Colour Transformations
3,100,163,162,255

[TimingPoints]
20,408.163265306122,4,1,0,75,1,0
20,-133.333333333333,4,1,0,75,0,0
11652,-100,4,1,0,75,0,0
68591,-100,4,1,0,75,0,1
81550,-100,4,1,0,75,0,0
81652,-100,4,1,0,75,0,1
94713,-100,4,1,0,75,0,0

[Colours]
Combo1 : 0,128,255
Combo2 : 252,63,16

[HitObjects]
260,188,20,1,0
332,180,224,1,0
260,188,428,5,8
260,188,632,5,0
260,188,836,5,8
260,188,1040,5,0
260,188,1244,1,0
260,188,1448,5,8
260,188,1856,5,0
260,188,2060,1,0
260,188,2264,1,0
260,188,2673,1,0
260,188,3285,1,0
260,188,3489,1,0
260,188,3693,5,8
260,188,3897,1,8
264,116,4305,5,0
260,188,4509,1,0
260,188,4713,5,12
260,188,5530,1,8
260,188,5938,1,8
260,188,6346,1,8
260,188,6550,5,0
260,188,6958,1,0
288,184,7162,5,8
260,188,7571,5,0
260,188,7775,1,0
108,72,7979,2,0,B|76:140,6,52.5000020027161
256,192,9611,12,0,11448
256,192,11652,1,0
256,192,11856,1,8
256,192,12060,5,0
256,192,12162,5,8
256,192,12366,5,0
256,192,12468,5,8
256,192,12571,5,0
256,192,12673,5,8
256,192,12775,1,8
256,192,12877,1,8
256,192,13081,5,4
256,192,13285,5,8
256,192,13489,5,0
256,192,13693,5,8
256,192,13795,5,0
256,192,13999,1,0
256,192,14101,5,8
256,192,14305,5,0
256,192,14407,1,0
256,192,14509,5,8
256,192,14713,5,0
256,192,14917,5,8
256,192,15019,1,8
256,192,15122,5,0
256,192,15326,5,8
256,192,15428,5,0
256,192,15632,1,0
256,192,15734,5,8
256,192,15938,1,8
256,192,16040,5,0
256,192,16142,5,8
256,192,16346,5,0
256,192,16550,5,8
256,192,16754,5,0
256,192,16958,5,8
256,192,17060,5,0
256,192,17264,1,0
256,192,17366,5,8
256,192,17571,5,0
256,192,17673,1,0
256,192,17775,5,8
256,192,17979,5,0
256,192,18183,5,8
236,168,18285,1,8
256,192,18387,5,0
256,192,18591,1,0
256,192,18693,5,8
256,192,18897,5,0
256,192,18999,5,8
256,192,19101,5,0
256,192,19203,5,8
256,192,19305,1,8
256,192,19407,5,0
256,192,19509,5,8
256,192,19611,5,0
256,192,19815,5,8
256,192,20019,5,0
256,192,20223,5,8
256,192,20325,5,0
256,192,20529,1,0
256,192,20632,5,8
256,192,20835,5,0
256,192,20937,1,0
256,192,21039,5,8
256,192,21243,5,0
256,192,21447,5,8
256,192,21549,1,8
256,192,21652,5,0
256,192,21856,5,8
256,192,21958,5,0
256,192,22162,1,0
256,192,22264,5,8
256,192,22468,1,8
256,192,22570,5,0
256,192,22672,5,8
256,192,22876,5,0
256,192,23080,5,8
256,192,23284,5,0
256,192,23489,5,8
256,192,23591,5,0
256,192,23794,1,0
256,192,23896,5,8
256,192,24101,5,0
256,192,24305,5,12
256,192,24509,5,0
256,192,24713,5,8
256,192,24917,1,8
256,192,25122,5,0
256,192,25224,5,8
256,192,25428,1,8
256,192,25530,5,0
120,132,25734,1,0
256,192,25938,5,8
256,192,26142,5,4
256,192,26448,1,0
256,192,26754,1,0
256,192,26958,5,8
256,192,27264,1,8
256,192,27571,1,8
256,192,27775,5,0
256,192,28081,1,0
256,192,28387,1,0
256,192,28591,5,8
256,192,28897,1,8
256,192,29204,1,8
256,192,29407,5,0
256,192,29713,1,0
256,192,30019,1,0
256,192,30223,5,8
256,192,30529,1,8
256,192,30836,1,8
256,192,31040,5,0
256,192,31448,5,8
256,192,31856,5,0
256,192,32264,5,8
256,192,32673,5,0
256,192,32979,1,0
256,192,33081,5,8
256,192,33285,5,0
256,192,33489,1,0
256,192,33693,1,0
256,192,33795,1,0
256,192,33897,5,8
256,192,34305,5,0
256,192,34611,1,0
256,192,34713,5,8
256,192,34917,5,0
256,192,35122,1,0
256,192,35326,1,0
256,192,35530,5,8
256,192,35938,5,0
256,192,36244,1,0
256,192,36346,5,8
256,192,36550,5,0
256,192,36754,1,0
256,192,36958,1,0
256,192,37060,1,0
256,192,37162,5,8
256,192,37366,5,0
256,192,37571,5,12
256,192,37877,1,12
256,192,38183,1,12
256,192,38489,1,12
256,192,38795,5,4
256,192,39203,1,4
256,192,39407,5,8
288,184,39611,5,0
256,192,39713,5,8
256,192,39917,1,8
256,192,40019,5,0
256,192,40224,1,0
256,192,40326,5,8
256,192,40530,5,0
256,192,40632,5,8
256,192,40836,5,0
288,184,41040,5,8
256,192,41142,1,8
256,192,41244,5,0
256,192,41448,5,8
256,192,41652,5,0
256,192,41856,5,8
256,192,41958,5,0
256,192,42162,5,8
256,192,42264,5,0
256,192,42468,1,0
256,192,42673,1,0
256,192,42775,1,0
264,148,42877,5,8
256,192,43081,5,0
256,192,43183,1,0
256,192,43285,1,0
256,192,43489,5,8
264,148,43693,5,0
264,148,43897,1,0
264,148,44101,5,8
264,148,44305,5,0
264,148,44407,1,0
264,148,44509,5,8
264,148,44713,5,0
264,148,44917,5,12
264,148,45224,5,4
264,148,45530,1,4
256,192,45734,1,0
256,192,45938,5,8
288,184,46142,5,0
256,192,46244,5,8
256,192,46448,1,8
256,192,46550,5,0
256,192,46755,1,0
256,192,46857,5,8
256,192,47061,5,0
256,192,47163,5,8
256,192,47367,5,0
288,184,47571,5,8
256,192,47673,1,8
256,192,47775,5,0
256,192,47979,5,8
256,192,48183,5,0
256,192,48387,5,8
256,192,48489,5,0
256,192,48693,5,8
256,192,48795,5,0
256,192,48999,1,0
256,192,49204,1,0
256,192,49306,1,0
264,148,49408,5,8
256,192,49612,5,0
256,192,49714,1,0
256,192,49816,1,0
184,144,50019,1,0
184,144,50224,5,8
184,144,50428,5,0
184,144,50530,1,0
184,144,50632,1,0
184,144,50836,5,8
184,144,51040,1,8
184,144,51244,5,0
184,144,51346,5,8
184,144,51448,5,0
184,144,51550,5,8
184,144,51652,5,0
184,144,51754,1,0
184,144,51856,5,8
184,144,52060,5,0
184,144,52264,1,4
268,176,52468,5,8
268,176,52571,1,8
268,176,52673,5,0
268,176,52877,5,8
268,176,52979,5,0
268,176,53183,1,0
268,176,53285,5,8
268,176,53489,5,0
268,176,53693,5,8
268,176,53897,5,0
268,176,54101,5,8
268,176,54203,5,0
268,176,54305,1,0
268,176,54509,5,8
268,176,54611,5,0
268,176,54815,5,8
268,176,54917,5,0
268,176,55019,1,0
268,176,55122,5,8
268,176,55326,5,0
268,176,55530,1,0
268,176,55734,1,0
268,176,55836,1,0
268,176,55938,5,8
268,176,56142,5,0
268,176,56244,1,0
268,176,56448,1,0
268,176,56550,5,8
268,176,56754,5,0
268,176,56958,5,8
268,176,57162,5,0
268,176,57366,5,8
268,176,57468,1,8
268,176,57571,5,0
268,176,57775,5,8
268,176,57877,5,0
268,176,58081,1,0
268,176,58183,5,8
268,176,58387,1,8
268,176,58489,5,0
268,176,58591,5,8
268,176,58795,5,4
268,176,58999,5,8
268,176,59203,5,0
268,176,59407,5,8
268,176,59509,5,0
268,176,59713,1,0
268,176,59815,5,8
268,176,60019,5,0
268,176,60122,1,0
268,176,60224,5,8
268,176,60428,5,0
268,176,60632,5,8
268,176,60836,5,0
268,176,61040,5,8
268,176,61142,5,0
268,176,61346,1,0
268,176,61448,5,8
268,176,61652,5,0
268,176,61754,1,0
268,176,61856,5,8
268,176,61958,1,8
268,176,62060,5,0
268,176,62264,5,8
268,176,62468,5,0
268,176,62673,5,8
268,176,62775,5,0
268,176,62979,1,0
268,176,63081,5,8
268,176,63285,5,0
268,176,63387,1,0
268,176,63489,5,8
264,136,63693,5,0
264,136,63897,5,8
264,136,63999,1,8
264,136,64101,5,0
264,136,64305,5,8
264,136,64407,5,0
264,136,64611,1,0
264,136,64713,5,8
264,136,64917,5,0
264,136,65122,5,8
264,136,65326,5,0
264,136,65530,5,8
264,136,65734,1,8
264,136,65938,5,0
264,136,66040,5,8
264,136,66244,1,8
264,136,66346,5,0
264,136,66448,1,0
264,136,66550,5,8
264,136,66754,1,12
264,136,67162,5,0
264,136,67366,5,8
264,136,67571,5,0
264,136,67673,5,8
264,136,67877,1,8
244,120,67979,5,0
264,136,68183,5,8
264,136,68285,5,0
264,136,68387,1,0
264,136,68591,1,4
264,136,68795,5,8
264,136,68897,1,8
264,136,68999,5,0
264,136,69203,5,8
264,136,69407,5,0
264,136,69611,5,8
264,136,69713,1,8
264,136,69815,5,0
264,136,70019,5,8
264,136,70428,1,8
264,136,70632,5,0
264,136,70734,1,0
264,136,70836,5,8
264,136,71040,5,0
264,152,71244,1,0
264,152,71346,5,8
264,152,71448,5,0
264,152,71652,5,8
264,136,71856,5,0
264,136,72060,5,8
264,136,72264,5,0
264,136,72468,5,8
264,136,72571,5,0
264,152,72775,1,0
264,152,72877,5,8
264,152,73081,5,0
264,136,73285,5,8
264,136,73489,5,0
264,136,73591,1,0
264,136,73693,1,0
264,136,73897,5,8
264,136,74101,1,8
264,152,74305,5,0
264,152,74611,5,8
264,136,74713,5,0
264,136,74917,5,8
264,136,75122,5,4
312,140,75326,5,8
312,140,75428,1,8
264,136,75530,5,0
264,152,75734,5,8
264,152,75938,5,0
264,152,76142,5,8
264,136,76244,5,0
264,136,76448,1,0
264,136,76550,5,8
264,136,76754,5,0
264,136,76856,5,8
264,136,76958,5,0
264,152,77162,5,8
264,152,77366,5,0
264,152,77468,5,8
264,152,77673,5,0
264,136,77775,5,8
264,136,77877,5,0
264,136,77979,5,8
264,136,78081,1,8
264,136,78183,1,8
264,136,78387,5,0
264,152,78591,5,8
264,152,78693,1,8
264,152,78795,5,0
264,152,78999,5,8
264,152,79101,5,0
264,136,79305,1,0
264,136,79407,1,0
264,136,79509,1,0
264,136,79611,5,8
264,136,79815,5,4
264,136,80224,5,8
264,136,80428,1,8
264,136,80632,5,0
264,136,80734,5,8
264,136,80938,1,8
264,136,81040,5,0
264,136,81244,1,0
264,136,81346,1,0
264,136,81448,5,8
264,136,81550,1,8
264,136,81652,5,0
264,136,81856,5,8
264,136,81958,1,8
264,136,82060,5,0
264,136,82264,5,8
264,136,82468,5,0
264,136,82672,5,8
264,136,82774,1,8
264,136,82876,5,0
264,136,83080,5,8
264,136,83489,1,8
264,136,83693,5,0
264,136,83795,1,0
264,136,83897,5,8
264,136,84101,5,0
264,152,84305,1,0
264,152,84407,5,8
264,152,84509,5,0
264,152,84713,5,8
264,136,84917,5,0
264,136,85121,5,8
264,136,85325,5,0
264,136,85529,5,8
264,136,85632,5,0
264,152,85836,1,0
264,152,85938,5,8
264,152,86142,5,0
264,136,86346,5,8
264,136,86550,5,0
264,136,86652,1,0
264,136,86754,1,0
264,136,86958,5,8
264,136,87162,1,8
264,152,87366,5,0
264,152,87672,5,8
264,136,87774,5,0
264,136,87978,5,8
264,136,88183,5,4
312,140,88387,5,8
312,140,88489,1,8
264,136,88591,5,0
264,152,88795,5,8
264,152,88999,5,0
264,152,89203,5,8
264,136,89305,5,0
264,136,89509,1,0
264,136,89611,5,8
264,136,89815,5,0
264,136,89917,5,8
264,136,90019,5,0
264,152,90223,5,8
264,152,90427,5,0
264,152,90529,5,8
264,152,90734,5,0
264,136,90836,5,8
264,136,90938,5,0
264,136,91040,5,8
264,136,91142,1,8
264,136,91244,1,8
264,136,91448,5,0
264,152,91652,5,8
264,152,91754,1,8
264,152,91856,5,0
264,152,92060,5,8
264,152,92162,5,0
264,136,92366,1,0
264,136,92468,1,0
264,136,92570,1,0
264,136,92672,5,8
264,136,92876,5,4
256,192,93285,5,8
256,192,93489,1,8
256,192,93693,5,0
256,192,93795,5,8
256,192,93999,5,0
256,192,94101,5,8
256,192,94204,5,0
256,192,94306,5,8
256,192,94408,1,8
256,192,94510,1,8
256,192,94714,5,4
256,192,94918,5,8
256,192,95122,5,0
256,192,95326,5,8
256,192,95428,5,0
256,192,95632,1,0
256,192,95734,5,8
256,192,95938,5,0
256,192,96040,1,0
256,192,96142,5,8
256,192,96346,5,0
256,192,96550,5,8
256,192,96652,1,8
256,192,96755,5,0
256,192,96959,5,8
256,192,97061,5,0
256,192,97265,1,0
256,192,97367,5,8
256,192,97571,1,8
256,192,97673,5,0
256,192,97775,5,8
256,192,97979,5,0
256,192,98183,5,8
256,192,98387,5,0
256,192,98591,5,8
256,192,98693,5,0
256,192,98897,1,0
256,192,98999,5,8
256,192,99204,5,0
256,192,99306,1,0
256,192,99408,5,8
256,192,99612,5,0
256,192,99816,5,8
236,168,99918,1,8
256,192,100020,5,0
256,192,100224,1,0
256,192,100326,5,8
256,192,100530,5,0
256,192,100632,5,8
256,192,100734,5,0
256,192,100836,5,8
256,192,100938,1,8
256,192,101040,5,0
256,192,101142,5,8
256,192,101244,5,0
256,192,101448,5,8
256,192,101652,5,0
256,192,101856,5,8
256,192,101958,5,0
256,192,102162,1,0
256,192,102265,5,8
256,192,102468,5,0
256,192,102570,1,0
256,192,102672,5,8
256,192,102876,5,0
256,192,103080,5,8
256,192,103182,1,8
256,192,103285,5,0
256,192,103489,5,8
256,192,103591,5,0
256,192,103795,1,0
256,192,103897,5,8
256,192,104101,1,8
256,192,104203,5,0
256,192,104305,5,8
256,192,104509,5,0
256,192,104713,5,8
256,192,104917,5,0
256,192,105122,5,8
256,192,105224,5,0
256,192,105427,1,0
256,192,105529,5,8
256,192,105734,5,0
256,192,105938,5,12
256,192,106142,5,0
256,192,106346,5,8
256,192,106550,1,8
256,192,106755,5,0
256,192,106857,5,8
256,192,107061,1,8
256,192,107163,5,0
120,132,107367,5,8
256,192,107571,12,0,109407
