osu file format v9

[General]
AudioFilename: milky ice bear.mp3
AudioLeadIn: 2000
PreviewTime: 68571
Countdown: 0
SampleSet: Soft
StackLeniency: 0.7
Mode: 0
LetterboxInBreaks: 0

[Editor]
DistanceSpacing: 0.8
BeatDivisor: 4
GridSize: 4

[Metadata]
Title:milky ice bear
Artist:S-C-U
Creator:MMzz
Version:Standard
Source:REFLEC BEAT
Tags:colette Deif Sync limelight

[Difficulty]
HPDrainRate:3
CircleSize:3
OverallDifficulty:4
ApproachRate:5
SliderMultiplier:1.4
SliderTickRate:2

[Events]
//Background and Video events
0,0,"The-best-top-desktop-bears-wallpapers-hd-bear-wallpaper-28-polar-bear-in-the-arctic-full-of-ice.jpg"
//Break Periods
2,26342,29840
//Storyboard Layer 0 (Background)
//Storyboard Layer 1 (Fail)
//Storyboard Layer 2 (Pass)
//Storyboard Layer 3 (Foreground)
//Storyboard Sound Samples
//Background Colour Transformations
3,100,163,162,255

[TimingPoints]
20,408.163265306122,4,2,1,70,1,0
13081,-100,4,1,1,65,0,0
31040,-100,4,2,1,70,0,0
37571,-100,4,1,1,65,0,0
68077,-100,4,2,1,10,0,0
68591,-100,4,1,1,65,0,1
81550,-100,4,1,1,65,0,0
81652,-100,4,1,1,65,0,1
94713,-100,4,1,1,65,0,0
106346,-100,4,2,1,70,0,0
109305,-100,4,2,1,10,0,0

[Colours]
Combo1 : 255,255,70
Combo2 : 43,186,255
Combo3 : 255,255,255
Combo4 : 107,107,214

[HitObjects]
108,56,20,2,0,B|148:120|108:192,1,140,0|2
52,284,836,1,2
164,280,1244,2,0,B|192:344,1,70,0|2
288,288,1856,2,0,B|364:256|424:308,2,140,0|2|0
428,192,3285,6,0,B|456:124|420:56,1,140
368,40,3897,2,0,B|328:40|328:40|312:68|312:68|244:68,2,140,2|0|2
144,56,5530,5,2
60,128,5938,2,0,B|20:192|60:260,1,140,2|2
92,304,6550,2,0,B|144:356|224:340|224:340|276:292,1,210,0|2
256,184,7571,1,0
256,192,7979,12,0,11448
108,320,13081,6,0,B|140:344|172:348|212:344|244:316,1,140,4|8
328,252,13897,1,0
428,300,14305,1,8
476,196,14713,2,0,B|504:132|468:60,1,140,0|8
364,100,15530,2,0,B|320:48,2,70,0|8|8
256,136,16346,6,0,B|188:168|120:124,1,140,0|8
20,80,17162,2,0,B|48:216,1,140,0|8
8,320,17979,2,0,B|84:348|136:288,3,140,0|8|0|8
244,260,19611,6,0,B|324:232|380:288,1,140,0|8
468,348,20428,1,0
496,240,20836,1,8
416,164,21244,2,0,B|368:104|408:24,1,140,0|8
292,44,22060,2,0,B|220:36,2,70,0|8|8
300,156,22877,6,0,B|244:196|164:176,1,140,0|8
108,80,23693,2,0,B|56:212,1,140,0|8
36,260,24305,1,12
256,192,24713,12,4,26142
432,336,31040,6,0,B|364:300|296:336,1,140,0|2
216,260,31856,2,0,B|149:295|81:259,1,140,0|2
28,160,32673,5,0
116,88,33081,2,0,B|184:64|256:88|256:88|320:112|392:88,1,280,8|8
476,160,34305,1,0
492,272,34713,2,0,B|448:280|412:268|388:240|376:208|376:208|300:188|256:256,1,280,8|8
253,131,35938,5,0
253,131,36346,2,0,B|212:196|136:176|136:176|124:144|100:116|64:104|20:112,1,280,8|8
32,224,37571,2,0,B|0:260|-4:300|12:328,4,105,4|0|4|0|2
124,288,39203,6,0,B|176:336|256:312,1,140,4|8
336,236,40019,1,0
436,288,40428,1,8
456,180,40836,2,0,B|416:120|456:48,1,140,0|8
344,44,41652,2,0,B|212:88,1,140,0|8
108,40,42468,5,0
32,120,42877,1,8
132,168,43285,2,0,B|160:244|104:304,1,140,0|8
216,328,44101,2,0,B|356:312,1,140,0|8
440,240,44917,2,0,B|472:268|476:304|460:344,2,105,0|8|8
392,216,45734,6,0,B|328:168|352:84,1,140,0|8
256,32,46550,1,0
172,104,46958,1,8
68,60,47366,2,0,B|28:124|68:192,1,140,0|8
176,228,48183,2,0,B|68:324,1,140,0|8
172,372,48999,5,0
272,320,49407,2,0,B|332:280|408:312,1,140,8|0
476,224,50224,1,8
368,196,50632,2,0,B|328:132|364:60,1,140,0|8
256,32,51448,2,0,B|188:24,2,70,0|8|8
200,128,52264,5,4
112,200,52673,2,0,B|60:136|108:64,2,140,8|0|8
76,304,53897,1,0
184,280,54305,2,0,B|260:256|316:312,1,140,8|0
356,344,54917,2,0,B|424:320,1,70,0|8
460,216,55530,5,0
368,156,55938,2,0,B|328:88|372:20,2,140,8|0|8
292,240,57162,1,0
236,144,57571,2,0,B|172:112|100:144,1,140,8|0
60,184,58183,2,0,B|20:240,2,70,8|0|8
136,232,58795,6,0,B|96:304|144:368,1,140,4|8
232,300,59611,2,0,B|368:328,1,140,0|8
372,216,60428,1,0
476,256,60836,1,8
460,144,61244,2,0,B|500:72|452:4,1,140,0|8
364,76,62060,6,0,B|228:108,1,140,0|8
128,52,62877,1,0
44,124,63285,1,8
136,188,63693,2,0,B|176:256|128:324,1,140,0|8
244,328,64509,2,0,B|308:296|380:324,1,140,0|8
256,192,65326,12,0,66754
256,68,68591,6,0,B|200:112|120:80,1,140,4|8
44,160,69407,1,0
112,248,69815,1,8
51,342,70224,2,0,B|120:380|184:336,1,140,0|8
272,268,71040,2,0,B|300:248|344:244|376:260,2,105,0|8|8
220,252,71856,6,0,B|164:200|200:120,1,140,0|8
280,48,72673,2,0,B|420:64,1,140,0|8
468,164,73489,2,0,B|508:228|468:300,3,140,0|8|0|8
368,248,75122,6,0,B|252:328,1,140,4|8
156,272,75938,1,0
52,312,76346,1,8
76,204,76754,2,0,B|116:132|52:72,1,140,0|8
168,56,77571,2,0,B|308:80,1,140,0|8
340,188,78387,5,0
432,252,78795,2,0,B|472:184|432:116,2,140,8|0|8
404,300,79815,1,12
292,280,80224,2,0,B|156:316,3,140,8|8|8|8
104,332,81652,6,0,B|44:288|68:204,1,140,4|8
40,100,82468,2,8,B|184:112,1,140,0|8
264,188,83285,1,0
328,96,83693,1,8
416,164,84101,2,0,B|440:144|448:104|428:60,2,105,0|8|8
384,208,84917,6,0,B|348:280|392:340,1,140,0|8
280,340,85734,2,0,B|140:324,1,140,0|8
112,216,86550,1,0
24,284,86958,1,8
8,172,87366,2,0,B|-16:96|32:40,1,140,0|8
120,108,88183,6,0,B|252:64,1,140,4|8
328,144,88999,1,0
416,76,89407,1,8
468,176,89815,2,0,B|508:244|468:316,1,140,0|8
376,252,90632,2,0,B|252:316,1,140,0|8
160,252,91448,5,0
60,304,91856,1,8
68,192,92264,2,0,B|32:120|76:56,1,140,0|8
124,36,92877,1,12
224,88,93285,2,8,B|296:88|364:88,3,140
420,88,94713,6,0,B|460:152|424:224,1,140,4|8
316,240,95530,1,0
388,324,95938,1,8
276,340,96346,2,0,B|208:372|136:336,3,140,0|8|0|8
160,228,97979,5,0
52,268,98387,1,8
72,160,98795,2,0,B|32:92|72:24,1,140,0|8
164,88,99611,2,0,B|304:100,1,140,0|8
372,192,100428,1,0
440,104,100836,1,8
480,208,101244,6,0,B|520:276|472:344,1,140,0|8
372,296,102060,2,0,B|240:340,1,140,0|8
156,268,102877,1,0
64,336,103285,1,8
56,224,103693,2,0,B|96:152|44:88,1,140,0|8
156,60,104509,6,0,B|296:72,1,140,0|8
356,168,105326,1,0
428,84,105734,2,0,B|492:124,1,70,8|8
456,228,106346,6,0,B|492:288,2,70
404,244,106958,2,0,B|356:296,2,70
256,192,107571,12,0,109407
