osu file format v9

[General]
AudioFilename: milky ice bear.mp3
AudioLeadIn: 2000
PreviewTime: 68571
Countdown: 0
SampleSet: Soft
StackLeniency: 0.7
Mode: 0
LetterboxInBreaks: 0

[Editor]
DistanceSpacing: 1
BeatDivisor: 4
GridSize: 4

[Metadata]
Title:milky ice bear
Artist:S-C-U
Creator:MMzz
Version:Extreme
Source:REFLEC BEAT
Tags:colette Deif Sync limelight

[Difficulty]
HPDrainRate:7
CircleSize:4
OverallDifficulty:7
ApproachRate:8
SliderMultiplier:1.8
SliderTickRate:1

[Events]
//Background and Video events
0,0,"The-best-top-desktop-bears-wallpapers-hd-bear-wallpaper-28-polar-bear-in-the-arctic-full-of-ice.jpg"
//Break Periods
//Storyboard Layer 0 (Background)
//Storyboard Layer 1 (Fail)
//Storyboard Layer 2 (Pass)
//Storyboard Layer 3 (Foreground)
//Storyboard Sound Samples
//Background Colour Transformations
3,100,163,162,255

[TimingPoints]
20,408.163265306122,4,2,1,70,1,0
11448,-100,4,2,1,10,0,0
11652,-100,4,1,1,65,0,0
24713,-100,4,2,1,70,0,0
37571,-100,4,1,1,65,0,0
68591,-100,4,1,1,65,0,1
81550,-100,4,1,1,65,0,0
81652,-100,4,1,1,65,0,1
94713,-100,4,1,1,65,0,0
106346,-100,4,2,1,70,0,0
107571,-100,4,2,1,70,0,0
109305,-100,4,2,1,10,0,0

[Colours]
Combo1 : 255,255,70
Combo2 : 43,186,255
Combo3 : 255,255,255
Combo4 : 107,107,214

[HitObjects]
256,60,20,1,0
184,116,224,1,0
104,72,428,2,0,B|76:116|104:160,1,90,2|0
172,212,836,2,0,B|196:252|192:300|164:340|104:344,1,180,2|0
92,256,1448,1,2
420,256,1856,1,2
360,324,2060,1,2
328,240,2264,2,0,B|292:148|340:64,1,180,0|2
192,292,3285,5,0
112,336,3489,2,0,B|32:292,1,90,2|0
104,236,3897,2,0,B|128:192|128:148|112:104|56:88,1,180,2|0
32,176,4509,1,0
32,176,4713,1,2
376,68,5530,5,2
464,224,5938,1,2
320,332,6346,1,2
372,260,6550,6,0,B|332:240|280:232|236:276|232:328,1,180
160,264,7162,2,0,B|140:308|152:352|152:352|60:372,1,180,2|0
60,280,7775,1,0
60,280,7979,1,2
256,192,8183,12,0,9203
256,192,9611,5,2
256,192,9815,12,0,11448
64,48,11652,5,8
100,132,11856,1,8
164,68,12060,1,0
164,68,12162,2,0,B|208:48|252:68,1,90,8|0
276,84,12468,1,8
308,92,12571,1,0
340,84,12673,2,0,B|380:64,2,45,8|0|8
332,172,13081,6,0,B|308:216|336:264,1,90,4|0
416,292,13489,1,8
340,344,13693,1,0
340,344,13795,2,0,B|300:364|252:344,1,90
220,260,14101,2,0,B|164:328,1,90,0|8
76,356,14509,1,0
40,224,14713,5,0
92,148,14917,1,0
72,60,15122,2,0,B|160:72,1,90,8|0
161,72,15428,1,0
244,40,15632,1,0
244,40,15734,2,0,B|264:92|228:128,2,90,0|8|0
440,120,16346,5,0
364,72,16550,1,0
364,72,16754,1,8
360,160,16958,1,0
360,160,17060,2,0,B|336:204|364:248,1,90
448,272,17366,2,0,B|384:336,1,90,0|8
300,308,17775,1,0
180,248,17979,5,0
112,308,18183,1,0
52,244,18387,2,0,B|28:200|52:156,1,90,8|0
32,68,18693,2,0,B|120:88,1,90
152,92,18999,1,8
184,88,19101,1,0
208,68,19203,2,0,B|228:28,2,45,8|0|0
296,92,19611,5,0
368,40,19815,1,0
456,64,20020,1,8
472,152,20224,1,0
472,152,20326,2,0,B|448:196|476:240,1,90
404,292,20632,2,0,B|480:340,2,90,0|8|0
272,264,21244,5,0
220,336,21448,1,0
164,268,21652,2,0,B|80:304,1,90,8|0
81,303,21958,1,0
32,228,22162,1,0
32,228,22264,2,0,B|68:196|60:148,1,90,0|8
20,64,22673,1,0
152,88,22877,5,0
224,144,23081,1,0
264,64,23285,2,0,B|304:40|352:56,1,90,8|0
440,40,23591,2,0,B|408:128,1,90
404,156,23897,1,0
412,188,23999,1,0
432,212,24101,2,0,B|464:244,2,45,8|0|4
208,140,24713,5,2
328,192,24917,1,0
220,268,25122,1,0
208,140,25326,2,0,B|184:96|208:52,1,90,2|0
328,192,25734,2,0,B|372:168|416:192,1,90,2|2
220,268,26143,6,0,B|200:308|156:328|104:312,2,135,4|2|2
268,192,26959,1,2
392,140,27265,1,2
380,276,27571,1,2
392,140,27776,6,2,B|420:100|416:48|376:16,2,135
320,88,28592,1,2
236,192,28898,1,2
184,68,29204,1,2
236,192,29407,6,2,B|268:232|308:244|356:232,2,135
152,164,30225,1,2
40,236,30530,1,2
160,300,30836,1,2
40,236,31040,6,0,B|12:184|8:140|24:92|48:64,1,180,0|2
472,148,31856,2,0,B|500:200|504:244|488:292|464:320,1,180,0|2
284,320,32672,6,0,B|260:284|204:276|164:308,1,135
76,332,33081,2,0,B|96:244,1,90,8|0
172,200,33489,1,0
140,116,33693,1,0
60,160,33897,1,8
256,48,34305,6,0,B|380:100,1,135
460,56,34713,2,0,B|484:100|460:144,1,90,8|0
392,200,35121,1,0
468,248,35326,1,0
468,248,35428,1,0
468,248,35530,1,8
288,248,35938,6,0,B|252:212|248:168|280:124,1,135
312,44,36346,2,0,B|224:56,1,90,8|0
172,128,36754,1,0
100,72,36958,1,0
52,148,37162,2,0,B|80:184|64:232,1,90,8|0
64,324,37570,6,0,B|100:296|156:296|180:348,1,135,4|0
448,324,38183,2,0,B|412:296|356:296|332:348,1,135,4|0
256,192,38795,1,2
440,48,39203,5,4
392,124,39407,1,0
324,64,39611,2,0,B|280:52,1,45,8|0
252,136,39917,1,0
252,136,40019,2,0,B|208:116|164:136,1,90,0|0
104,72,40325,2,0,B|64:156,1,90,8|0
52,180,40632,1,8
128,292,40836,6,0,B|84:312|40:292,1,90,0|0
216,248,41244,2,0,B|260:228|304:248,1,90,8|0
477,299,41652,2,0,B|452:344|400:348|360:320,2,135,0|8|8
404,184,42468,6,0,B|380:140|380:96|412:56,1,135
324,36,42876,2,0,B|240:68,1,90,8|0
160,32,43285,1,0
160,32,43489,1,0
124,116,43693,2,0,B|96:160|124:204,1,90,8|0
48,340,44101,6,0,B|72:296|48:252,1,90
124,116,44509,2,0,B|160:200,1,90,8|0
274,309,44917,2,0,B|244:276|184:280|156:320,2,135,0|8|8
396,248,45734,5,0
464,308,45938,1,0
480,220,46142,2,0,B|504:184,1,45,8|0
420,160,46448,1,0
420,160,46550,2,0,B|388:124|408:76,1,90
376,0,46856,2,0,B|296:40,1,90,8|0
268,56,47162,1,8
140,76,47366,6,0,B|124:28|68:28,1,90
208,156,47774,2,0,B|224:204|280:204,1,90,8|0
100,172,48183,2,0,B|60:196|60:196|56:240|56:240|20:264,2,135,0|8|8
132,304,48999,6,0,B|172:332|220:336|256:296,1,135
300,220,49407,2,0,B|352:296,1,90,8|0
432,336,49815,1,0
480,260,50019,1,0
480,260,50121,1,0
480,260,50223,1,8
420,192,50427,1,0
388,60,50631,6,0,B|428:40|476:56,2,90,0|8|8
312,108,51244,1,0
284,96,51346,1,8
256,84,51448,1,0
228,72,51550,1,8
200,60,51652,2,0,B|160:44,2,45,0|0|8
172,192,52060,1,8
64,112,52264,5,4
28,196,52468,2,0,B|4:240|32:284,1,90,0|8
120,284,52877,2,0,B|104:332,1,45
196,332,53183,1,0
196,332,53285,1,0
276,224,53489,1,8
344,340,53693,1,0
368,252,53897,6,0,B|448:292,1,90
464,204,54305,2,0,B|436:160|464:120,1,90,8|0
464,119,54611,1,0
496,36,54815,1,0
496,36,54917,1,0
408,52,55122,2,0,B|368:76|320:56,1,90,8|0
232,160,55530,5,0
168,96,55734,1,0
88,136,55938,2,0,B|112:180|80:224,1,90,8|0
16,280,56244,2,0,B|100:316,1,90
128,328,56550,1,0
256,280,56754,1,8
384,328,56958,1,0
444,260,57162,6,0,B|472:216|440:168,1,90
356,188,57571,1,8
388,104,57775,1,0
388,104,57877,1,0
316,52,58081,2,0,B|280:24,1,45,0|8
244,108,58387,1,0
244,108,58489,1,0
244,108,58591,1,8
140,192,58795,6,0,B|164:148|136:104,1,90,4|0
52,192,59203,2,0,B|28:236|56:280,1,90,8|0
76,300,59509,1,0
164,280,59713,1,0
164,280,59815,1,0
228,344,60019,2,0,B|296:280,1,90,8|0
420,328,60428,5,0
396,196,60632,1,0
476,88,60836,2,0,B|444:56|392:68,1,90,8|0
328,132,61142,2,0,B|288:52,1,90
272,24,61448,1,0
204,84,61652,1,8
120,52,61856,1,0
64,176,62060,6,0,B|40:220|68:264,1,90,0|0
144,304,62468,1,8
208,240,62673,1,0
208,240,62775,1,0
256,316,62979,2,0,B|280:352,1,45
364,324,63285,1,8
316,196,63489,1,0
448,224,63693,6,0,B|472:180|448:136,1,90
384,76,64101,1,8
316,136,64305,2,0,B|280:104,1,45
204,68,64611,2,0,B|168:100,1,45
88,60,64917,2,0,B|60:104|92:148,1,90,8|0
48,272,65326,5,0
216,336,65530,1,8
184,160,65734,1,8
48,272,65938,5,0
48,272,66040,1,8
216,336,66244,1,8
216,336,66346,1,0
184,160,66550,1,12
184,160,66754,1,12
344,76,67162,5,0
432,56,67366,1,8
408,144,67571,2,0,B|452:156,1,45,0|8
416,240,67877,2,0,B|448:272,1,45,8|0
376,328,68183,1,8
376,328,68285,1,0
376,328,68387,1,0
256,268,68591,5,4
144,340,68795,1,0
132,208,68999,1,8
144,340,69203,1,0
256,268,69407,2,0,B|304:288|344:280|380:240,1,135
376,152,69815,2,0,B|464:184,1,90,8|0
448,316,70224,5,0
372,268,70428,1,0
308,332,70632,2,0,B|272:364|220:364|176:340,1,135,8|0
160,256,71040,2,0,B|88:312,1,90,0|8
12,200,71448,1,0
12,200,71550,1,0
12,200,71652,1,8
128,132,71856,6,0,B|168:112|168:112|176:68,1,90
256,28,72264,1,8
304,104,72468,1,0
304,104,72571,2,0,B|348:124|392:104,1,90
428,20,72877,2,0,B|488:88,1,90,0|8
452,168,73285,1,0
428,300,73489,5,0
344,196,73693,1,0
312,328,73897,2,0,B|268:356|220:332,1,90,8|0
180,260,74305,1,0
104,316,74509,1,0
76,332,74611,1,8
8,276,74815,1,0
36,260,74917,1,8
84,160,75122,5,4
128,80,75326,1,0
200,136,75530,2,0,B|248:156|292:144|320:96,1,135,8|0
312,12,75938,2,0,B|400:40,1,90
428,48,76244,1,8
488,116,76448,1,0
488,116,76550,1,8
428,184,76754,6,0,B|388:160,2,45
488,252,77162,2,0,B|452:284|400:268,1,90,8|0
332,216,77468,2,0,B|288:296,1,90,8|0
264,316,77775,1,0
232,324,77877,1,0
200,320,77979,2,0,B|152:304,2,45,8|0|8
128,216,78387,5,0
48,312,78591,1,0
4,200,78795,1,8
56,128,78999,2,0,B|40:88,1,45
128,76,79305,1,0
156,88,79407,1,0
188,88,79509,1,0
216,72,79611,2,0,B|304:88,1,90,8|4
392,192,80019,5,0
468,140,80224,2,8,B|492:96|464:52,1,90
316,244,80632,2,0,B|292:288|320:332,1,90
452,316,81040,1,8
392,192,81244,1,8
324,68,81448,1,0
192,96,81652,6,0,B|140:104|104:72,1,90,4|0
36,128,82060,1,8
120,216,82264,1,0
36,304,82468,2,0,B|60:344|112:352|156:332,1,135
204,256,82877,2,0,B|256:336,1,90,8|0
376,272,83285,5,0
456,316,83489,1,0
476,228,83693,2,0,B|504:180|496:140|464:96,1,135,8|0
444,16,84101,2,0,B|376:72,1,90,0|8
288,52,84509,1,0
288,52,84611,1,0
288,52,84713,1,8
220,168,84917,5,0
268,244,85122,1,0
224,324,85326,2,0,B|176:348|136:320,1,90,8|0
120,232,85632,2,0,B|52:288,1,90
28,308,85938,1,0
48,176,86142,2,0,B|72:128|32:88,1,90,8|0
168,40,86550,6,0,B|248:92,1,90
372,44,86958,2,0,B|400:84|376:128,1,90,8|0
312,192,87366,1,0
396,240,87571,1,0
424,256,87673,1,8
472,332,87877,1,0
472,332,87979,1,8
340,344,88183,5,4
276,280,88387,1,0
208,340,88591,2,0,B|164:368|116:356|84:312,1,135,8|0
0,292,88999,2,0,B|64:224,1,90
76,212,89305,1,8
84,124,89509,1,0
84,124,89611,1,8
164,80,89815,6,0,B|176:36,2,45
240,128,90224,2,0,B|284:152|328:124,1,90,8|0
352,108,90530,2,0,B|396:84|440:108,1,90,8|0
464,128,90836,1,0
480,156,90938,1,0
476,188,91040,2,0,B|460:236,2,45,8|0|8
392,284,91448,5,0
268,336,91652,1,0
284,204,91856,1,8
392,284,92060,1,0
392,284,92162,1,0
268,336,92366,1,0
240,352,92468,1,0
208,356,92571,1,0
180,344,92673,2,0,B|92:336,1,90,8|4
36,212,93081,5,0
12,124,93285,2,8,B|84:56,1,90
164,88,93693,1,0
164,88,93795,2,0,B|204:64|252:72,1,90,8|0
280,76,94101,1,0
308,88,94203,1,0
328,112,94305,2,0,B|348:160,2,45,8|0|8
228,176,94713,6,0,B|204:216|176:264,1,90,4|0
96,292,95121,1,8
172,344,95325,1,0
172,344,95427,2,0,B|212:364|260:344,1,90
292,260,95733,2,0,B|348:328,1,90,0|8
436,356,96141,1,0
472,224,96345,5,0
420,148,96549,1,0
440,60,96754,2,0,B|352:72,1,90,8|0
351,72,97060,1,0
268,40,97264,1,0
268,40,97366,2,0,B|248:92|284:128,2,90,0|8|0
72,120,97978,5,0
148,72,98182,1,0
148,72,98386,1,8
152,160,98590,1,0
152,160,98692,2,0,B|176:204|148:248,1,90
64,272,98998,2,0,B|128:336,1,90,0|8
212,308,99407,1,0
332,248,99611,5,0
400,308,99815,1,0
460,244,100019,2,0,B|484:200|460:156,1,90,8|0
480,68,100325,2,0,B|392:88,1,90
360,92,100631,1,8
328,88,100733,1,0
304,68,100835,2,0,B|284:28,2,45,8|0|0
216,92,101243,5,0
144,40,101447,1,0
56,64,101652,1,8
40,152,101856,1,0
40,152,101958,2,0,B|64:196|36:240,1,90
108,292,102264,2,0,B|32:340,2,90,0|8|0
240,264,102876,5,0
292,336,103080,1,0
348,268,103284,2,0,B|432:304,1,90,8|0
431,303,103590,1,0
480,228,103794,1,0
480,228,103896,2,0,B|444:196|452:148,1,90,0|8
492,64,104305,1,0
360,88,104509,5,0
288,144,104713,1,0
248,64,104917,2,0,B|208:40|160:56,1,90,8|0
72,40,105223,2,0,B|104:128,1,90
108,156,105529,1,0
100,188,105631,1,0
80,212,105733,2,0,B|48:244,2,45,8|0|4
304,140,106345,5,2
184,192,106549,1,0
292,268,106754,1,0
356,80,106958,5,2
108,184,107162,1,0
328,336,107366,1,2
256,192,107571,5,0
256,192,107775,12,0,109407
