osu file format v9

[General]
AudioFilename: milky ice bear.mp3
AudioLeadIn: 2000
PreviewTime: 68571
Countdown: 0
SampleSet: Soft
StackLeniency: 0.7
Mode: 0
LetterboxInBreaks: 0

[Editor]
DistanceSpacing: 0.8
BeatDivisor: 4
GridSize: 4

[Metadata]
Title:milky ice bear
Artist:S-C-U
Creator:MMzz
Version:Basic
Source:REFLEC BEAT
Tags:colette Deif Sync limelight

[Difficulty]
HPDrainRate:2
CircleSize:3
OverallDifficulty:3
ApproachRate:3
SliderMultiplier:1.2
SliderTickRate:1

[Events]
//Background and Video events
0,0,"The-best-top-desktop-bears-wallpapers-hd-bear-wallpaper-28-polar-bear-in-the-arctic-full-of-ice.jpg"
//Break Periods
2,26342,31233
//Storyboard Layer 0 (Background)
//Storyboard Layer 1 (Fail)
//Storyboard Layer 2 (Pass)
//Storyboard Layer 3 (Foreground)
//Storyboard Sound Samples
//Background Colour Transformations
3,100,163,162,255

[TimingPoints]
20,408.163265306122,4,2,1,70,1,0
13081,-100,4,1,1,65,0,0
32673,-100,4,2,1,70,0,0
37567,-100,4,1,1,65,0,0
68591,-100,4,1,1,65,0,1
81550,-100,4,1,1,65,0,0
81652,-100,4,1,1,65,0,1
94713,-100,4,1,1,65,0,0
106346,-100,4,2,1,70,0,0
109301,-100,4,2,1,10,0,0

[Colours]
Combo1 : 255,255,70
Combo2 : 43,186,255
Combo3 : 255,255,255
Combo4 : 107,107,214

[HitObjects]
144,128,20,2,0,B|160:64|224:24|288:24|352:64|368:128,1,300
328,208,1448,2,0,B|320:272|352:328|416:352,2,180,2|0|2
184,208,3285,6,0,B|192:272|160:328|96:352,1,180,0|2
64,264,4305,2,0,B|40:144,1,120,0|2
208,56,5530,5,2
256,144,5938,2,0,B|368:96,1,120,2|2
416,112,6550,6,0,B|464:160|464:224|432:288,1,180,0|2
352,240,7571,2,0,B|240:288,1,120,0|2
256,192,8183,12,0,11448
168,104,13081,6,0,B|180:52|231:20|283:20|334:52|347:104,1,240,4|0
300,184,14305,1,8
384,228,14713,2,0,B|424:280|388:344,3,120,0|8|0|8
308,288,16346,6,0,B|256:328|200:340|128:332|80:296,1,240
148,228,17571,1,8
64,184,17979,2,0,B|32:68,1,120,0|8
128,60,18795,2,0,B|184:28,2,60,0|8|8
196,128,19611,6,0,B|252:160|324:148|376:100|380:40,1,240
460,92,20836,1,8
420,180,21244,2,0,B|396:240|428:296,3,120,0|8|0|8
336,324,22877,6,0,B|308:268|252:240|184:240|124:280,1,240
116,180,24101,2,0,B|60:120,1,60,8|12
256,192,24713,12,4,26142
128,64,32673,6,0,B|192:128|192:128|256:64|256:64|320:128|320:128|384:64,1,360,4|8
468,108,34305,2,0,B|436:168|472:224,3,120,0|8|0|8
412,296,35938,2,0,B|371:336|330:342|284:330|254:296|254:296|231:330|176:344|120:336|96:296,1,360,0|8
172,236,37571,6,0,B|220:192|288:192|340:236,2,180,4|4|2
80,204,39203,5,4
32,120,39611,2,0,B|40:60|104:20|188:32|220:96,1,240,8|8
304,48,40836,2,0,B|428:64,1,120,0|8
404,156,41652,2,0,B|368:216|412:272,1,120,0|8
348,344,42468,6,0,B|308:296|240:280|184:296|132:344,1,240
52,296,43693,1,8
20,204,44101,2,0,B|56:88,1,120,0|8
148,116,44917,2,0,B|180:72|148:24,2,90,0|8|8
132,160,45734,6,0,B|144:220|220:244|284:232|316:160,1,240
280,72,46958,1,8
376,80,47366,2,0,B|488:32,1,120,0|8
488,128,48183,2,0,B|456:184|488:248,1,120,0|8
388,244,48999,5,0
436,328,49407,2,0,B|384:364|320:368|264:352|224:292,1,240,8|8
220,196,50632,2,0,B|104:248,1,120,0|8
88,340,51448,1,0
16,276,51856,1,8
36,180,52264,6,0,B|52:116|24:64,1,120,4|8
212,32,53489,1,8
280,100,53897,1,0
196,152,54305,2,0,B|228:204|308:212|360:188|384:116,1,240,8|8
468,160,55530,6,0,B|476:284,1,120,0|8
284,292,56754,1,8
200,340,57162,1,0
108,316,57571,2,0,B|48:288|16:228|20:168|52:104,1,240,8|8
136,152,58795,6,0,B|208:56,1,120,4|8
284,112,59611,1,0
364,56,60019,1,8
444,108,60428,2,0,B|488:160|452:232,3,120,0|8|0|8
496,304,62060,6,0,B|380:336,1,120,0|8
328,256,62877,2,0,B|228:320,1,120,0|8
148,264,63693,1,0
76,328,64101,2,0,B|36:276|44:212|96:160|172:168,1,240,8|8
256,192,65326,12,4,66754
256,40,68591,5,4
168,80,68999,2,0,B|180:130|231:162|281:162|332:130|344:80,1,240,8|8
432,40,70224,2,0,B|488:148,1,120,0|8
472,240,71040,2,0,B|420:232|404:184,2,90,0|8|8
492,284,71856,6,0,B|468:348|400:348,1,120,0|8
328,284,72673,1,0
256,348,73081,1,8
184,284,73489,2,0,B|76:332,1,120,0|8
72,236,74305,2,0,B|40:176|72:120,1,120,0|8
152,68,75122,6,0,B|163:134|219:174|291:174|339:134,1,240,4|0
400,58,76346,1,8
452,144,76754,2,0,B|476:260,1,120,0|8
380,244,77571,2,0,B|404:364,1,120,0|8
312,336,78387,6,0,B|272:288|208:272|144:280|96:320,1,240
40,240,79611,2,0,B|80:180,1,60,8|12
256,40,81652,5,4
344,80,82060,2,0,B|331:130|280:162|230:162|179:130|167:80,1,240,8|8
80,40,83285,2,0,B|24:148,1,120,0|8
40,240,84101,2,0,B|92:232|108:184,2,90,0|8|8
20,284,84917,6,0,B|44:348|112:348,1,120,0|8
184,284,85734,1,0
256,348,86142,1,8
328,284,86550,2,0,B|436:332,1,120,0|8
440,236,87366,2,0,B|472:176|440:120,1,120,0|8
360,68,88183,6,0,B|348:134|292:174|220:174|172:134,1,240,4|0
112,58,89407,1,8
60,144,89815,2,0,B|36:260,1,120,0|8
132,244,90632,2,0,B|108:364,1,120,0|8
200,336,91448,6,0,B|240:288|304:272|368:280|416:320,1,240
472,240,92672,2,0,B|432:180,1,60,0|4
344,104,94713,6,0,B|332:52|281:20|229:20|178:52|165:104,1,240,4|0
212,184,95937,1,8
128,228,96345,2,0,B|88:280|124:344,3,120,0|8|0|8
204,288,97978,6,0,B|256:328|312:340|384:332|432:296,1,240
364,228,99203,1,8
448,184,99611,2,0,B|480:68,1,120,0|8
384,60,100427,2,0,B|328:28,2,60,0|8|8
316,128,101243,6,0,B|260:160|188:148|136:100|132:40,1,240
52,92,102468,1,8
92,180,102876,2,0,B|116:240|84:296,3,120,0|8|0|8
176,324,104509,6,0,B|204:268|260:240|328:240|388:280,1,240
396,180,105733,2,0,B|452:120,1,60,8|12
368,68,106346,6,0,B|316:40,2,60
340,108,106958,2,0,B|272:120,2,60
256,192,107571,12,0,109407
