osu file format v13

[General]
AudioFilename: 13 - heron.mp3
AudioLeadIn: 1452
PreviewTime: 75383
Countdown: 0
SampleSet: Soft
StackLeniency: 0.3
Mode: 0
LetterboxInBreaks: 0
EpilepsyWarning: 1
WidescreenStoryboard: 0

[Editor]
Bookmarks: 12416,22965,32526,33515,40108,44064,49339,53295,59888,65163,70438,79668,83624
DistanceSpacing: 1.8
BeatDivisor: 4
GridSize: 8
TimelineZoom: 3.699998

[Metadata]
Title:heron
TitleUnicode:heron
Artist:S-C-U
ArtistUnicode:S-C-U
Creator:Mao
Version:Expert
Source:DanceDanceRevolution
Tags:jubeat saucer plus fanzhen0019 Macuilxochitl Sala- Desperate-kun Shigeharu Saeki Kenterz 2013 佐伯茂治 DDR FutureTomTom Ver.2
BeatmapID:523224
BeatmapSetID:165202

[Difficulty]
HPDrainRate:7
CircleSize:4
OverallDifficulty:8
ApproachRate:9
SliderMultiplier:1.8
SliderTickRate:2

[Events]
//Background and Video events
0,0,"BG.jpg",0,0
//Break Periods
//Storyboard Layer 0 (Background)
//Storyboard Layer 1 (Fail)
//Storyboard Layer 2 (Pass)
//Storyboard Layer 3 (Foreground)
//Storyboard Sound Samples
//Background Colour Transformations
3,100,163,162,255

[TimingPoints]
548,329.67032967033,4,2,2,60,1,0
1866,-100,4,2,2,60,0,0
3020,-100,4,2,1,60,0,0
4998,-100,4,2,2,60,0,0
5657,-100,4,2,1,60,0,0
9778,-100,4,2,3,60,0,0
11097,-100,4,2,1,60,0,0
12251,-100,4,2,3,60,0,0
12416,-100,4,2,1,60,0,0
38624,-100,4,2,3,60,0,0
38707,-100,4,2,1,60,0,0
49009,-100,4,2,3,60,0,0
49091,-100,4,2,1,60,0,0
57086,-100,4,2,3,60,0,0
57251,-100,4,2,1,60,0,0
59394,-100,4,2,3,60,0,0
59888,-100,4,2,1,60,0,0
62361,-100,4,2,3,60,0,0
62526,-100,4,2,1,60,0,0
64504,-100,4,2,3,60,0,0
65163,-100,4,2,1,60,0,0
67635,-100,4,2,3,60,0,0
67800,-100,4,2,1,60,0,0
69943,-100,4,2,3,60,0,0
70438,-100,4,2,1,60,0,0
72910,-100,4,2,3,60,0,0
75712,-100,4,2,1,70,0,1
84778,-100,4,2,1,70,0,0

[Colours]
Combo1 : 207,190,190
Combo2 : 99,184,224
Combo3 : 252,187,139
Combo4 : 98,215,151

[HitObjects]
114,294,548,6,0,L|109:193,1,90,2|0,3:0|3:0,0:0:0:0:
148,122,795,1,0,0:0:0:0:
153,109,877,2,0,L|141:59,1,45,0|2,3:0|3:0,0:0:0:0:
277,67,1042,6,0,L|269:32,4,22.5,0|0|0|0|0,3:0|0:0|0:0|0:0|3:0,0:0:0:0:
290,86,1289,2,0,L|292:176,1,90,2|2,3:0|3:0,0:0:0:0:
353,237,1537,2,0,P|379:215|389:202,1,45,0|0,3:0|0:0,0:0:0:0:
268,264,1701,1,2,3:0:0:0:
268,264,1784,1,2,3:0:0:0:
268,264,1866,6,0,P|292:305|338:323,1,90,4|0,1:1|0:0,0:0:0:0:
353,237,2196,1,0,1:0:0:0:
172,336,2361,2,0,L|77:321,1,90,4|0,1:0|0:0,0:0:0:0:
154,224,2690,2,0,L|59:209,1,90,4|0,1:0|0:0,0:0:0:0:
35,60,3020,6,0,P|75:89|208:70,1,180,4|0,1:0|0:0,0:0:0:0:
369,48,3515,2,0,P|313:64|277:59,1,90,8|0,1:2|0:0,0:0:0:0:
459,106,3844,2,0,P|418:147|384:161,1,90,0|0,1:0|0:0,0:0:0:0:
269,244,4174,2,0,L|362:254,1,90,8|8,1:2|0:0,0:0:0:0:
214,333,4504,6,0,L|29:339,1,180,4|8,1:0|1:2,0:0:0:0:
88,221,4998,2,0,L|181:231,1,90,4|0,1:0|0:0,0:0:0:0:
140,134,5328,2,0,L|233:144,1,90,4|4,1:0|3:0,0:0:0:0:
422,76,5657,6,0,P|358:93|248:58,1,180,4|0,1:0|0:0,0:0:0:0:
419,168,6152,2,0,L|510:175,1,90,8|0,1:2|0:0,0:0:0:0:
389,249,6482,2,0,L|464:300,1,90,0|0,1:0|0:0,0:0:0:0:
322,292,6811,2,0,L|361:374,1,90,8|8,1:2|0:0,0:0:0:0:
314,213,7141,6,0,B|225:186|232:258|141:229,1,180,4|8,1:0|1:2,0:0:0:0:
176,155,7635,2,0,L|170:64,1,90,0|0,1:0|0:0,0:0:0:0:
54,163,7965,2,0,L|60:253,1,90,0|8,1:0|1:2,0:0:0:0:
180,348,8295,1,2,0:0:0:0:
322,292,8460,6,0,L|329:201,1,90,2|0,1:2|0:0,0:0:0:0:
340,114,8789,1,8,1:2:0:0:
442,270,8954,2,0,L|426:81,1,180,2|0,1:2|0:0,0:0:0:0:
403,348,9449,2,0,P|449:358|491:345,1,90,8|0,1:2|0:0,0:0:0:0:
322,292,9778,5,2,0:0:0:0:
180,347,9943,1,2,0:0:0:0:
310,268,10108,1,2,0:0:0:0:
203,359,10273,1,2,0:0:0:0:
297,242,10438,5,2,0:0:0:0:
299,210,10520,1,0,0:0:0:0:
301,179,10602,1,2,0:0:0:0:
303,147,10685,1,0,0:0:0:0:
325,125,10767,5,0,3:0:0:0:
302,103,10849,1,0,3:0:0:0:
287,75,10931,1,2,3:0:0:0:
280,44,11014,1,8,3:0:0:0:
283,13,11096,1,4,3:0:0:0:
133,149,11427,5,2,0:0:0:0:
133,149,11591,2,0,L|41:137,1,90,2|0,0:0|0:0,0:0:0:0:
158,242,11921,2,0,L|66:230,1,90,2|0,0:0|0:0,0:0:0:0:
183,332,12251,1,0,0:0:0:0:
183,332,12333,1,0,0:0:0:0:
183,332,12416,6,0,L|276:323,1,90,4|0,1:0|0:0,0:0:0:0:
475,282,12745,1,2,0:0:0:0:
475,282,12910,2,0,P|425:282|382:273,1,90,2|0,0:0|0:0,0:0:0:0:
401,85,13240,2,0,P|451:85|494:94,1,90,2|0,0:0|0:0,0:0:0:0:
361,173,13569,6,0,L|175:152,1,180,2|0,0:0|0:0,0:0:0:0:
110,193,14064,2,0,P|100:140|112:101,1,90,2|0,0:0|0:0,0:0:0:0:
92,274,14394,2,0,P|47:243|28:207,1,90,2|0,0:2|0:0,0:0:0:0:
136,344,14723,2,0,P|83:354|44:342,1,90,2|0,0:0|0:0,0:0:0:0:
213,369,15053,5,2,0:0:0:0:
323,298,15218,1,2,0:0:0:0:
453,372,15383,1,2,0:0:0:0:
316,309,15548,2,0,L|318:214,1,90,2|0,0:0|0:0,0:0:0:0:
440,115,15877,2,0,L|441:204,1,90,2|0,0:0|0:0,0:0:0:0:
357,51,16207,1,2,0:0:0:0:
357,51,16537,5,2,0:0:0:0:
279,75,16701,2,0,P|231:78|186:67,1,90,2|0,0:0|0:0,0:0:0:0:
35,134,17031,2,0,P|78:124|123:127,1,90,2|0,0:0|0:0,0:0:0:0:
123,256,17361,2,0,P|78:259|34:250,1,90,2|0,0:0|0:0,0:0:0:0:
176,192,17690,6,0,B|199:292|147:274|168:368,1,180,2|0,0:2|0:0,0:0:0:0:
248,326,18185,2,0,L|428:337,2,180,2|0|2,0:0|0:0|0:0,0:0:0:0:
345,252,19009,5,0,0:0:0:0:
345,252,19174,2,0,L|437:258,1,90
512,111,19504,2,0,P|461:134|366:65,1,180,2|2,0:0|0:0,0:0:0:0:
451,48,19998,1,2,0:0:0:0:
324,164,20163,1,0,0:0:0:0:
217,52,20328,6,0,L|29:37,1,180,2|2,0:0|0:0,0:0:0:0:
37,37,20822,1,2,0:0:0:0:
32,313,21152,1,2,0:0:0:0:
86,216,21316,5,2,0:0:0:0:
83,200,21481,1,2,0:0:0:0:
143,331,21646,5,2,0:0:0:0:
139,348,21811,1,2,0:0:0:0:
172,178,21976,5,2,0:0:0:0:
167,158,22141,1,2,0:0:0:0:
237,306,22306,5,2,0:0:0:0:
230,331,22471,1,2,0:0:0:0:
264,147,22635,5,2,0:0:0:0:
254,112,22800,1,2,0:0:0:0:
333,292,22965,6,0,L|314:380,1,90,4|0,1:0|0:0,0:0:0:0:
437,349,23295,1,8,0:0:0:0:
437,349,23460,2,0,L|426:162,1,180,2|0,0:0|0:0,0:0:0:0:
473,98,23954,1,8,0:0:0:0:
337,197,24119,6,0,L|347:96,1,90,2|0,0:0|3:0,0:0:0:0:
404,36,24449,1,2,0:0:0:0:
253,113,24613,2,0,L|272:24,1,90,8|0,0:0|0:0,0:0:0:0:
256,200,24943,1,0,3:0:0:0:
170,74,25108,1,0,0:0:0:0:
170,74,25190,1,0,0:0:0:0:
170,74,25273,1,8,0:0:0:0:
113,177,25438,1,0,0:0:0:0:
16,116,25602,6,0,L|25:23,1,90,2|0,3:2|0:0,0:0:0:0:
113,177,25932,1,8,0:0:0:0:
16,292,26097,1,2,0:0:0:0:
16,292,26427,2,0,P|57:300|105:296,1,90,2|8,0:0|0:0,0:0:0:0:
163,352,26756,6,0,P|251:334|346:334,1,180,2|2,0:0|0:0,0:0:0:0:
444,247,27251,2,0,L|450:149,1,90,8|0,0:0|0:0,0:0:0:0:
349,187,27580,2,0,L|355:89,1,90,2|0,3:2|0:0,0:0:0:0:
254,127,27910,2,0,L|260:29,1,90,8|0,0:0|0:0,0:0:0:0:
162,68,28240,6,0,B|157:167|157:167|166:210|205:227,1,180,2|8,0:0|0:0,0:0:0:0:
339,290,28734,2,0,P|255:264|181:314,1,180,2|2,0:0|0:0,0:0:0:0:
269,365,29229,1,8,0:0:0:0:
445,332,29394,6,0,B|463:233|411:255|439:149,1,180,2|0,0:0|0:0,0:0:0:0:
503,88,29888,1,8,0:0:0:0:
345,187,30053,2,0,P|258:170|197:105,1,180,2|2,0:0|0:0,0:0:0:0:
250,32,30548,1,8,0:0:0:0:
146,176,30712,1,0,0:0:0:0:
146,176,30795,1,0,0:0:0:0:
146,176,30877,6,0,L|148:28,1,135,2|0,0:0|0:0,0:0:0:0:
121,53,31206,1,8,0:0:0:0:
83,225,31372,2,0,P|163:254|223:194,1,180,2|2,0:0|0:0,0:0:0:0:
15,272,31866,2,0,L|25:366,1,90,8|0,0:0|0:0,0:0:0:0:
9,194,32196,5,2,0:0:0:0:
295,347,32526,6,0,L|288:295,1,45
438,265,32690,2,0,L|431:213,1,45
366,303,32855,2,0,L|359:251,1,45
512,223,33020,2,0,L|505:171,1,45
430,94,33185,5,0,0:0:0:0:
399,102,33267,1,0,0:0:0:0:
368,105,33349,1,0,0:0:0:0:
337,102,33432,1,0,0:0:0:0:
306,93,33515,6,0,L|301:186,1,90,4|0,1:2|0:0,0:0:0:0:
209,113,33762,1,0,1:0:0:0:
209,113,33844,2,0,L|211:59,1,45,8|0,0:0|0:0,0:0:0:0:
206,213,34009,2,0,P|168:204|128:173,1,90,2|0,1:2|1:0,0:0:0:0:
209,113,34339,1,0,0:0:0:0:
86,250,34504,1,8,0:0:0:0:
207,377,34668,1,0,0:0:0:0:
207,377,34751,1,0,0:0:0:0:
207,377,34833,6,0,P|254:362|297:366,1,90,2|0,1:2|0:0,0:0:0:0:
400,358,35080,2,0,P|363:324|345:285,1,90,2|0,1:2|0:0,0:0:0:0:
293,201,35328,2,0,P|282:249|257:284,1,90,2|0,1:2|1:0,0:0:0:0:
206,213,35657,1,0,0:0:0:0:
381,191,35822,1,8,0:0:0:0:
278,42,35987,1,0,0:0:0:0:
278,42,36069,1,0,0:0:0:0:
278,42,36152,6,0,P|234:31|178:25,1,90,2|0,1:2|0:0,0:0:0:0:
107,133,36399,2,0,P|151:122|207:116,1,90,2|0,1:2|0:0,0:0:0:0:
206,212,36646,1,2,1:2:0:0:
30,178,36811,6,0,L|28:88,1,90,2|0,1:2|0:0,0:0:0:0:
107,234,37058,2,0,L|105:324,1,90,2|0,1:2|0:0,0:0:0:0:
28,367,37306,1,2,1:2:0:0:
204,292,37471,6,0,B|301:279|284:326|383:312,1,180,2|8,1:2|0:0,0:0:0:0:
473,218,37965,1,0,0:0:0:0:
473,218,38048,1,0,0:0:0:0:
473,218,38130,2,0,L|460:67,1,135,0|0,1:0|0:0,0:0:0:0:
441,102,38460,1,8,0:0:0:0:
307,157,38624,1,2,0:0:0:0:
307,157,38707,1,2,0:0:0:0:
307,157,38789,6,0,P|253:163|159:84,1,180,2|8,1:2|0:0,0:0:0:0:
88,142,39201,1,2,0:0:0:0:
89,155,39284,1,2,0:0:0:0:
90,168,39366,1,2,0:0:0:0:
91,181,39449,2,0,L|100:330,1,135,0|0,1:0|0:0,0:0:0:0:
116,342,39778,1,8,0:0:0:0:
288,338,39943,1,0,0:0:0:0:
288,338,40026,1,0,0:0:0:0:
288,338,40108,6,0,P|323:313|341:267,1,90,2|0,1:2|0:0,0:0:0:0:
307,157,40438,1,8,0:0:0:0:
426,273,40602,1,0,0:0:0:0:
426,273,40685,1,0,0:0:0:0:
426,273,40767,2,0,L|420:172,1,90,2|0,1:2|0:0,0:0:0:0:
290,144,41097,1,8,0:0:0:0:
441,170,41262,1,0,0:0:0:0:
274,131,41427,6,0,L|266:40,1,90,4|0,1:2|0:0,0:0:0:0:
272,228,41756,1,8,0:0:0:0:
369,96,41921,1,2,0:0:0:0:
196,160,42086,2,0,L|188:69,1,90,4|0,1:2|0:0,0:0:0:0:
188,251,42416,1,8,0:0:0:0:
354,200,42580,1,2,0:0:0:0:
304,373,42745,5,4,1:2:0:0:
112,338,43075,1,8,0:0:0:0:
98,340,43157,1,0,0:0:0:0:
85,343,43240,1,2,0:0:0:0:
72,346,43322,1,0,0:0:0:0:
47,378,43405,5,4,1:2:0:0:
53,342,43487,1,0,0:0:0:0:
54,306,43569,1,2,0:0:0:0:
48,271,43652,1,0,0:0:0:0:
35,237,43734,2,0,L|21:189,1,45,8|0,0:0|0:0,0:0:0:0:
108,181,43899,2,0,L|106:126,1,45,2|0,0:0|0:0,0:0:0:0:
196,160,44064,6,0,L|212:70,1,90,4|0,1:2|0:0,0:0:0:0:
306,48,44311,2,0,L|375:106,1,90,0|0,1:0|0:0,0:0:0:0:
354,200,44558,2,0,L|268:231,1,90,0|0,1:0|1:0,0:0:0:0:
282,136,44888,1,0,0:0:0:0:
305,316,45053,1,8,0:0:0:0:
184,244,45218,1,0,0:0:0:0:
184,244,45300,1,0,0:0:0:0:
184,244,45383,6,0,L|188:342,1,90,2|0,1:2|0:0,0:0:0:0:
106,272,45630,2,0,L|110:370,1,90,0|0,1:0|0:0,0:0:0:0:
24,292,45877,2,0,L|28:390,1,90,0|0,1:0|1:0,0:0:0:0:
48,206,46207,1,0,0:0:0:0:
48,206,46289,1,0,0:0:0:0:
48,206,46372,1,8,0:0:0:0:
0,82,46537,1,0,0:0:0:0:
147,102,46701,6,0,P|192:99|237:80,1,90,2|0,1:2|0:0,0:0:0:0:
291,142,46949,2,0,P|269:182|263:231,1,90,0|0,1:0|0:0,0:0:0:0:
184,244,47196,2,0,P|159:205|120:175,1,90,0|0,1:0|0:0,3:0:0:0:
242,303,47526,1,0,0:0:0:0:
349,206,47690,1,8,0:0:0:0:
415,353,47855,1,0,0:0:0:0:
491,189,48020,6,0,L|493:97,1,90,2|0,1:2|0:0,0:0:0:0:
483,88,48267,1,0,0:0:0:0:
474,77,48350,1,8,0:0:0:0:
425,250,48515,1,0,0:0:0:0:
334,71,48679,2,0,L|349:206,1,135,2|0,1:2|3:0,0:0:0:0:
270,191,49009,2,0,L|260:101,1,90,2|0,0:0|0:0,0:0:0:0:
192,39,49256,1,2,0:0:0:0:
192,39,49339,6,0,P|148:49|96:42,1,90,2|0,1:2|0:0,0:0:0:0:
4,151,49668,2,0,P|49:153|99:137,1,90,8|0,0:0|0:0,0:0:0:0:
177,276,49998,2,0,P|132:270|85:245,1,90,2|0,1:2|0:0,0:0:0:0:
154,195,50245,1,0,0:0:0:0:
154,195,50328,1,8,0:0:0:0:
205,361,50493,1,0,0:0:0:0:
205,361,50575,1,0,0:0:0:0:
205,361,50657,6,0,L|294:355,1,90,2|0,1:2|0:0,0:0:0:0:
493,296,50987,2,0,L|404:290,1,90,8|0,0:0|0:0,0:0:0:0:
296,176,51317,2,0,L|385:170,1,90,2|0,1:2|0:0,0:0:0:0:
257,253,51646,1,8,0:0:0:0:
250,108,51811,1,0,0:0:0:0:
250,108,51894,1,0,0:0:0:0:
250,108,51976,6,0,L|258:14,1,90,4|0,1:2|0:0,0:0:0:0:
173,115,52223,2,0,L|181:21,1,90,4|0,1:2|0:0,0:0:0:0:
94,123,52471,6,0,L|102:217,1,90,4|0,1:2|0:0,0:0:0:0:
15,134,52718,2,0,L|23:228,1,90,4|0,1:2|0:0,0:0:0:0:
175,296,52965,6,0,L|182:206,1,90,4|0,1:2|0:0,0:0:0:0:
234,357,53212,1,4,1:2:0:0:
416,308,53624,5,2,0:0:0:0:
418,294,53706,1,0,0:0:0:0:
420,281,53788,1,0,0:0:0:0:
422,267,53871,1,0,0:0:0:0:
424,249,53954,5,2,0:0:0:0:
417,221,54036,1,0,0:0:0:0:
408,192,54118,1,0,0:0:0:0:
399,165,54201,1,0,0:0:0:0:
389,138,54284,2,0,L|396:86,1,45,2|0,0:0|0:0,0:0:0:0:
300,145,54449,2,0,L|307:93,1,45,0|0,0:0|3:0,0:0:0:0:
213,158,54613,6,0,L|224:64,1,90,4|0,1:2|0:0,0:0:0:0:
273,229,54943,1,8,0:0:0:0:
135,111,55108,2,0,B|110:209|161:193|138:288,1,180,2|0,0:0|0:0,0:0:0:0:
62,242,55602,1,8,0:0:0:0:
209,336,55767,6,0,L|392:328,1,180,2|0,0:0|0:0,0:0:0:0:
478,143,56262,2,0,L|388:139,1,90,8|0,0:0|0:0,0:0:0:0:
432,237,56591,1,2,1:2:0:0:
416,60,56756,2,0,L|326:56,1,90,2|8,0:0|0:0,0:0:0:0:
136,105,57086,1,2,0:0:0:0:
136,105,57168,1,0,0:0:0:0:
136,105,57251,6,0,P|220:90|292:147,1,180,4|8,1:2|0:0,0:0:0:0:
193,201,57745,2,0,L|51:171,1,135,4|0,1:2|0:0,0:0:0:0:
29,190,58075,2,0,P|25:236|40:280,1,90,4|8,1:2|0:0,0:0:0:0:
158,345,58405,6,0,B|253:323|237:382|334:359,1,180,4|0,1:2|0:0,0:0:0:0:
357,225,58899,2,0,L|347:128,1,90,8|0,0:0|0:0,0:0:0:0:
293,281,59229,1,2,1:2:0:0:
442,246,59394,1,2,0:0:0:0:
443,219,59476,1,0,0:0:0:0:
445,192,59558,2,0,L|440:147,1,45,8|0,0:0|0:0,0:0:0:0:
348,136,59723,2,0,L|343:91,1,45,2|0,0:0|0:0,0:0:0:0:
244,112,59888,6,0,L|234:15,1,90,4|0,1:2|0:0,0:0:0:0:
285,182,60218,1,8,0:0:0:0:
134,225,60383,2,0,P|41:213|-3:131,1,180,2|0,0:0|0:0,0:0:0:0:
96,130,60877,1,8,0:0:0:0:
174,314,61042,6,0,L|358:323,1,180,2|0,0:0|0:0,0:0:0:0:
89,345,61537,2,0,L|0:349,1,90,8|0,0:0|0:0,0:0:0:0:
135,225,61866,2,0,L|224:229,1,90,0|0,1:0|0:0,0:0:0:0:
174,314,62196,1,8,0:0:0:0:
42,209,62361,1,2,0:0:0:0:
42,209,62443,1,0,3:0:0:0:
42,209,62526,6,0,P|38:165|38:117,1,90,2|0,1:2|0:0,0:0:0:0:
182,37,62855,2,0,P|181:81|177:126,1,90,8|0,0:0|0:0,0:0:0:0:
262,284,63185,2,0,P|258:240|258:192,1,90,0|0,1:0|0:0,0:0:0:0:
340,115,63515,1,8,0:0:0:0:
348,306,63679,6,0,B|255:278|269:349|174:314,1,180,2|0,0:0|0:0,0:0:0:0:
309,379,64174,2,0,P|360:385|402:370,1,90,8|0,0:0|0:0,0:0:0:0:
405,169,64504,1,2,1:2:0:0:
428,297,64668,1,0,1:0:0:0:
483,130,64833,1,8,0:0:0:0:
470,111,64915,1,0,0:0:0:0:
454,95,64997,1,0,1:0:0:0:
434,84,65080,1,0,3:0:0:0:
412,80,65163,6,0,L|405:169,1,90,4|0,1:2|0:0,0:0:0:0:
476,223,65493,1,8,0:0:0:0:
311,230,65657,2,0,L|324:43,1,180,2|0,0:0|0:0,0:0:0:0:
411,79,66152,1,8,0:0:0:0:
226,204,66317,6,0,L|239:17,1,180,2|0,0:0|0:0,0:0:0:0:
145,184,66811,2,0,L|151:89,1,90,8|0,0:0|0:0,0:0:0:0:
83,41,67141,1,0,1:0:0:0:
45,219,67306,2,0,L|51:314,1,90,2|8,0:0|0:0,0:0:0:0:
249,296,67635,1,2,0:0:0:0:
249,296,67718,1,0,3:0:0:0:
249,296,67800,6,0,B|346:279|326:336|431:313,1,180,4|8,1:2|0:0,0:0:0:0:
381,223,68295,2,0,L|384:72,1,135,4|0,1:2|0:0,0:0:0:0:
410,106,68624,2,0,L|403:12,1,90,4|8,1:2|0:0,0:0:0:0:
241,26,68954,6,0,L|251:213,1,180,4|0,1:2|0:0,0:0:0:0:
195,285,69449,2,0,P|168:250|157:207,1,90,8|0,0:0|0:0,0:0:0:0:
250,205,69778,1,0,1:0:0:0:
137,364,69943,1,2,0:0:0:0:
110,358,70025,1,0,0:0:0:0:
84,354,70108,2,0,L|79:300,1,45,8|0,0:0|0:0,0:0:0:0:
17,245,70273,2,0,L|12:191,1,45,2|0,0:0|0:0,0:0:0:0:
79,137,70438,6,0,L|69:40,1,90,4|0,1:2|0:0,0:0:0:0:
149,12,70767,1,8,0:0:0:0:
263,117,70932,2,0,P|349:124|400:50,1,180,2|0,0:0|0:0,0:0:0:0:
315,51,71427,1,8,0:0:0:0:
249,203,71591,6,0,L|238:17,1,180,2|0,0:0|0:0,0:0:0:0:
320,255,72086,2,0,L|314:344,1,90,8|0,0:0|0:0,0:0:0:0:
169,239,72416,2,0,L|163:149,1,90,0|0,1:0|0:0,0:0:0:0:
236,306,72745,1,8,0:0:0:0:
398,317,72910,1,2,0:0:0:0:
398,317,72993,1,0,3:0:0:0:
398,317,73075,6,0,P|439:314|485:291,1,90,0|0,1:0|0:0,0:0:0:0:
341,169,73405,2,0,P|323:206|320:257,1,90,8|0,1:2|0:0,0:0:0:0:
499,189,73734,2,0,P|475:154|432:126,1,90,0|0,1:0|0:0,0:0:0:0:
412,224,74064,1,8,0:0:0:0:
453,35,74229,6,0,P|364:50|276:36,1,180,0|0,1:0|1:0,0:0:0:0:
174,120,74723,2,0,L|269:115,1,90,8|0,1:2|0:0,0:0:0:0:
156,240,75053,1,2,0:0:0:0:
124,235,75135,1,0,0:0:0:0:
93,230,75217,1,2,0:0:0:0:
62,225,75300,1,0,0:0:0:0:
31,220,75383,2,0,L|33:269,1,45,8|0,0:0|0:0,0:0:0:0:
95,132,75548,2,0,L|93:83,1,45,2|0,0:0|0:0,0:0:0:0:
156,240,75712,6,0,L|160:333,1,90,4|0,1:2|0:0,0:0:0:0:
229,375,75960,1,0,1:0:0:0:
393,310,76124,1,0,0:0:0:0:
388,283,76206,1,0,1:0:0:0:
384,256,76288,1,0,0:0:0:0:
380,229,76371,1,0,1:0:0:0:
454,66,76537,1,0,0:0:0:0:
374,199,76701,2,0,L|380:105,1,90,8|0,1:2|0:0,0:0:0:0:
231,207,77031,6,0,L|236:296,1,90,4|0,1:2|0:0,0:0:0:0:
161,329,77278,2,0,L|155:239,1,90,0|0,1:2|0:0,0:0:0:0:
76,293,77526,2,0,L|80:338,1,45,0|0,1:2|0:0,0:0:0:0:
10,246,77690,1,0,1:0:0:0:
77,98,77855,1,0,0:0:0:0:
155,239,78020,2,0,L|160:149,1,90,8|0,1:2|0:0,0:0:0:0:
358,146,78350,6,0,L|353:235,1,90,4|0,1:2|0:0,0:0:0:0:
397,304,78597,1,0,1:0:0:0:
436,107,78762,1,0,0:0:0:0:
421,84,78844,1,0,1:0:0:0:
400,67,78926,1,0,0:0:0:0:
375,58,79009,2,0,P|330:62|286:54,1,90,0|0,1:0|0:0,0:0:0:0:
77,99,79339,2,0,P|121:90|165:94,1,90,8|0,1:2|0:0,0:0:0:0:
165,268,79668,6,0,P|120:276|76:272,1,90,4|0,1:2|0:0,0:0:0:0:
225,335,79998,2,0,P|269:343|313:339,1,90,4|0,1:2|0:0,0:0:0:0:
323,177,80328,2,0,P|278:168|234:172,1,90,4|0,1:2|0:0,0:0:0:0:
383,244,80657,2,0,P|427:235|471:239,1,90,4|0,1:2|0:0,0:0:0:0:
432,328,80987,5,4,1:0:0:0:
298,257,81152,1,0,0:0:0:0:
281,250,81234,1,0,1:0:0:0:
160,353,81399,1,0,0:0:0:0:
142,358,81482,2,0,L|96:352,1,45,0|0,1:0|0:0,0:0:0:0:
129,273,81647,2,0,L|83:267,1,45,0|0,1:0|0:0,0:0:0:0:
263,243,81811,1,0,1:0:0:0:
111,188,81976,2,0,L|16:176,1,90,8|0,1:2|0:0,0:0:0:0:
217,90,82306,6,0,L|312:78,1,90,4|0,1:2|0:0,0:0:0:0:
406,118,82553,2,0,L|311:106,1,90,0|0,1:2|0:0,0:0:0:0:
439,137,82800,2,0,L|491:132,1,45,0|0,1:2|0:0,0:0:0:0:
472,213,82965,1,0,1:0:0:0:
380,326,83130,1,0,0:0:0:0:
264,243,83295,1,8,1:2:0:0:
264,243,83377,1,2,0:0:0:0:
264,243,83460,1,2,0:0:0:0:
264,243,83542,2,0,L|269:333,1,90
195,367,83789,5,4,1:2:0:0:
155,376,83871,1,0,0:0:0:0:
116,368,83953,1,0,1:2:0:0:
83,345,84036,1,4,1:2:0:0:
62,311,84118,1,0,0:0:0:0:
57,271,84201,1,0,0:0:0:0:
69,223,84284,5,4,1:2:0:0:
116,238,84366,1,0,0:0:0:0:
162,223,84448,1,0,0:0:0:0:
192,185,84531,1,4,1:2:0:0:
196,136,84613,1,0,1:2:0:0:
171,94,84696,1,0,0:0:0:0:
126,73,84778,1,4,1:2:0:0:
