osu file format v14

[General]
AudioFilename: supergeroge-ro.mp3
AudioLeadIn: 0
PreviewTime: 59259
Countdown: 0
SampleSet: Soft
StackLeniency: 0.7
Mode: 3
LetterboxInBreaks: 0
SpecialStyle: 0
WidescreenStoryboard: 1

[Editor]
Bookmarks: 5642,15855,26067,35004,54153,59259,79684,89897
DistanceSpacing: 2
BeatDivisor: 4
GridSize: 8
TimelineZoom: 1.8

[Metadata]
Title:Super GERO GE-RO
TitleUnicode:Super GERO GE-RO
Artist:S-C-U
ArtistUnicode:S-C-U
Creator:Reat
Version:Hard
Source:REFLEC BEAT groovin'!!
Tags:bemani konami ost
BeatmapID:518453
BeatmapSetID:221593

[Difficulty]
HPDrainRate:7.5
CircleSize:7
OverallDifficulty:8
ApproachRate:5
SliderMultiplier:1.4
SliderTickRate:1

[Events]
//Background and Video events
0,0,"bg.jpg",0,0
//Break Periods
//Storyboard Layer 0 (Background)
//Storyboard Layer 1 (Fail)
//Storyboard Layer 2 (Pass)
//Storyboard Layer 3 (Foreground)
//Storyboard Sound Samples

[TimingPoints]
536,319.148936170213,4,2,0,70,1,0
59259,-100,4,2,0,70,0,1
79684,-100,4,2,0,70,0,0
90216,-100,4,2,0,70,0,1
100110,-100,4,2,0,70,0,0

[HitObjects]
256,192,536,5,0,0:0:0:0:
256,192,695,1,0,0:0:0:0:
475,192,1014,1,0,0:0:0:0:
36,192,1014,1,0,0:0:0:0:
475,192,1333,1,0,0:0:0:0:
36,192,1333,1,0,0:0:0:0:
402,192,1653,1,0,0:0:0:0:
109,192,1653,1,0,0:0:0:0:
402,192,1972,1,0,0:0:0:0:
109,192,1972,1,0,0:0:0:0:
329,192,2291,1,0,0:0:0:0:
182,192,2291,1,0,0:0:0:0:
329,192,2610,1,0,0:0:0:0:
182,192,2610,1,0,0:0:0:0:
329,192,2770,1,0,0:0:0:0:
182,192,2770,1,0,0:0:0:0:
256,192,3089,1,0,0:0:0:0:
256,192,3248,1,0,0:0:0:0:
402,192,3567,1,0,0:0:0:0:
109,192,3567,1,0,0:0:0:0:
402,192,3887,1,0,0:0:0:0:
109,192,3887,1,0,0:0:0:0:
475,192,4206,1,0,0:0:0:0:
36,192,4206,1,0,0:0:0:0:
329,192,4525,1,2,0:0:0:0:
402,192,4605,1,2,0:0:0:0:
475,192,4684,1,2,0:0:0:0:
182,192,5163,1,0,0:0:0:70:soft-hitclap.wav
109,192,5243,1,0,0:0:0:70:soft-hitclap.wav
36,192,5323,1,0,0:0:0:0:
475,192,5323,1,0,0:0:0:0:
36,192,5642,1,0,0:0:0:0:
475,192,5642,1,0,0:0:0:0:
256,192,5642,1,4,0:0:0:0:
475,192,5801,1,0,0:0:0:0:
402,192,5881,1,0,0:0:0:0:
329,192,5961,1,0,0:0:0:0:
36,192,5961,1,0,0:0:0:50:soft-hitclap.wav
182,192,5961,1,0,0:0:0:40:soft-hitclap2.wav
402,192,6121,1,0,0:0:0:0:
475,192,6280,1,0,0:0:0:0:
36,192,6280,1,0,0:0:0:50:soft-hitclap.wav
109,192,6440,1,0,0:0:0:0:
329,192,6599,1,0,0:0:0:0:
182,192,6599,1,0,0:0:0:40:soft-hitclap2.wav
36,192,6599,1,0,0:0:0:50:soft-hitclap.wav
402,192,6679,1,0,0:0:0:0:
475,192,6759,1,0,0:0:0:0:
402,192,6839,1,0,0:0:0:0:
329,192,6918,1,0,0:0:0:0:
36,192,6918,1,0,0:0:0:50:soft-hitclap.wav
256,192,7078,1,0,0:0:0:0:
329,192,7238,1,0,0:0:0:0:
182,192,7238,1,0,0:0:0:40:soft-hitclap2.wav
36,192,7238,1,0,0:0:0:50:soft-hitclap.wav
402,192,7397,1,0,0:0:0:0:
329,192,7557,1,0,0:0:0:0:
36,192,7557,1,0,0:0:0:50:soft-hitclap.wav
256,192,7716,1,0,0:0:0:0:
475,192,7876,1,0,0:0:0:0:
36,192,7876,1,0,0:0:0:50:soft-hitclap.wav
182,192,7876,1,0,0:0:0:40:soft-hitclap2.wav
402,192,7956,1,0,0:0:0:0:
329,192,8036,1,0,0:0:0:0:
256,192,8115,1,0,0:0:0:0:
36,192,8195,1,0,0:0:0:50:soft-hitclap.wav
182,192,8195,1,0,0:0:0:0:
36,192,8355,1,0,0:0:0:0:
109,192,8434,1,0,0:0:0:0:
182,192,8514,1,0,0:0:0:0:
329,192,8514,1,0,0:0:0:40:soft-hitclap2.wav
475,192,8514,1,0,0:0:0:50:soft-hitclap.wav
256,192,8674,1,0,0:0:0:0:
329,192,8833,1,0,0:0:0:0:
475,192,8833,1,0,0:0:0:50:soft-hitclap.wav
256,192,8993,1,0,0:0:0:0:
182,192,9153,1,0,0:0:0:0:
329,192,9153,1,0,0:0:0:40:soft-hitclap2.wav
475,192,9153,1,0,0:0:0:50:soft-hitclap.wav
109,192,9232,1,0,0:0:0:0:
36,192,9312,1,0,0:0:0:0:
109,192,9392,1,0,0:0:0:0:
182,192,9472,1,0,0:0:0:0:
475,192,9472,1,0,0:0:0:50:soft-hitclap.wav
256,192,9631,1,0,0:0:0:0:
182,192,9791,1,0,0:0:0:0:
329,192,9791,1,0,0:0:0:40:soft-hitclap2.wav
475,192,9791,1,0,0:0:0:50:soft-hitclap.wav
109,192,9950,1,0,0:0:0:0:
36,192,10110,1,0,0:0:0:0:
475,192,10110,1,0,0:0:0:50:soft-hitclap.wav
109,192,10270,1,0,0:0:0:0:
182,192,10429,1,0,0:0:0:0:
36,192,10429,1,0,0:0:0:40:soft-hitclap2.wav
475,192,10429,1,0,0:0:0:50:soft-hitclap.wav
256,192,10509,1,0,0:0:0:0:
329,192,10589,1,0,0:0:0:0:
402,192,10668,1,0,0:0:0:0:
475,192,10748,1,0,0:0:0:50:soft-hitclap.wav
36,192,10748,1,0,0:0:0:50:soft-hitclap.wav
329,192,10908,1,0,0:0:0:0:
256,192,10988,1,0,0:0:0:0:
182,192,11067,1,0,0:0:0:0:
36,192,11067,1,0,0:0:0:40:soft-hitclap2.wav
475,192,11067,1,0,0:0:0:50:soft-hitclap.wav
402,192,11227,1,0,0:0:0:0:
182,192,11387,1,0,0:0:0:50:soft-hitclap.wav
329,192,11387,1,0,0:0:0:0:
256,192,11546,1,0,0:0:0:0:
475,192,11706,1,0,0:0:0:0:
109,192,11706,1,0,0:0:0:50:soft-hitclap.wav
36,192,11706,1,0,0:0:0:40:soft-hitclap2.wav
402,192,11786,1,0,0:0:0:0:
329,192,11865,1,0,0:0:0:0:
256,192,11945,1,0,0:0:0:0:
182,192,12025,1,0,0:0:0:50:soft-hitclap.wav
475,192,12025,1,0,0:0:0:0:
329,192,12184,1,0,0:0:0:0:
402,192,12344,1,0,0:0:0:0:
109,192,12344,1,0,0:0:0:50:soft-hitclap.wav
36,192,12344,1,0,0:0:0:40:soft-hitclap2.wav
475,192,12504,1,0,0:0:0:0:
329,192,12663,1,0,0:0:0:0:
182,192,12663,1,0,0:0:0:50:soft-hitclap.wav
402,192,12823,1,0,0:0:0:0:
475,192,12982,1,0,0:0:0:0:
109,192,12982,1,0,0:0:0:50:soft-hitclap.wav
36,192,12982,1,0,0:0:0:40:soft-hitclap2.wav
402,192,13062,1,0,0:0:0:0:
329,192,13142,1,0,0:0:0:0:
256,192,13222,1,0,0:0:0:0:
182,192,13301,1,0,0:0:0:0:
475,192,13301,1,0,0:0:0:50:soft-hitclap.wav
36,192,13461,1,0,0:0:0:0:
109,192,13541,1,0,0:0:0:0:
182,192,13621,1,0,0:0:0:0:
329,192,13621,1,0,0:0:0:40:soft-hitclap2.wav
475,192,13621,1,0,0:0:0:50:soft-hitclap.wav
256,192,13780,1,0,0:0:0:0:
109,192,13940,1,0,0:0:0:0:
475,192,13940,1,0,0:0:0:50:soft-hitclap.wav
256,192,14099,1,0,0:0:0:0:
36,192,14259,1,0,0:0:0:0:
329,192,14259,1,0,0:0:0:40:soft-hitclap2.wav
475,192,14259,1,0,0:0:0:50:soft-hitclap.wav
256,192,14339,1,0,0:0:0:0:
182,192,14418,1,0,0:0:0:0:
109,192,14498,1,0,0:0:0:0:
36,192,14578,1,0,0:0:0:30:soft-hitclap2.wav
182,192,14578,1,0,0:0:0:80:soft-hitwhistle.wav
329,192,14578,1,0,0:0:0:50:soft-hitclap.wav
36,192,14791,1,0,0:0:0:80:soft-hitwhistle.wav
329,192,14791,1,0,0:0:0:50:soft-hitclap.wav
182,192,14791,1,0,0:0:0:30:soft-hitclap2.wav
182,192,15004,1,0,0:0:0:30:soft-hitclap2.wav
329,192,15004,1,0,0:0:0:50:soft-hitclap.wav
475,192,15004,1,0,0:0:0:80:soft-hitwhistle.wav
329,192,15216,1,0,0:0:0:50:soft-hitclap.wav
182,192,15216,1,0,0:0:0:30:soft-hitclap2.wav
475,192,15216,1,0,0:0:0:80:soft-hitwhistle.wav
109,192,15429,1,0,0:0:0:30:soft-hitclap2.wav
182,192,15429,1,0,0:0:0:0:
329,192,15429,1,0,0:0:0:80:soft-hitwhistle.wav
402,192,15429,1,0,0:0:0:50:soft-hitclap.wav
109,192,15642,1,0,0:0:0:30:soft-hitclap2.wav
182,192,15642,1,0,0:0:0:0:
329,192,15642,1,0,0:0:0:80:soft-hitwhistle.wav
402,192,15642,1,0,0:0:0:50:soft-hitclap.wav
475,192,15855,1,0,0:0:0:0:
329,192,16014,1,0,0:0:0:0:
182,192,16333,1,0,0:0:0:0:
256,192,16653,1,0,0:0:0:0:
329,192,16972,1,0,0:0:0:0:
402,192,17291,1,0,0:0:0:0:
329,192,17450,1,0,0:0:0:0:
475,192,17610,1,0,0:0:0:0:
402,192,17929,1,0,0:0:0:0:
402,192,18248,1,0,0:0:0:0:
36,192,18408,1,0,0:0:0:0:
182,192,18567,1,0,0:0:0:0:
256,192,18887,1,0,0:0:0:0:
182,192,19206,1,0,0:0:0:0:
109,192,19525,1,0,0:0:0:0:
36,192,19844,1,0,0:0:0:0:
109,192,20004,1,0,0:0:0:0:
36,192,20163,1,0,0:0:0:0:
182,192,20482,1,0,0:0:0:0:
256,192,20642,1,0,0:0:0:0:
329,192,20801,1,0,0:0:0:0:
182,192,20961,1,0,0:0:0:0:
182,192,21200,1,0,0:0:0:0:
329,192,21440,1,0,0:0:0:0:
402,192,21759,1,0,0:0:0:0:
329,192,21918,1,0,0:0:0:0:
402,192,22078,1,0,0:0:0:0:
475,192,22238,1,0,0:0:0:0:
475,192,22477,1,0,0:0:0:0:
402,192,22716,1,0,0:0:0:0:
329,192,23036,1,0,0:0:0:0:
256,192,23195,1,0,0:0:0:0:
182,192,23355,1,0,0:0:0:0:
109,192,23514,1,0,0:0:0:0:
402,192,23833,1,0,0:0:0:0:
109,192,23993,1,0,0:0:0:0:
329,192,24312,1,0,0:0:0:0:
256,192,24631,1,0,0:0:0:0:
182,192,24950,1,0,0:0:0:0:
256,192,25110,1,0,0:0:0:0:
475,192,25429,1,2,0:0:0:0:
329,192,25589,1,2,0:0:0:0:
182,192,25748,1,2,0:0:0:0:
36,192,25908,1,2,0:0:0:0:
109,192,26067,1,0,0:0:0:50:soft-hitclap.wav
256,192,26067,1,4,0:0:0:0:
402,192,26067,1,0,0:0:0:0:
329,192,26227,1,0,0:0:0:0:
182,192,26227,1,0,0:0:0:0:
36,192,26387,1,0,0:0:0:50:soft-hitclap.wav
256,192,26546,1,0,0:0:0:0:
36,192,26706,1,0,0:0:0:50:soft-hitclap.wav
329,192,26865,1,0,0:0:0:0:
36,192,27025,1,0,0:0:0:50:soft-hitclap.wav
402,192,27184,1,0,0:0:0:0:
36,192,27344,1,0,0:0:0:50:soft-hitclap.wav
475,192,27504,1,0,0:0:0:0:
402,192,27663,1,0,0:0:0:0:
36,192,27663,1,0,0:0:0:50:soft-hitclap.wav
329,192,27823,1,0,0:0:0:0:
36,192,27982,1,0,0:0:0:50:soft-hitclap.wav
475,192,28142,1,0,0:0:0:0:
36,192,28301,1,0,0:0:0:50:soft-hitclap.wav
256,192,28461,1,0,0:0:0:0:
402,192,28621,1,0,0:0:0:0:
109,192,28621,1,0,0:0:0:50:soft-hitclap.wav
329,192,28780,1,0,0:0:0:0:
109,192,28940,1,0,0:0:0:50:soft-hitclap.wav
256,192,29099,1,0,0:0:0:0:
109,192,29259,1,0,0:0:0:50:soft-hitclap.wav
329,192,29418,1,0,0:0:0:0:
109,192,29578,1,0,0:0:0:50:soft-hitclap.wav
475,192,29738,1,0,0:0:0:0:
109,192,29897,1,0,0:0:0:50:soft-hitclap.wav
475,192,30057,1,0,0:0:0:0:
402,192,30216,1,0,0:0:0:0:
109,192,30216,1,0,0:0:0:50:soft-hitclap.wav
475,192,30376,1,0,0:0:0:0:
109,192,30536,1,0,0:0:0:50:soft-hitclap.wav
402,192,30695,1,0,0:0:0:0:
329,192,30855,1,0,0:0:0:0:
109,192,30855,1,0,0:0:0:50:soft-hitclap.wav
256,192,31014,1,0,0:0:0:0:
182,192,31174,1,0,0:0:0:0:
329,192,31174,1,0,0:0:0:50:soft-hitclap.wav
182,192,31413,1,0,0:0:0:0:
329,192,31493,1,0,0:0:0:50:soft-hitclap.wav
182,192,31653,1,0,0:0:0:0:
329,192,31812,1,0,0:0:0:50:soft-hitclap.wav
182,192,31972,1,0,0:0:0:0:
109,192,32131,1,0,0:0:0:0:
329,192,32131,1,0,0:0:0:50:soft-hitclap.wav
182,192,32291,1,0,0:0:0:0:
256,192,32450,1,0,0:0:0:0:
402,192,32450,1,0,0:0:0:50:soft-hitclap.wav
256,192,32690,1,0,0:0:0:0:
402,192,32770,1,0,0:0:0:50:soft-hitclap.wav
182,192,32929,1,0,0:0:0:0:
402,192,33089,1,0,0:0:0:50:soft-hitclap.wav
36,192,33248,1,0,0:0:0:0:
109,192,33408,1,0,0:0:0:0:
402,192,33408,1,0,0:0:0:50:soft-hitclap.wav
182,192,33567,1,0,0:0:0:0:
256,192,33727,1,0,0:0:0:0:
475,192,33727,1,0,0:0:0:50:soft-hitclap.wav
256,192,33966,1,0,0:0:0:0:
475,192,34046,1,0,0:0:0:0:
256,192,34206,1,0,0:0:0:0:
475,192,34365,1,0,0:0:0:0:
256,192,34365,128,0,35004:0:0:0:0:
475,192,34684,1,0,0:0:0:0:
475,192,35004,1,0,0:0:0:70:soft-hitclap.wav
182,192,35004,1,0,0:0:0:50:soft-hitclap2.wav
36,192,35163,1,0,0:0:0:30:soft-hitclap2.wav
329,192,35163,1,0,0:0:0:50:soft-hitclap.wav
402,192,35243,1,0,0:0:0:30:soft-hitclap2.wav
109,192,35243,1,0,0:0:0:50:soft-hitclap.wav
182,192,35323,1,0,0:0:0:30:soft-hitclap2.wav
475,192,35323,1,0,0:0:0:50:soft-hitclap.wav
475,192,35482,1,0,0:0:0:30:soft-hitclap2.wav
256,192,35482,1,0,0:0:0:50:soft-hitclap.wav
182,192,35562,1,0,0:0:0:30:soft-hitclap2.wav
402,192,35562,1,0,0:0:0:50:soft-hitclap.wav
109,192,35642,1,0,0:0:0:50:soft-hitclap.wav
329,192,35642,1,0,0:0:0:30:soft-hitclap2.wav
402,192,35801,1,0,0:0:0:30:soft-hitclap2.wav
182,192,35801,1,0,0:0:0:50:soft-hitclap.wav
36,192,35801,1,0,0:0:0:0:
182,192,36121,1,0,0:0:0:50:soft-hitclap.wav
475,192,36121,1,0,0:0:0:0:
109,192,36200,1,0,0:0:0:50:soft-hitclap.wav
402,192,36200,1,0,0:0:0:0:
36,192,36280,1,0,0:0:0:50:soft-hitclap.wav
182,192,36280,1,0,0:0:0:30:soft-hitclap2.wav
329,192,36280,1,4,0:0:0:0:
109,192,36440,1,0,0:0:0:50:soft-hitclap.wav
256,192,36440,1,0,0:0:0:30:soft-hitclap2.wav
182,192,36599,1,0,0:0:0:50:soft-hitclap.wav
329,192,36599,1,0,0:0:0:30:soft-hitclap2.wav
402,192,36759,1,0,0:0:0:30:soft-hitclap2.wav
256,192,36759,1,0,0:0:0:50:soft-hitclap.wav
475,192,36759,1,4,0:0:0:0:
182,192,37238,1,4,0:0:0:0:
329,192,37238,1,0,0:0:0:30:soft-hitclap2.wav
475,192,37238,1,0,0:0:0:50:soft-hitclap.wav
256,192,37397,1,0,0:0:0:30:soft-hitclap2.wav
402,192,37397,1,0,0:0:0:50:soft-hitclap.wav
329,192,37557,1,0,0:0:0:50:soft-hitclap.wav
182,192,37557,1,0,0:0:0:30:soft-hitclap2.wav
36,192,37716,1,4,0:0:0:0:
109,192,37716,1,0,0:0:0:30:soft-hitclap2.wav
256,192,37716,1,0,0:0:0:50:soft-hitclap.wav
109,192,38036,1,2,0:0:0:0:
182,192,38195,1,2,0:0:0:0:
256,192,38355,1,2,0:0:0:0:
329,192,38514,1,2,0:0:0:0:
402,192,38674,1,2,0:0:0:0:
36,192,38833,1,0,0:0:0:30:soft-hitclap2.wav
182,192,38833,1,0,0:0:0:50:soft-hitclap.wav
475,192,38833,1,4,0:0:0:0:
256,192,38993,1,0,0:0:0:50:soft-hitclap.wav
109,192,38993,1,0,0:0:0:30:soft-hitclap2.wav
329,192,39153,1,0,0:0:0:50:soft-hitclap.wav
182,192,39153,1,0,0:0:0:30:soft-hitclap2.wav
109,192,39312,1,0,0:0:0:30:soft-hitclap2.wav
256,192,39312,1,0,0:0:0:50:soft-hitclap.wav
402,192,39312,1,4,0:0:0:0:
36,192,39791,1,4,0:0:0:0:
329,192,39791,1,0,0:0:0:50:soft-hitclap.wav
475,192,39791,1,0,0:0:0:30:soft-hitclap2.wav
256,192,39950,1,0,0:0:0:50:soft-hitclap.wav
402,192,39950,1,0,0:0:0:30:soft-hitclap2.wav
329,192,40110,1,0,0:0:0:30:soft-hitclap2.wav
182,192,40110,1,0,0:0:0:50:soft-hitclap.wav
109,192,40270,1,4,0:0:0:0:
402,192,40270,1,0,0:0:0:30:soft-hitclap2.wav
256,192,40270,1,0,0:0:0:50:soft-hitclap.wav
256,192,40668,1,2,0:0:0:0:
475,192,40748,1,2,0:0:0:0:
402,192,40855,1,2,0:0:0:0:
329,192,40961,1,2,0:0:0:0:
256,192,41067,1,2,0:0:0:0:
182,192,41174,1,2,0:0:0:0:
109,192,41280,1,2,0:0:0:0:
36,192,41387,1,0,0:0:0:50:soft-hitclap.wav
475,192,41387,1,4,0:0:0:0:
402,192,41546,1,0,0:0:0:0:
329,192,41706,1,0,0:0:0:0:
36,192,41706,1,0,0:0:0:50:soft-hitclap.wav
182,192,41706,1,0,0:0:0:40:soft-hitclap2.wav
256,192,41865,1,0,0:0:0:0:
402,192,42025,1,0,0:0:0:0:
109,192,42025,1,0,0:0:0:50:soft-hitclap.wav
329,192,42344,1,0,0:0:0:0:
36,192,42344,1,0,0:0:0:50:soft-hitclap.wav
182,192,42344,1,0,0:0:0:40:soft-hitclap2.wav
475,192,42504,1,0,0:0:0:0:
402,192,42663,1,0,0:0:0:0:
109,192,42663,1,0,0:0:0:50:soft-hitclap.wav
329,192,42823,1,0,0:0:0:0:
402,192,42982,1,0,0:0:0:0:
36,192,42982,1,0,0:0:0:50:soft-hitclap.wav
182,192,42982,1,0,0:0:0:40:soft-hitclap2.wav
475,192,43142,1,0,0:0:0:0:
402,192,43222,1,0,0:0:0:0:
329,192,43301,1,0,0:0:0:0:
36,192,43301,1,0,0:0:0:50:soft-hitclap.wav
402,192,43461,1,0,0:0:0:0:
329,192,43621,1,0,0:0:0:0:
36,192,43621,1,0,0:0:0:50:soft-hitclap.wav
182,192,43621,1,0,0:0:0:40:soft-hitclap2.wav
475,192,43780,1,0,0:0:0:0:
256,192,43940,1,0,0:0:0:0:
109,192,43940,1,0,0:0:0:50:soft-hitclap.wav
329,192,44099,1,0,0:0:0:0:
402,192,44179,1,0,0:0:0:0:
475,192,44259,1,0,0:0:0:0:
36,192,44259,1,0,0:0:0:50:soft-hitclap.wav
182,192,44259,1,0,0:0:0:40:soft-hitclap2.wav
329,192,44418,1,0,0:0:0:0:
475,192,44578,1,0,0:0:0:0:
36,192,44578,1,0,0:0:0:50:soft-hitclap.wav
402,192,44738,1,0,0:0:0:0:
329,192,44897,1,0,0:0:0:0:
36,192,44897,1,0,0:0:0:50:soft-hitclap.wav
182,192,44897,1,0,0:0:0:40:soft-hitclap2.wav
256,192,45057,1,0,0:0:0:0:
182,192,45216,1,0,0:0:0:50:soft-hitclap.wav
329,192,45216,1,0,0:0:0:0:
36,192,45376,1,0,0:0:0:0:
109,192,45536,1,0,0:0:0:0:
256,192,45536,1,0,0:0:0:50:soft-hitclap.wav
402,192,45536,1,0,0:0:0:40:soft-hitclap2.wav
329,192,45695,1,0,0:0:0:0:
109,192,45855,1,0,0:0:0:0:
402,192,45855,1,0,0:0:0:50:soft-hitclap.wav
182,192,46014,1,0,0:0:0:0:
109,192,46094,1,0,0:0:0:0:
36,192,46174,1,0,0:0:0:0:
475,192,46174,1,0,0:0:0:50:soft-hitclap.wav
329,192,46174,1,0,0:0:0:40:soft-hitclap2.wav
109,192,46333,1,0,0:0:0:0:
182,192,46493,1,0,0:0:0:0:
475,192,46493,1,0,0:0:0:50:soft-hitclap.wav
256,192,46493,1,0,0:0:0:0:
109,192,46653,1,0,0:0:0:0:
36,192,46812,1,0,0:0:0:0:
329,192,46812,1,0,0:0:0:40:soft-hitclap2.wav
475,192,46812,1,0,0:0:0:50:soft-hitclap.wav
109,192,46972,1,0,0:0:0:0:
182,192,47131,1,0,0:0:0:50:soft-hitclap.wav
36,192,47131,1,0,0:0:0:0:
256,192,47291,1,0,0:0:0:0:
475,192,47450,1,0,0:0:0:50:soft-hitclap.wav
329,192,47450,1,0,0:0:0:40:soft-hitclap2.wav
182,192,47450,1,0,0:0:0:0:
402,192,47610,1,0,0:0:0:0:
475,192,47770,1,0,0:0:0:50:soft-hitclap.wav
329,192,47929,1,0,0:0:0:0:
402,192,48089,1,0,0:0:0:0:
109,192,48089,1,0,0:0:0:50:soft-hitclap.wav
256,192,48089,1,0,0:0:0:40:soft-hitclap2.wav
475,192,48248,1,0,0:0:0:0:
402,192,48328,1,0,0:0:0:0:
329,192,48408,1,0,0:0:0:0:
36,192,48408,1,0,0:0:0:50:soft-hitclap.wav
256,192,48567,1,0,0:0:0:0:
182,192,48727,1,0,0:0:0:0:
475,192,48727,1,0,0:0:0:50:soft-hitclap.wav
329,192,48727,1,0,0:0:0:40:soft-hitclap2.wav
109,192,48887,1,0,0:0:0:0:
36,192,49046,1,0,0:0:0:0:
475,192,49046,1,0,0:0:0:50:soft-hitclap.wav
109,192,49206,1,0,0:0:0:0:
182,192,49365,1,0,0:0:0:0:
329,192,49365,1,0,0:0:0:50:soft-hitclap.wav
36,192,49365,1,0,0:0:0:40:soft-hitclap2.wav
256,192,49525,1,0,0:0:0:0:
402,192,49684,1,0,0:0:0:50:soft-hitclap.wav
182,192,49844,1,0,0:0:0:0:
475,192,50004,1,0,0:0:0:50:soft-hitclap.wav
36,192,50004,1,0,0:0:0:40:soft-hitclap2.wav
256,192,50004,1,0,0:0:0:0:
109,192,50163,1,0,0:0:0:0:
329,192,50323,1,0,0:0:0:50:soft-hitclap.wav
182,192,50482,1,0,0:0:0:0:
256,192,50642,1,0,0:0:0:50:soft-hitclap.wav
109,192,50642,1,0,0:0:0:40:soft-hitclap2.wav
402,192,50642,1,0,0:0:0:0:
475,192,50801,1,0,0:0:0:0:
402,192,50881,1,0,0:0:0:0:
329,192,50961,1,0,0:0:0:0:
36,192,50961,1,0,0:0:0:50:soft-hitclap.wav
256,192,51121,1,0,0:0:0:0:
329,192,51280,1,0,0:0:0:0:
182,192,51280,1,0,0:0:0:40:soft-hitclap2.wav
475,192,51280,1,0,0:0:0:50:soft-hitclap.wav
402,192,51440,1,0,0:0:0:50:soft-hitclap.wav
36,192,51440,1,0,0:0:0:0:
109,192,51520,1,0,0:0:0:0:
475,192,51599,1,0,0:0:0:50:soft-hitclap.wav
182,192,51599,128,0,52078:0:0:0:0:
329,192,51599,1,0,0:0:0:0:
402,192,51918,1,0,0:0:0:40:soft-hitclap2.wav
256,192,51918,1,0,0:0:0:0:
109,192,52078,128,0,54153:0:0:0:0:
402,192,52238,1,0,0:0:0:50:soft-hitclap.wav
329,192,52397,1,0,0:0:0:0:
402,192,52557,1,0,0:0:0:0:
256,192,52557,1,0,0:0:0:50:soft-hitclap.wav
182,192,52557,1,0,0:0:0:40:soft-hitclap2.wav
475,192,52716,1,0,0:0:0:0:
402,192,52876,1,0,0:0:0:50:soft-hitclap.wav
329,192,53036,1,0,0:0:0:0:
402,192,53195,1,0,0:0:0:0:
256,192,53195,1,0,0:0:0:50:soft-hitclap.wav
182,192,53195,1,0,0:0:0:40:soft-hitclap2.wav
475,192,53355,1,0,0:0:0:0:
402,192,53514,1,0,0:0:0:50:soft-hitclap.wav
329,192,53674,1,0,0:0:0:0:
402,192,53833,1,0,0:0:0:0:
256,192,53833,1,0,0:0:0:50:soft-hitclap.wav
182,192,53833,1,0,0:0:0:40:soft-hitclap2.wav
329,192,53993,1,0,0:0:0:0:
402,192,54073,1,0,0:0:0:0:
475,192,54153,1,0,0:0:0:0:
36,192,54153,1,0,0:0:0:50:soft-hitclap.wav
402,192,54312,1,0,0:0:0:0:
109,192,54312,1,0,0:0:0:0:
329,192,54472,1,0,0:0:0:0:
182,192,54472,1,0,0:0:0:50:soft-hitclap.wav
402,192,54631,1,0,0:0:0:0:
109,192,54631,1,0,0:0:0:0:
36,192,54791,1,0,0:0:0:50:soft-hitclap.wav
475,192,54791,1,0,0:0:0:0:
402,192,54950,1,0,0:0:0:0:
109,192,54950,1,0,0:0:0:50:soft-hitclap.wav
182,192,55110,1,0,0:0:0:0:
329,192,55110,1,0,0:0:0:0:
475,192,55270,1,0,0:0:0:0:
256,192,55270,1,0,0:0:0:0:
329,192,55429,1,0,0:0:0:0:
36,192,55429,1,0,0:0:0:50:soft-hitclap.wav
475,192,55589,1,0,0:0:0:0:
182,192,55589,1,0,0:0:0:50:soft-hitclap.wav
402,192,55668,1,0,0:0:0:0:
109,192,55668,1,0,0:0:0:50:soft-hitclap.wav
329,192,55748,1,0,0:0:0:0:
36,192,55748,1,0,0:0:0:50:soft-hitclap.wav
36,192,55908,1,0,0:0:0:50:soft-hitclap.wav
329,192,55908,1,0,0:0:0:0:
109,192,55988,1,0,0:0:0:50:soft-hitclap.wav
402,192,55988,1,0,0:0:0:0:
182,192,56067,1,0,0:0:0:50:soft-hitclap.wav
475,192,56067,1,0,0:0:0:0:
256,192,56227,1,0,0:0:0:0:
329,192,56307,1,0,0:0:0:0:
402,192,56387,1,0,0:0:0:0:
329,192,56466,1,0,0:0:0:0:
256,192,56546,1,0,0:0:0:0:
182,192,56626,1,0,0:0:0:0:
109,192,56706,1,0,0:0:0:50:soft-hitclap.wav
402,192,56706,1,0,0:0:0:40:soft-hitclap2.wav
256,192,56706,1,2,0:0:0:0:
256,192,56865,1,2,0:0:0:0:
109,192,56865,1,0,0:0:0:50:soft-hitclap.wav
402,192,56865,1,0,0:0:0:40:soft-hitclap2.wav
36,192,57184,1,0,0:0:0:50:soft-hitclap.wav
182,192,57184,1,0,0:0:0:0:
329,192,57184,1,2,0:0:0:0:
475,192,57184,1,0,0:0:0:40:soft-hitclap2.wav
36,192,57344,1,0,0:0:0:50:soft-hitclap.wav
182,192,57344,1,0,0:0:0:0:
329,192,57344,1,2,0:0:0:0:
475,192,57344,1,0,0:0:0:40:soft-hitclap2.wav
36,192,57663,1,0,0:0:0:50:soft-hitclap.wav
182,192,57663,1,0,0:0:0:0:
256,192,57663,1,2,0:0:0:0:
329,192,57663,1,0,0:0:0:0:
475,192,57663,1,0,0:0:0:40:soft-hitclap2.wav
475,192,57823,1,0,0:0:0:40:soft-hitclap2.wav
329,192,57823,1,0,0:0:0:0:
256,192,57823,1,2,0:0:0:0:
182,192,57823,1,0,0:0:0:0:
36,192,57823,1,0,0:0:0:50:soft-hitclap.wav
36,192,59259,1,0,0:0:0:50:soft-hitclap.wav
182,192,59259,1,0,0:0:0:0:
329,192,59259,1,4,0:0:0:0:
475,192,59259,1,0,0:0:0:0:
402,192,59498,1,0,0:0:0:0:
36,192,59578,1,0,0:0:0:50:soft-hitclap.wav
109,192,59578,1,0,0:0:0:40:soft-hitclap2.wav
475,192,59738,1,0,0:0:0:0:
36,192,59897,1,0,0:0:0:50:soft-hitclap.wav
329,192,60057,1,0,0:0:0:0:
256,192,60216,1,0,0:0:0:0:
36,192,60216,1,0,0:0:0:50:soft-hitclap.wav
109,192,60216,1,0,0:0:0:40:soft-hitclap2.wav
329,192,60376,1,0,0:0:0:0:
475,192,60536,1,0,0:0:0:0:
182,192,60536,1,0,0:0:0:50:soft-hitclap.wav
475,192,60775,1,0,0:0:0:0:
36,192,60855,1,0,0:0:0:40:soft-hitclap2.wav
109,192,60855,1,0,0:0:0:50:soft-hitclap.wav
402,192,61014,1,0,0:0:0:0:
182,192,61174,1,0,0:0:0:50:soft-hitclap.wav
402,192,61333,1,0,0:0:0:0:
329,192,61493,1,0,0:0:0:0:
36,192,61493,1,0,0:0:0:40:soft-hitclap2.wav
109,192,61493,1,0,0:0:0:50:soft-hitclap.wav
256,192,61653,1,0,0:0:0:0:
329,192,61812,1,0,0:0:0:0:
36,192,61812,1,0,0:0:0:50:soft-hitclap.wav
329,192,62051,1,0,0:0:0:0:
109,192,62131,1,0,0:0:0:40:soft-hitclap2.wav
36,192,62131,1,0,0:0:0:50:soft-hitclap.wav
402,192,62291,1,0,0:0:0:0:
36,192,62450,1,0,0:0:0:50:soft-hitclap.wav
402,192,62610,1,0,0:0:0:0:
329,192,62770,1,0,0:0:0:0:
182,192,62770,1,0,0:0:0:40:soft-hitclap2.wav
36,192,62770,1,0,0:0:0:50:soft-hitclap.wav
402,192,62929,1,0,0:0:0:0:
475,192,63089,1,0,0:0:0:0:
36,192,63089,1,0,0:0:0:50:soft-hitclap.wav
182,192,63248,1,0,0:0:0:70:soft-hitwhistle.wav
475,192,63328,1,0,0:0:0:0:
109,192,63408,1,0,0:0:0:50:soft-hitclap.wav
256,192,63408,1,0,0:0:0:0:
36,192,63408,1,0,0:0:0:40:soft-hitclap2.wav
402,192,63567,1,0,0:0:0:0:
36,192,63727,1,0,0:0:0:50:soft-hitclap.wav
256,192,63727,1,0,0:0:0:0:
475,192,63727,1,0,0:0:0:0:
329,192,63887,1,0,0:0:0:0:
256,192,63966,1,0,0:0:0:0:
475,192,64046,1,0,0:0:0:0:
182,192,64046,1,0,0:0:0:50:soft-hitclap.wav
36,192,64046,1,0,0:0:0:40:soft-hitclap2.wav
402,192,64126,1,0,0:0:0:0:
329,192,64206,1,0,0:0:0:0:
256,192,64286,1,0,0:0:0:0:
182,192,64365,1,0,0:0:0:0:
475,192,64365,1,0,0:0:0:50:soft-hitclap.wav
36,192,64365,128,0,65642:0:0:0:0:
109,192,64605,1,0,0:0:0:0:
475,192,64684,1,0,0:0:0:50:soft-hitclap.wav
329,192,64684,1,0,0:0:0:40:soft-hitclap2.wav
182,192,64844,1,0,0:0:0:0:
256,192,65004,1,0,0:0:0:0:
402,192,65004,1,0,0:0:0:50:soft-hitclap.wav
109,192,65243,1,0,0:0:0:0:
475,192,65323,1,0,0:0:0:50:soft-hitclap.wav
329,192,65323,1,0,0:0:0:40:soft-hitclap2.wav
182,192,65482,1,0,0:0:0:0:
109,192,65642,128,0,65961:0:0:0:0:
475,192,65642,128,0,66918:0:0:0:0:
402,192,65642,1,0,0:0:0:50:soft-hitclap.wav
329,192,65961,1,0,0:0:0:40:soft-hitclap2.wav
182,192,65961,1,0,0:0:0:50:soft-hitclap.wav
36,192,66121,1,0,0:0:0:0:
109,192,66200,1,0,0:0:0:0:
182,192,66280,1,0,0:0:0:0:
402,192,66280,1,0,0:0:0:50:soft-hitclap.wav
256,192,66440,1,0,0:0:0:0:
182,192,66520,1,0,0:0:0:0:
109,192,66599,1,0,0:0:0:0:
402,192,66599,1,0,0:0:0:40:soft-hitclap2.wav
182,192,66679,1,0,0:0:0:0:
256,192,66759,1,0,0:0:0:0:
329,192,66839,1,0,0:0:0:0:
402,192,66918,1,0,0:0:0:50:soft-hitclap.wav
36,192,66918,1,0,0:0:0:0:
256,192,66918,128,0,68195:0:0:0:0:
402,192,67158,1,0,0:0:0:0:
182,192,67238,1,0,0:0:0:40:soft-hitclap2.wav
36,192,67238,1,0,0:0:0:50:soft-hitclap.wav
475,192,67397,1,0,0:0:0:0:
109,192,67557,1,0,0:0:0:50:soft-hitclap.wav
402,192,67557,1,0,0:0:0:0:
182,192,67876,1,0,0:0:0:40:soft-hitclap2.wav
36,192,67876,1,0,0:0:0:50:soft-hitclap.wav
475,192,68036,1,0,0:0:0:0:
402,192,68115,1,0,0:0:0:0:
329,192,68195,1,0,0:0:0:0:
109,192,68195,1,0,0:0:0:50:soft-hitclap.wav
36,192,68195,128,0,69472:0:0:0:0:
475,192,68355,1,0,0:0:0:0:
256,192,68514,1,0,0:0:0:0:
109,192,68514,1,0,0:0:0:50:soft-hitclap.wav
402,192,68514,1,0,0:0:0:40:soft-hitclap2.wav
329,192,68674,1,0,0:0:0:0:
475,192,68833,1,0,0:0:0:0:
182,192,68833,1,0,0:0:0:50:soft-hitclap.wav
402,192,68913,1,0,0:0:0:0:
329,192,68993,1,0,0:0:0:0:
256,192,69073,1,0,0:0:0:0:
182,192,69153,1,0,0:0:0:50:soft-hitclap.wav
475,192,69153,1,0,0:0:0:40:soft-hitclap2.wav
402,192,69232,1,0,0:0:0:0:
329,192,69312,1,0,0:0:0:0:
256,192,69392,1,0,0:0:0:0:
182,192,69472,1,0,0:0:0:50:soft-hitclap.wav
475,192,69472,1,4,0:0:0:0:
329,192,69711,1,0,0:0:0:0:
36,192,69791,1,0,0:0:0:50:soft-hitclap.wav
182,192,69791,1,0,0:0:0:40:soft-hitclap2.wav
402,192,69950,1,0,0:0:0:0:
109,192,70110,1,0,0:0:0:50:soft-hitclap.wav
402,192,70270,1,0,0:0:0:0:
329,192,70429,1,0,0:0:0:0:
182,192,70429,1,0,0:0:0:40:soft-hitclap2.wav
36,192,70429,1,0,0:0:0:50:soft-hitclap.wav
402,192,70589,1,0,0:0:0:0:
475,192,70748,1,0,0:0:0:0:
36,192,70748,1,0,0:0:0:50:soft-hitclap.wav
475,192,70988,1,0,0:0:0:0:
109,192,71067,1,0,0:0:0:50:soft-hitclap.wav
256,192,71067,1,0,0:0:0:40:soft-hitclap2.wav
402,192,71227,1,0,0:0:0:0:
36,192,71387,1,0,0:0:0:50:soft-hitclap.wav
402,192,71546,1,0,0:0:0:0:
256,192,71706,1,0,0:0:0:40:soft-hitclap2.wav
109,192,71706,1,0,0:0:0:50:soft-hitclap.wav
475,192,71706,1,0,0:0:0:0:
109,192,71865,1,0,0:0:0:0:
36,192,72025,1,0,0:0:0:0:
475,192,72025,1,0,0:0:0:50:soft-hitclap.wav
36,192,72264,1,0,0:0:0:0:
402,192,72344,1,0,0:0:0:50:soft-hitclap.wav
256,192,72344,1,0,0:0:0:40:soft-hitclap2.wav
109,192,72504,1,0,0:0:0:0:
329,192,72663,1,0,0:0:0:50:soft-hitclap.wav
36,192,72823,1,0,0:0:0:0:
109,192,72982,1,0,0:0:0:0:
256,192,72982,1,0,0:0:0:40:soft-hitclap2.wav
402,192,72982,1,0,0:0:0:50:soft-hitclap.wav
182,192,73142,1,0,0:0:0:0:
36,192,73301,1,0,0:0:0:50:soft-hitclap.wav
475,192,73301,1,0,0:0:0:0:
256,192,73541,1,0,0:0:0:0:
182,192,73621,1,0,0:0:0:40:soft-hitclap2.wav
36,192,73621,1,0,0:0:0:50:soft-hitclap.wav
475,192,73780,1,0,0:0:0:0:
402,192,73940,1,0,0:0:0:0:
36,192,73940,1,0,0:0:0:50:soft-hitclap.wav
256,192,73940,1,0,0:0:0:0:
329,192,74099,1,0,0:0:0:0:
256,192,74179,1,0,0:0:0:0:
475,192,74259,1,0,0:0:0:0:
36,192,74259,1,0,0:0:0:50:soft-hitclap.wav
182,192,74259,1,0,0:0:0:40:soft-hitclap2.wav
402,192,74339,1,0,0:0:0:0:
329,192,74418,1,0,0:0:0:0:
256,192,74498,1,0,0:0:0:0:
36,192,74578,1,0,0:0:0:50:soft-hitclap.wav
475,192,74578,1,0,0:0:0:0:
182,192,74578,128,0,75855:0:0:0:0:
36,192,74817,1,0,0:0:0:0:
329,192,74897,1,0,0:0:0:40:soft-hitclap2.wav
475,192,74897,1,0,0:0:0:50:soft-hitclap.wav
109,192,75057,1,0,0:0:0:0:
109,192,75216,1,0,0:0:0:0:
475,192,75216,1,0,0:0:0:50:soft-hitclap.wav
475,192,75536,1,0,0:0:0:50:soft-hitclap.wav
329,192,75536,1,0,0:0:0:40:soft-hitclap2.wav
36,192,75536,1,0,0:0:0:0:
256,192,75695,1,0,0:0:0:0:
36,192,75855,1,0,0:0:0:50:soft-hitclap.wav
402,192,75855,1,0,0:0:0:0:
475,192,75855,128,0,77131:0:0:0:0:
329,192,75855,128,0,76174:0:0:0:0:
36,192,76174,1,0,0:0:0:50:soft-hitclap.wav
182,192,76174,1,0,0:0:0:40:soft-hitclap2.wav
109,192,76333,1,0,0:0:0:0:
182,192,76413,1,0,0:0:0:0:
256,192,76493,1,0,0:0:0:0:
402,192,76493,1,0,0:0:0:50:soft-hitclap.wav
182,192,76653,1,0,0:0:0:0:
256,192,76732,1,0,0:0:0:0:
329,192,76812,1,0,0:0:0:0:
256,192,76892,1,0,0:0:0:0:
182,192,76972,1,0,0:0:0:0:
109,192,77051,1,0,0:0:0:0:
329,192,77131,1,0,0:0:0:50:soft-hitclap.wav
36,192,77131,128,0,78408:0:0:0:0:
256,192,77371,1,0,0:0:0:0:
329,192,77450,1,0,0:0:0:50:soft-hitclap.wav
475,192,77450,1,0,0:0:0:40:soft-hitclap2.wav
182,192,77610,1,0,0:0:0:0:
109,192,77770,128,0,78089:0:0:0:0:
402,192,77770,1,0,0:0:0:50:soft-hitclap.wav
329,192,78089,1,0,0:0:0:50:soft-hitclap.wav
475,192,78089,1,0,0:0:0:40:soft-hitclap2.wav
109,192,78248,1,0,0:0:0:0:
182,192,78328,1,0,0:0:0:0:
475,192,78408,1,0,0:0:0:50:soft-hitclap.wav
329,192,78408,1,0,0:0:0:0:
256,192,78408,1,0,0:0:0:0:
36,192,78567,1,0,0:0:0:0:
182,192,78727,1,0,0:0:0:0:
329,192,78727,1,0,0:0:0:40:soft-hitclap2.wav
475,192,78727,1,0,0:0:0:50:soft-hitclap.wav
109,192,78887,1,0,0:0:0:0:
475,192,79046,1,0,0:0:0:50:soft-hitclap.wav
36,192,79046,1,0,0:0:0:0:
109,192,79126,1,0,0:0:0:0:
182,192,79206,1,0,0:0:0:0:
256,192,79286,1,0,0:0:0:0:
182,192,79365,1,0,0:0:0:40:soft-hitclap2.wav
256,192,79445,1,0,0:0:0:0:
329,192,79525,1,0,0:0:0:0:
402,192,79605,1,0,0:0:0:0:
475,192,79684,128,0,83833:0:0:0:0:
36,192,79684,1,0,0:0:0:0:
182,192,79684,1,4,0:0:0:0:
109,192,79844,1,0,0:0:0:0:
182,192,79924,1,0,0:0:0:0:
256,192,80004,1,0,0:0:0:0:
329,192,80163,1,0,0:0:0:0:
402,192,80323,1,0,0:0:0:0:
329,192,80482,1,0,0:0:0:0:
402,192,80642,1,0,0:0:0:0:
329,192,80722,1,0,0:0:0:0:
256,192,80801,1,0,0:0:0:0:
182,192,80881,1,0,0:0:0:0:
109,192,80961,1,0,0:0:0:0:
182,192,81121,1,0,0:0:0:0:
256,192,81280,1,0,0:0:0:0:
329,192,81440,1,0,0:0:0:0:
109,192,81599,1,0,0:0:0:0:
329,192,81759,1,0,0:0:0:0:
36,192,81759,1,0,0:0:0:50:soft-hitclap.wav
402,192,81918,1,0,0:0:0:0:
329,192,81998,1,0,0:0:0:0:
256,192,82078,1,0,0:0:0:50:soft-hitclap.wav
182,192,82158,1,0,0:0:0:0:
109,192,82238,1,0,0:0:0:0:
402,192,82238,1,4,0:0:0:0:
36,192,82397,1,0,0:0:0:0:
109,192,82477,1,0,0:0:0:0:
182,192,82557,1,0,0:0:0:0:
256,192,82716,1,0,0:0:0:0:
182,192,82876,1,0,0:0:0:0:
329,192,83036,1,0,0:0:0:0:
402,192,83195,1,0,0:0:0:0:
329,192,83275,1,0,0:0:0:0:
256,192,83355,1,0,0:0:0:0:
182,192,83434,1,0,0:0:0:0:
109,192,83514,1,0,0:0:0:0:
256,192,83674,1,0,0:0:0:0:
182,192,83833,1,0,0:0:0:0:
402,192,83833,1,0,0:0:0:0:
256,192,83993,1,0,0:0:0:0:
36,192,84153,1,0,0:0:0:0:
329,192,84153,1,0,0:0:0:0:
109,192,84312,1,0,0:0:0:50:soft-hitclap.wav
402,192,84312,1,0,0:0:0:0:
475,192,84472,1,0,0:0:0:0:
182,192,84472,1,0,0:0:0:0:
256,192,84551,1,0,0:0:0:0:
329,192,84631,1,0,0:0:0:0:
109,192,84631,1,0,0:0:0:0:
402,192,84711,1,0,0:0:0:0:
182,192,84791,128,0,86067:0:0:0:0:
475,192,84791,1,0,0:0:0:0:
36,192,84791,1,4,0:0:0:0:
475,192,84950,1,0,0:0:0:0:
402,192,85030,1,0,0:0:0:0:
329,192,85110,1,0,0:0:0:0:
402,192,85270,1,0,0:0:0:0:
36,192,85270,1,0,0:0:0:70:soft-hitwhistle.wav
329,192,85429,1,0,0:0:0:0:
256,192,85589,1,0,0:0:0:0:
329,192,85748,1,0,0:0:0:0:
475,192,85828,1,0,0:0:0:0:
402,192,85908,1,0,0:0:0:0:
329,192,85988,1,0,0:0:0:0:
256,192,86067,1,0,0:0:0:0:
109,192,86067,128,0,87344:0:0:0:0:
475,192,86067,1,4,0:0:0:0:
182,192,86227,1,0,0:0:0:0:
256,192,86387,1,0,0:0:0:0:
329,192,86546,1,0,0:0:0:0:
402,192,86706,1,0,0:0:0:0:
475,192,86865,1,0,0:0:0:0:
182,192,87025,1,0,0:0:0:0:
256,192,87105,1,0,0:0:0:0:
329,192,87184,1,0,0:0:0:0:
402,192,87264,1,0,0:0:0:0:
36,192,87344,128,0,89578:0:0:0:0:
182,192,87344,1,0,0:0:0:50:soft-hitclap.wav
475,192,87344,1,4,0:0:0:0:
475,192,87504,1,0,0:0:0:0:
256,192,87504,1,0,0:0:0:0:
402,192,87583,1,0,0:0:0:0:
329,192,87663,1,0,0:0:0:0:
256,192,87823,1,0,0:0:0:0:
109,192,87823,1,0,0:0:0:50:soft-hitclap.wav
182,192,87982,1,0,0:0:0:50:soft-hitclap.wav
475,192,87982,1,0,0:0:0:0:
329,192,87982,1,4,0:0:0:0:
402,192,88142,1,0,0:0:0:0:
256,192,88142,1,0,0:0:0:50:soft-hitclap.wav
475,192,88301,1,0,0:0:0:0:
402,192,88381,1,0,0:0:0:0:
329,192,88461,1,0,0:0:0:0:
256,192,88541,1,0,0:0:0:0:
109,192,88621,1,0,0:0:0:0:
182,192,88621,1,0,0:0:0:50:soft-hitclap.wav
475,192,88621,1,4,0:0:0:0:
402,192,88860,1,0,0:0:0:50:soft-hitclap.wav
182,192,88940,1,0,0:0:0:0:
329,192,89099,1,0,0:0:0:50:soft-hitclap.wav
256,192,89259,1,0,0:0:0:0:
109,192,89259,1,0,0:0:0:0:
329,192,89418,1,0,0:0:0:0:
402,192,89578,1,0,0:0:0:0:
329,192,89658,1,0,0:0:0:0:
256,192,89738,1,0,0:0:0:0:
182,192,89817,1,0,0:0:0:0:
109,192,89897,1,0,0:0:0:0:
329,192,90057,1,0,0:0:0:0:
182,192,90137,1,0,0:0:0:0:
109,192,90216,1,4,0:0:0:0:
402,192,90216,1,0,0:0:0:0:
475,192,90216,128,0,94046:0:0:0:0:
36,192,90216,128,0,92450:0:0:0:0:
329,192,90376,1,0,0:0:0:0:
256,192,90536,1,0,0:0:0:0:
329,192,90695,1,0,0:0:0:0:
182,192,90695,1,0,0:0:0:0:
402,192,90855,1,0,0:0:0:0:
109,192,90855,1,0,0:0:0:40:soft-hitclap2.wav
329,192,90934,1,0,0:0:0:0:
256,192,91014,1,0,0:0:0:0:
182,192,91094,1,0,0:0:0:0:
109,192,91174,1,0,0:0:0:0:
256,192,91333,1,0,0:0:0:0:
402,192,91333,1,0,0:0:0:0:
329,192,91493,1,0,0:0:0:40:soft-hitclap2.wav
182,192,91493,1,0,0:0:0:0:
256,192,91653,1,0,0:0:0:0:
109,192,91653,1,0,0:0:0:0:
182,192,91812,1,0,0:0:0:0:
256,192,91972,1,0,0:0:0:0:
402,192,91972,1,0,0:0:0:0:
109,192,92131,1,0,0:0:0:40:soft-hitclap2.wav
182,192,92211,1,0,0:0:0:0:
256,192,92291,1,0,0:0:0:0:
329,192,92371,1,0,0:0:0:0:
402,192,92450,1,0,0:0:0:0:
109,192,92450,128,0,95004:0:0:0:0:
329,192,92610,1,0,0:0:0:0:
256,192,92690,1,0,0:0:0:0:
182,192,92770,1,0,0:0:0:0:
36,192,92770,1,0,0:0:0:40:soft-hitclap2.wav
402,192,92929,1,0,0:0:0:0:
256,192,92929,1,0,0:0:0:0:
182,192,93089,1,0,0:0:0:0:
329,192,93248,1,0,0:0:0:0:
402,192,93408,1,0,0:0:0:0:
182,192,93408,1,0,0:0:0:40:soft-hitclap2.wav
329,192,93488,1,0,0:0:0:0:
256,192,93567,1,0,0:0:0:0:
182,192,93647,1,0,0:0:0:0:
329,192,93727,1,0,0:0:0:0:
36,192,93727,1,0,0:0:0:50:soft-hitclap.wav
182,192,93887,1,0,0:0:0:0:
329,192,93887,1,0,0:0:0:0:
402,192,94046,128,0,95004:0:0:0:0:
256,192,94046,1,0,0:0:0:40:soft-hitclap2.wav
182,192,94206,1,0,0:0:0:0:
256,192,94365,1,0,0:0:0:0:
329,192,94525,1,0,0:0:0:0:
36,192,94525,1,0,0:0:0:0:
182,192,94684,1,0,0:0:0:40:soft-hitclap2.wav
256,192,94764,1,0,0:0:0:0:
329,192,94844,1,0,0:0:0:0:
256,192,94924,1,0,0:0:0:0:
36,192,95004,128,0,96280:0:0:0:0:
182,192,95004,1,0,0:0:0:0:
475,192,95004,128,0,96280:0:0:0:0:
256,192,95163,1,0,0:0:0:0:
402,192,95163,1,0,0:0:0:0:
329,192,95323,1,0,0:0:0:40:soft-hitclap2.wav
182,192,95323,1,0,0:0:0:0:
402,192,95482,1,0,0:0:0:0:
109,192,95482,1,0,0:0:0:0:
256,192,95642,1,0,0:0:0:0:
182,192,95801,1,0,0:0:0:0:
329,192,95801,1,0,0:0:0:0:
109,192,95961,1,0,0:0:0:40:soft-hitclap2.wav
182,192,96041,1,0,0:0:0:0:
256,192,96121,1,0,0:0:0:0:
329,192,96200,1,0,0:0:0:0:
109,192,96280,128,0,97557:0:0:0:0:
402,192,96280,128,0,97557:0:0:0:0:
256,192,96280,1,0,0:0:0:0:
182,192,96440,1,0,0:0:0:0:
475,192,96599,1,0,0:0:0:0:
256,192,96599,1,0,0:0:0:40:soft-hitclap2.wav
329,192,96759,1,0,0:0:0:0:
256,192,96918,1,0,0:0:0:0:
182,192,97078,1,0,0:0:0:0:
329,192,97238,1,0,0:0:0:40:soft-hitclap2.wav
36,192,97238,1,0,0:0:0:0:
256,192,97317,1,0,0:0:0:0:
182,192,97397,1,0,0:0:0:0:
256,192,97477,1,0,0:0:0:0:
36,192,97557,128,0,100110:0:0:0:0:
475,192,97557,128,0,100110:0:0:0:0:
329,192,97557,1,0,0:0:0:0:
256,192,97716,1,0,0:0:0:0:
329,192,97876,1,0,0:0:0:0:
182,192,97876,1,0,0:0:0:50:soft-hitclap.wav
256,192,98036,1,0,0:0:0:0:
109,192,98195,1,0,0:0:0:0:
402,192,98195,1,0,0:0:0:50:soft-hitclap.wav
329,192,98355,1,0,0:0:0:0:
402,192,98514,1,0,0:0:0:0:
109,192,98514,1,0,0:0:0:50:soft-hitclap.wav
329,192,98594,1,0,0:0:0:0:
256,192,98674,1,0,0:0:0:0:
329,192,98754,1,0,0:0:0:0:
402,192,98833,1,0,0:0:0:0:
109,192,98833,1,0,0:0:0:50:soft-hitclap.wav
256,192,98993,1,0,0:0:0:0:
329,192,99153,1,0,0:0:0:0:
182,192,99153,1,0,0:0:0:50:soft-hitclap.wav
402,192,99312,1,0,0:0:0:0:
329,192,99472,1,0,0:0:0:0:
182,192,99472,1,0,0:0:0:50:soft-hitclap.wav
109,192,99631,1,0,0:0:0:0:
256,192,99791,1,0,0:0:0:0:
402,192,99791,1,0,0:0:0:50:soft-hitclap.wav
182,192,99871,1,0,0:0:0:0:
109,192,99950,1,0,0:0:0:0:
182,192,100030,1,0,0:0:0:0:
256,192,100110,1,2,0:0:0:0:
256,192,100270,1,2,0:0:0:0:
329,192,100589,1,2,0:0:0:0:
329,192,100908,1,2,0:0:0:0:
256,192,101227,1,2,0:0:0:0:
182,192,101546,1,2,0:0:0:0:
182,192,101706,1,2,0:0:0:0:
