osu file format v14

[General]
AudioFilename: supergeroge-ro.mp3
AudioLeadIn: 0
PreviewTime: 59259
Countdown: 0
SampleSet: Soft
StackLeniency: 0.7
Mode: 3
LetterboxInBreaks: 0
SpecialStyle: 0
WidescreenStoryboard: 1

[Editor]
Bookmarks: 5642,15855,26067,35004,54153,59259,79684,89897
DistanceSpacing: 2
BeatDivisor: 4
GridSize: 8
TimelineZoom: 1.8

[Metadata]
Title:Super GERO GE-RO
TitleUnicode:Super GERO GE-RO
Artist:S-C-U
ArtistUnicode:S-C-U
Creator:Reat
Version:BASIC
Source:REFLEC BEAT groovin'!!
Tags:bemani konami ost
BeatmapID:518543
BeatmapSetID:221593

[Difficulty]
HPDrainRate:7
CircleSize:7
OverallDifficulty:7
ApproachRate:5
SliderMultiplier:1.4
SliderTickRate:1

[Events]
//Background and Video events
0,0,"bg.jpg",0,0
//Break Periods
//Storyboard Layer 0 (Background)
//Storyboard Layer 1 (Fail)
//Storyboard Layer 2 (Pass)
//Storyboard Layer 3 (Foreground)
//Storyboard Sound Samples

[TimingPoints]
536,319.148936170213,4,2,0,70,1,0
59259,-100,4,2,0,70,0,1
79684,-100,4,2,0,70,0,0
90216,-100,4,2,0,70,0,1
100110,-100,4,2,0,70,0,0

[HitObjects]
256,192,536,5,0,0:0:0:0:
256,192,695,1,0,0:0:0:0:
36,192,1014,1,0,0:0:0:0:
36,192,1333,1,0,0:0:0:0:
109,192,1653,1,0,0:0:0:0:
109,192,1972,1,0,0:0:0:0:
182,192,2291,1,0,0:0:0:0:
329,192,2610,1,0,0:0:0:0:
329,192,2770,1,0,0:0:0:0:
256,192,3089,1,0,0:0:0:0:
256,192,3248,1,0,0:0:0:0:
475,192,3567,1,0,0:0:0:0:
475,192,3887,1,0,0:0:0:0:
402,192,4206,1,0,0:0:0:0:
36,192,5642,1,0,0:0:0:0:
182,192,5642,1,4,0:0:0:0:
256,192,6599,1,0,0:0:0:8:soft-hitclap2.wav
475,192,7238,1,0,0:0:0:0:
329,192,7238,1,0,0:0:0:40:soft-hitclap2.wav
256,192,7876,1,0,0:0:0:40:soft-hitclap2.wav
182,192,8514,1,0,0:0:0:0:
109,192,8514,1,0,0:0:0:40:soft-hitclap2.wav
256,192,9153,1,0,0:0:0:40:soft-hitclap2.wav
402,192,9791,1,0,0:0:0:0:
329,192,9791,1,0,0:0:0:40:soft-hitclap2.wav
256,192,10429,1,0,0:0:0:40:soft-hitclap2.wav
182,192,11067,1,0,0:0:0:0:
36,192,11067,1,0,0:0:0:40:soft-hitclap2.wav
256,192,11706,1,0,0:0:0:40:soft-hitclap2.wav
475,192,12344,1,0,0:0:0:0:
329,192,12344,1,0,0:0:0:40:soft-hitclap2.wav
256,192,12982,1,0,0:0:0:40:soft-hitclap2.wav
36,192,13621,1,0,0:0:0:0:
182,192,13621,1,0,0:0:0:40:soft-hitclap2.wav
109,192,14259,1,0,0:0:0:40:soft-hitclap2.wav
256,192,14578,128,0,15855:0:0:0:0:
402,192,16333,1,0,0:0:0:0:
109,192,16653,1,0,0:0:0:0:
256,192,16972,1,0,0:0:0:0:
402,192,17291,1,0,0:0:0:0:
329,192,17450,1,0,0:0:0:0:
256,192,17610,1,0,0:0:0:0:
109,192,17929,1,0,0:0:0:0:
182,192,18248,1,0,0:0:0:0:
329,192,18408,1,0,0:0:0:0:
182,192,18567,1,0,0:0:0:0:
256,192,18887,1,0,0:0:0:0:
329,192,19206,1,0,0:0:0:0:
402,192,19525,1,0,0:0:0:0:
475,192,19844,1,0,0:0:0:0:
402,192,20004,1,0,0:0:0:0:
475,192,20163,1,0,0:0:0:0:
182,192,20482,1,0,0:0:0:0:
109,192,20642,1,0,0:0:0:0:
36,192,20801,1,0,0:0:0:0:
182,192,20961,1,0,0:0:0:0:
182,192,21200,1,0,0:0:0:0:
182,192,21440,1,0,0:0:0:0:
256,192,21759,1,0,0:0:0:0:
182,192,21918,1,0,0:0:0:0:
329,192,22078,1,0,0:0:0:0:
475,192,22238,1,0,0:0:0:0:
475,192,22477,1,0,0:0:0:0:
402,192,22716,1,0,0:0:0:0:
329,192,23036,1,0,0:0:0:0:
256,192,23195,1,0,0:0:0:0:
182,192,23355,1,0,0:0:0:0:
109,192,23514,1,0,0:0:0:0:
402,192,23833,1,0,0:0:0:0:
329,192,23993,1,0,0:0:0:0:
329,192,24312,1,0,0:0:0:0:
256,192,24631,1,0,0:0:0:0:
182,192,24950,1,0,0:0:0:0:
256,192,25110,1,0,0:0:0:0:
475,192,25429,1,2,0:0:0:0:
329,192,25589,1,2,0:0:0:0:
182,192,25748,1,2,0:0:0:0:
36,192,25908,1,2,0:0:0:0:
109,192,26067,1,0,0:0:0:50:soft-hitclap.wav
402,192,26067,1,4,0:0:0:0:
256,192,26546,1,0,0:0:0:0:
182,192,26865,1,0,0:0:0:0:
109,192,27184,1,0,0:0:0:0:
182,192,27504,1,0,0:0:0:0:
256,192,27663,1,0,0:0:0:0:
329,192,27823,1,0,0:0:0:0:
475,192,28142,1,0,0:0:0:0:
256,192,28461,1,0,0:0:0:0:
109,192,28621,1,0,0:0:0:0:
182,192,28780,1,0,0:0:0:0:
256,192,29099,1,0,0:0:0:0:
329,192,29418,1,0,0:0:0:0:
475,192,29738,1,0,0:0:0:0:
475,192,30057,1,0,0:0:0:0:
402,192,30216,1,0,0:0:0:0:
475,192,30376,1,0,0:0:0:0:
402,192,30695,1,0,0:0:0:0:
329,192,30855,1,0,0:0:0:0:
256,192,31014,1,0,0:0:0:0:
182,192,31174,1,0,0:0:0:0:
182,192,31413,1,0,0:0:0:0:
182,192,31653,1,0,0:0:0:0:
182,192,31972,1,0,0:0:0:0:
109,192,32131,1,0,0:0:0:0:
182,192,32291,1,0,0:0:0:0:
256,192,32450,1,0,0:0:0:0:
256,192,32690,1,0,0:0:0:0:
182,192,32929,1,0,0:0:0:0:
36,192,33248,1,0,0:0:0:0:
109,192,33408,1,0,0:0:0:0:
182,192,33567,1,0,0:0:0:0:
256,192,33727,1,0,0:0:0:0:
256,192,33966,1,0,0:0:0:0:
256,192,34206,1,0,0:0:0:0:
256,192,34365,1,0,0:0:0:0:
182,192,35004,1,0,0:0:0:50:soft-hitclap2.wav
36,192,35163,1,0,0:0:0:30:soft-hitclap2.wav
182,192,35323,1,0,0:0:0:30:soft-hitclap2.wav
475,192,35482,1,0,0:0:0:30:soft-hitclap2.wav
329,192,35642,1,0,0:0:0:30:soft-hitclap2.wav
182,192,35801,1,0,0:0:0:30:soft-hitclap2.wav
36,192,36121,1,0,0:0:0:0:
36,192,36280,1,4,0:0:0:0:
182,192,36440,1,0,0:0:0:30:soft-hitclap2.wav
329,192,36599,1,0,0:0:0:30:soft-hitclap2.wav
475,192,36759,1,4,0:0:0:0:
475,192,37238,1,4,0:0:0:0:
329,192,37397,1,0,0:0:0:30:soft-hitclap2.wav
182,192,37557,1,0,0:0:0:30:soft-hitclap2.wav
36,192,37716,1,4,0:0:0:0:
182,192,38195,1,2,0:0:0:0:
329,192,38514,1,2,0:0:0:0:
475,192,38833,1,4,0:0:0:0:
329,192,38993,1,0,0:0:0:30:soft-hitclap2.wav
182,192,39153,1,0,0:0:0:30:soft-hitclap2.wav
36,192,39312,1,4,0:0:0:0:
36,192,39791,1,4,0:0:0:0:
182,192,39950,1,0,0:0:0:30:soft-hitclap2.wav
329,192,40110,1,0,0:0:0:30:soft-hitclap2.wav
475,192,40270,1,4,0:0:0:0:
475,192,41387,1,4,0:0:0:0:
329,192,41706,1,0,0:0:0:40:soft-hitclap2.wav
182,192,42025,1,0,0:0:0:0:
36,192,42344,1,0,0:0:0:40:soft-hitclap2.wav
182,192,42663,1,0,0:0:0:0:
329,192,42982,1,0,0:0:0:40:soft-hitclap2.wav
402,192,43301,1,0,0:0:0:0:
256,192,43621,1,0,0:0:0:0:
182,192,43940,1,0,0:0:0:0:
256,192,44259,1,0,0:0:0:40:soft-hitclap2.wav
402,192,44578,1,0,0:0:0:0:
475,192,44897,1,0,0:0:0:0:
36,192,44897,1,0,0:0:0:40:soft-hitclap2.wav
256,192,45536,1,0,0:0:0:40:soft-hitclap2.wav
36,192,46174,1,0,0:0:0:0:
475,192,46174,1,0,0:0:0:40:soft-hitclap2.wav
402,192,46493,1,4,0:0:0:0:
256,192,46812,1,0,0:0:0:40:soft-hitclap2.wav
109,192,47131,1,0,0:0:0:0:
182,192,47450,1,0,0:0:0:40:soft-hitclap2.wav
329,192,47770,1,0,0:0:0:0:
256,192,48089,1,0,0:0:0:40:soft-hitclap2.wav
36,192,48408,1,0,0:0:0:0:
256,192,48727,1,0,0:0:0:40:soft-hitclap2.wav
475,192,49046,1,0,0:0:0:0:
329,192,49365,1,0,0:0:0:40:soft-hitclap2.wav
256,192,49684,1,0,0:0:0:0:
182,192,50004,1,0,0:0:0:40:soft-hitclap2.wav
36,192,50323,1,0,0:0:0:0:
109,192,50642,1,0,0:0:0:40:soft-hitclap2.wav
256,192,50961,1,0,0:0:0:0:
402,192,51280,1,0,0:0:0:0:
475,192,51599,1,0,0:0:0:0:
402,192,51918,1,0,0:0:0:40:soft-hitclap2.wav
109,192,51918,1,0,0:0:0:0:
402,192,52557,1,0,0:0:0:0:
109,192,52557,1,0,0:0:0:40:soft-hitclap2.wav
402,192,53195,1,0,0:0:0:0:
109,192,53195,1,0,0:0:0:40:soft-hitclap2.wav
402,192,53833,1,0,0:0:0:0:
109,192,53833,1,0,0:0:0:40:soft-hitclap2.wav
475,192,54153,1,0,0:0:0:50:soft-hitclap.wav
329,192,54472,1,0,0:0:0:0:
36,192,54791,1,0,0:0:0:50:soft-hitclap.wav
182,192,55110,1,0,0:0:0:0:
109,192,55429,1,0,0:0:0:50:soft-hitclap.wav
329,192,55748,1,0,0:0:0:50:soft-hitclap.wav
182,192,56067,1,0,0:0:0:50:soft-hitclap.wav
402,192,56387,1,0,0:0:0:0:
36,192,56706,1,0,0:0:0:50:soft-hitclap.wav
36,192,56865,1,0,0:0:0:50:soft-hitclap.wav
402,192,57184,1,0,0:0:0:40:soft-hitclap2.wav
402,192,57344,1,0,0:0:0:40:soft-hitclap2.wav
182,192,57663,1,0,0:0:0:50:soft-hitclap.wav
329,192,57663,1,0,0:0:0:40:soft-hitclap2.wav
329,192,57823,1,0,0:0:0:40:soft-hitclap2.wav
182,192,57823,1,0,0:0:0:50:soft-hitclap.wav
36,192,59259,1,0,0:0:0:50:soft-hitclap.wav
256,192,59259,1,4,0:0:0:0:
475,192,59259,1,0,0:0:0:0:
329,192,59578,1,0,0:0:0:0:
182,192,59578,1,0,0:0:0:40:soft-hitclap2.wav
36,192,59897,1,0,0:0:0:50:soft-hitclap.wav
182,192,60216,1,0,0:0:0:40:soft-hitclap2.wav
329,192,60536,1,0,0:0:0:50:soft-hitclap.wav
402,192,60855,1,0,0:0:0:0:
109,192,60855,1,0,0:0:0:40:soft-hitclap2.wav
256,192,61174,1,0,0:0:0:50:soft-hitclap.wav
329,192,61493,1,0,0:0:0:0:
36,192,61493,1,0,0:0:0:40:soft-hitclap2.wav
182,192,61812,1,0,0:0:0:0:
475,192,61812,1,0,0:0:0:50:soft-hitclap.wav
109,192,62131,1,0,0:0:0:0:
402,192,62131,1,0,0:0:0:40:soft-hitclap2.wav
36,192,62450,1,0,0:0:0:50:soft-hitclap.wav
402,192,62770,1,0,0:0:0:0:
109,192,62770,1,0,0:0:0:40:soft-hitclap2.wav
475,192,63089,1,0,0:0:0:0:
36,192,63089,1,0,0:0:0:50:soft-hitclap.wav
109,192,63408,1,0,0:0:0:40:soft-hitclap2.wav
402,192,63727,1,0,0:0:0:50:soft-hitclap.wav
475,192,64046,1,0,0:0:0:0:
36,192,64046,1,0,0:0:0:40:soft-hitclap2.wav
36,192,64365,128,0,65642:0:0:0:0:
402,192,64684,1,0,0:0:0:40:soft-hitclap2.wav
402,192,65323,1,0,0:0:0:0:
475,192,65642,128,0,66918:0:0:0:0:
109,192,65961,1,0,0:0:0:40:soft-hitclap2.wav
109,192,66599,1,0,0:0:0:40:soft-hitclap2.wav
256,192,66918,128,0,68195:0:0:0:0:
109,192,67238,1,0,0:0:0:40:soft-hitclap2.wav
402,192,67876,1,0,0:0:0:40:soft-hitclap2.wav
36,192,68195,128,0,69472:0:0:0:0:
109,192,68514,1,0,0:0:0:0:
402,192,68514,1,0,0:0:0:40:soft-hitclap2.wav
329,192,68833,1,0,0:0:0:0:
182,192,68833,1,0,0:0:0:50:soft-hitclap.wav
256,192,69153,1,0,0:0:0:40:soft-hitclap2.wav
109,192,69472,1,0,0:0:0:50:soft-hitclap.wav
402,192,69472,1,4,0:0:0:0:
256,192,69791,1,0,0:0:0:40:soft-hitclap2.wav
402,192,70110,1,0,0:0:0:50:soft-hitclap.wav
256,192,70429,1,0,0:0:0:40:soft-hitclap2.wav
475,192,70748,1,0,0:0:0:50:soft-hitclap.wav
402,192,71067,1,0,0:0:0:0:
109,192,71067,1,0,0:0:0:40:soft-hitclap2.wav
36,192,71387,1,0,0:0:0:50:soft-hitclap.wav
182,192,71706,1,0,0:0:0:40:soft-hitclap2.wav
329,192,71706,1,0,0:0:0:0:
475,192,72025,1,0,0:0:0:50:soft-hitclap.wav
109,192,72344,1,0,0:0:0:0:
256,192,72344,1,0,0:0:0:40:soft-hitclap2.wav
182,192,72663,1,0,0:0:0:50:soft-hitclap.wav
256,192,72982,1,0,0:0:0:0:
402,192,72982,1,0,0:0:0:40:soft-hitclap2.wav
329,192,73301,1,0,0:0:0:50:soft-hitclap.wav
402,192,73621,1,0,0:0:0:0:
256,192,73621,1,0,0:0:0:40:soft-hitclap2.wav
182,192,73940,1,0,0:0:0:50:soft-hitclap.wav
109,192,74259,1,0,0:0:0:40:soft-hitclap2.wav
256,192,74259,1,0,0:0:0:0:
256,192,74578,128,0,75855:0:0:0:0:
402,192,74897,1,0,0:0:0:40:soft-hitclap2.wav
109,192,75536,1,0,0:0:0:40:soft-hitclap2.wav
475,192,75855,128,0,77131:0:0:0:0:
109,192,76174,1,0,0:0:0:40:soft-hitclap2.wav
256,192,76493,1,0,0:0:0:50:soft-hitclap.wav
402,192,76812,1,0,0:0:0:0:
36,192,77131,128,0,78408:0:0:0:0:
256,192,77450,1,0,0:0:0:40:soft-hitclap2.wav
256,192,78089,1,0,0:0:0:40:soft-hitclap2.wav
182,192,78727,1,0,0:0:0:0:
329,192,78727,1,0,0:0:0:40:soft-hitclap2.wav
475,192,79046,1,0,0:0:0:50:soft-hitclap.wav
36,192,79046,1,0,0:0:0:0:
256,192,79365,1,0,0:0:0:40:soft-hitclap2.wav
475,192,79684,128,0,83833:0:0:0:0:
36,192,79684,1,0,0:0:0:0:
256,192,79684,1,4,0:0:0:0:
109,192,80323,1,0,0:0:0:0:
182,192,80961,1,0,0:0:0:0:
109,192,81599,1,0,0:0:0:0:
36,192,82238,1,4,0:0:0:0:
109,192,82876,1,0,0:0:0:0:
182,192,83514,1,0,0:0:0:0:
36,192,83833,1,0,0:0:0:0:
182,192,84153,1,0,0:0:0:0:
329,192,84472,1,0,0:0:0:0:
36,192,84791,128,0,86067:0:0:0:0:
475,192,84791,1,0,0:0:0:0:
182,192,84791,1,4,0:0:0:0:
329,192,85429,1,0,0:0:0:0:
256,192,86067,1,0,0:0:0:0:
109,192,86067,128,0,87344:0:0:0:0:
402,192,86067,1,4,0:0:0:0:
329,192,86706,1,0,0:0:0:0:
36,192,87344,128,0,89578:0:0:0:0:
475,192,87344,1,4,0:0:0:0:
402,192,87982,1,4,0:0:0:0:
329,192,88621,1,4,0:0:0:0:
329,192,88940,1,4,0:0:0:0:
329,192,89259,1,4,0:0:0:0:
256,192,89897,1,0,0:0:0:0:
36,192,90216,1,4,0:0:0:0:
256,192,90216,1,0,0:0:0:0:
475,192,90216,128,0,94046:0:0:0:0:
182,192,90855,1,0,0:0:0:40:soft-hitclap2.wav
109,192,91493,1,0,0:0:0:40:soft-hitclap2.wav
36,192,92131,1,0,0:0:0:40:soft-hitclap2.wav
109,192,92770,1,0,0:0:0:40:soft-hitclap2.wav
182,192,93408,1,0,0:0:0:40:soft-hitclap2.wav
402,192,94046,128,0,95004:0:0:0:0:
109,192,94046,1,0,0:0:0:40:soft-hitclap2.wav
36,192,94684,1,0,0:0:0:40:soft-hitclap2.wav
475,192,95004,128,0,96280:0:0:0:0:
109,192,95323,1,0,0:0:0:40:soft-hitclap2.wav
182,192,95961,1,0,0:0:0:40:soft-hitclap2.wav
402,192,96280,128,0,97557:0:0:0:0:
109,192,96599,1,0,0:0:0:40:soft-hitclap2.wav
36,192,97238,1,0,0:0:0:40:soft-hitclap2.wav
475,192,97557,128,0,100110:0:0:0:0:
109,192,97876,1,0,0:0:0:40:soft-hitclap2.wav
182,192,98514,1,0,0:0:0:50:soft-hitclap.wav
329,192,99153,1,0,0:0:0:0:
182,192,99153,1,0,0:0:0:50:soft-hitclap.wav
402,192,99472,1,0,0:0:0:0:
109,192,99472,1,0,0:0:0:50:soft-hitclap.wav
182,192,99791,1,0,0:0:0:0:
329,192,99791,1,0,0:0:0:50:soft-hitclap.wav
256,192,100110,1,2,0:0:0:0:
256,192,100270,1,2,0:0:0:0:
329,192,100589,1,2,0:0:0:0:
329,192,100908,1,2,0:0:0:0:
256,192,101227,1,2,0:0:0:0:
182,192,101546,1,2,0:0:0:0:
182,192,101706,1,2,0:0:0:0:
