osu file format v5

[General]
AudioFilename: Hanafubuki.mp3
AudioLeadIn: 0
PreviewTime: -1
Countdown: 1
SampleSet: Soft
StackLeniency: 0
Mode: 0
LetterboxInBreaks: 1

[Metadata]
Title:Hanafubuki
Artist:S.S.D.Fantasica
Creator:Alace
Version:JAMES DIFFICULTY!!
Source:
Tags:

[Difficulty]
HPDrainRate:6
CircleSize:6
OverallDifficulty:8
SliderMultiplier:1.4
SliderTickRate:2

[Events]
//Background and Video events
0,0,"sakura-1024.jpg"
//Break Periods
2,77865,92365
2,109065,121165
//Storyboard Layer 0 (Background)
//Storyboard Layer 1 (Failing)
//Storyboard Layer 2 (Passing)
//Storyboard Layer 3 (Foreground)
//Storyboard Sound Samples
//Background Colour Transformations
3,100,0,0,0

[TimingPoints]
26065,400,4,2,0,100,1
64865,800,4,2,0,100,1
67665,400,4,2,0,100,1
125665,800,4,2,0,100,1
128465,400,4,2,0,100,1
131665,800,4,2,0,100,1
134865,400,4,2,0,100,1
167265,800,4,2,0,100,1
170065,400,4,2,0,100,1
179665,2400,4,2,0,100,1

[Colours]
Combo1 : 255,185,255
Combo2 : 251,28,112
Combo3 : 255,128,255

[HitObjects]
56,344,26065,1,0
112,344,26265,1,0
168,344,26465,1,2
256,344,26765,1,0
256,344,26865,1,0
312,344,27065,1,0
368,344,27265,1,2
464,232,27665,5,0
400,232,27865,1,0
336,232,28065,1,2
248,232,28365,1,0
248,232,28465,1,0
184,232,28665,1,0
120,232,28865,1,2
56,96,29265,5,0
56,96,29465,1,0
56,96,29665,1,0
176,72,30065,1,0
208,184,30465,1,0
88,216,30865,1,0
56,96,31265,2,2,B|203:20|344:96,1,280,2|2
464,280,32465,6,0,B|408:352,1,70
360,312,32865,2,0,B|311:272|248:328,1,105,2|0
263,316,33265,2,0,B|162:317,1,70
193,317,33665,1,2
48,104,34065,2,0,B|104:32,1,70
152,72,34465,2,0,B|201:112|264:56,1,105,2|0
249,68,34865,2,0,B|350:67,1,70
319,67,35265,1,2
416,336,35665,6,0,B|456:256,1,70
392,232,36065,2,0,B|248:176,1,140,0|0
152,304,36865,2,0,B|296:360,1,140,0|0
368,216,37665,2,2,B|308:169|240:155|145:164|72:208,1,280,2|2
48,48,39265,6,0,B|144:48,1,70,4|2
176,88,39665,2,0,B|120:168,1,70,0|2
192,184,40065,2,0,B|272:232,1,70,0|2
312,248,40465,2,0,B|368:160,1,70,0|2
296,144,40865,2,0,B|239:82|144:104,2,140,0|2|0
256,336,42065,2,0,B|168:320,1,70,0|2
120,296,42465,2,2,B|88:216|128:136,1,140,0|2
392,88,43265,2,0,B|424:168|384:248,2,140,0|2|0
248,88,44465,1,2
104,88,44865,1,0
56,336,45265,6,0,B|144:336,1,70
126,336,45665,1,0
456,336,46465,1,2
448,56,47265,1,0
312,56,47665,1,0
312,192,48065,1,0
448,192,48465,1,0
448,56,48865,5,2
448,336,49265,1,0
168,336,49665,1,2
168,56,50065,1,0
448,56,50465,1,2
376,56,50665,1,2
376,56,50765,1,2
376,56,50865,1,2
304,56,51065,1,0
232,56,51265,1,2
232,360,51665,6,0,B|320:360,1,70,0|0
302,360,52065,1,2
280,24,52465,2,0,B|192:24,1,70,0|0
210,24,52865,1,2
112,128,53265,2,0,B|112:224,1,70
184,192,53665,2,2,B|248:168|328:192,1,140
392,200,54265,2,0,B|392:104,1,70,0|2
320,128,54665,1,0
320,128,54765,2,2,B|325:196|256:232,1,105,2|0
208,208,55265,2,0,B|200:113|272:80,4,140,2|0|2|0|2
216,280,57065,5,2
216,280,57165,1,2
216,280,57265,1,2
288,280,57465,1,0
360,280,57665,1,2
448,56,58065,6,0,B|384:120,1,70,2|0
398,105,58465,1,2
64,328,58865,6,0,B|128:264,1,70,2|0
114,279,59265,1,2
208,176,59665,2,0,B|280:176,1,70,2|0
344,176,60065,2,0,B|368:240|336:296,1,105,2|0
344,278,60465,2,0,B|256:280,1,70,2|0
272,280,60865,1,2
104,48,61265,5,2
104,48,61465,1,0
104,48,61665,1,2
24,192,62065,1,0
168,272,62465,1,2
256,128,62865,1,0
104,48,63265,1,2
152,96,63465,5,2
152,96,63565,1,2
152,96,63665,1,2
104,144,63865,1,0
160,184,64065,1,2
360,48,64465,1,0
416,88,64665,1,0
472,128,64865,2,0,C|471:228|462:329|232:336,1,420
112,336,67665,6,0,C|112:256,1,70
112,192,68065,2,0,C|256:192,1,140
392,192,68865,2,0,B|410:108|312:72,2,140,0|0|2
384,264,69865,1,2
384,264,69965,1,2
384,264,70065,1,2
312,264,70265,1,0
240,264,70465,1,2
64,56,70865,6,0,B|136:56,1,70
134,56,71265,1,0
448,56,71665,2,0,B|376:56,1,70
378,56,72065,1,0
216,136,72465,2,0,B|264:200,1,70
296,248,72865,2,0,B|292:332|208:344,1,140,0|0
216,136,73665,2,0,B|220:52|304:40,1,140,0|0
400,136,74465,1,0
296,232,74865,1,2
200,128,75265,1,2
304,32,75665,1,2
504,224,76065,5,0
264,368,76465,1,0
64,176,76865,1,0
304,32,77265,1,0
504,224,77665,1,0
40,88,93265,6,0,B|128:56,1,70
176,40,93665,2,0,B|222:90|160:160,1,105,4|0
178,136,94065,1,0
136,192,94265,2,0,B|208:240,1,70,0|2
472,304,94865,6,0,B|384:336,1,70
336,352,95265,2,0,B|290:302|352:232,1,105,2|0
334,256,95665,1,0
376,200,95865,2,0,B|304:152,1,70,2|2
200,80,96465,2,0,B|152:136,1,70
154,133,96865,1,2
312,248,97265,2,0,B|400:136,1,140,0|2
200,136,98065,2,0,B|112:248,1,140,0|2
248,288,98865,1,2
384,328,99265,1,2
456,56,99665,5,0
384,56,99865,1,0
312,56,100065,2,0,B|192:56,1,105,4|0
207,56,100465,1,0
136,56,100665,2,0,B|56:56,1,70,0|2
56,328,101265,1,0
128,328,101465,1,0
200,328,101665,2,0,B|320:328,1,105,2|0
305,328,102065,1,0
376,328,102265,2,0,B|456:328,1,70,2|2
392,192,102865,5,0
392,192,103065,1,0
392,192,103265,2,0,B|88:192,1,280,2|0
32,40,104865,1,0
144,40,105265,1,0
256,40,105665,1,0
368,40,106065,1,0
480,40,106465,5,0
440,96,106665,1,2
440,96,106765,1,2
440,96,106865,1,2
392,144,107065,2,0,B|416:232,1,70,0|2
344,232,107465,1,2
272,248,107665,1,2
200,264,107865,6,0,B|104:240,1,70,2|2
64,232,108265,1,2
64,232,108365,1,2
64,232,108465,1,2
96,168,108665,1,0
72,104,108865,1,2
32,168,122065,5,0
80,112,122265,1,0
128,56,122465,2,0,C|160:31|192:56|216:32|240:64|264:48|282:60|304:40|336:72,1,280
400,184,123665,1,0
400,184,123865,1,0
400,184,124065,1,0
296,280,124465,1,0
192,184,124865,1,0
88,280,125265,1,0
184,376,125665,2,0,B|296:296|220:243|151:173|216:104|288:72,1,350
408,32,128065,5,0
488,144,128465,5,0
432,184,128665,1,0
368,152,128865,2,0,B|298:120|228:139|184:196|199:281|240:328,1,280,0|0
464,328,130065,1,0
464,328,130265,1,0
464,328,130465,1,0
320,328,130865,1,0
176,328,131265,1,0
176,184,131665,2,0,B|240:80|240:80|340:84|392:168|392:168|320:280,1,420
248,384,134465,5,0
128,304,134865,5,0
72,256,135065,1,0
128,216,135265,2,0,B|147:160|216:160,1,105,2|0
208,160,135665,2,0,B|288:224,1,70
320,240,136065,2,0,B|364:199|344:136,1,105,2|0
346,144,136465,2,0,B|280:96,1,70
224,64,136865,2,0,B|177:108|208:192,1,105,2|0
200,160,137265,2,0,B|288:184,1,70
336,168,137665,2,0,B|385:231|328:320,1,140,2|0
208,336,138465,2,0,B|56:336,1,140,2|0
304,48,139265,2,0,B|456:48,1,140,2|0
392,192,140065,5,2
320,192,140265,1,2
288,192,140365,1,2
256,192,140465,1,2
184,192,140665,1,0
112,192,140865,1,2
48,320,141265,6,0,B|120:352,1,70
176,320,141665,2,0,B|136:240|192:176,1,140,2|0
336,64,142465,2,0,B|376:144|320:208,1,140,2|0
256,360,143265,1,2
48,192,143665,1,0
256,24,144065,1,0
464,192,144465,1,2
256,192,144565,12,0,146065
120,192,146465,5,0
192,192,146665,1,2
224,192,146765,1,2
256,192,146865,1,2
328,192,147065,1,0
400,192,147265,2,0,B|436:264|392:344,1,140,2|0
72,296,148065,6,0,B|153:349|192:240,1,140,2|2
208,176,148665,1,0
280,128,148865,2,2,B|362:79|408:184,1,140,2|2
440,232,149465,1,0
408,312,149665,2,0,B|372:397|264:368,1,140,2|2
216,24,150465,2,2,B|128:16|104:104,1,140,2|2
192,312,151265,2,2,B|263:349|352:296,1,140,2|2
256,248,151865,1,0
328,184,152065,2,2,B|251:140|168:200,1,140,2|2
256,248,152665,1,0
192,312,152865,2,0,B|263:349|352:296,2,140,2|2|2
56,56,154065,6,0,B|152:56,1,70
126,56,154465,1,4
456,328,154865,2,0,B|360:328,1,70,2|0
386,328,155265,1,2
120,304,155665,2,0,B|144:208,1,70,2|0
168,160,156065,2,0,B|231:125|320:160,1,140,2|2
320,232,156665,2,0,B|304:328,1,70,0|2
208,360,157165,1,0
208,360,157265,1,2
176,280,157465,1,0
232,224,157665,5,2
144,112,158065,1,0
24,184,158465,1,2
104,296,158865,1,0
232,224,159265,1,2
296,192,159465,1,2
296,192,159565,1,2
296,192,159665,1,2
360,224,159865,1,0
424,256,160065,1,2
280,32,160465,5,2
192,32,160665,1,0
104,32,160865,1,2
232,352,161265,1,2
320,352,161465,1,0
408,352,161665,1,2
456,192,162065,1,2
416,112,162265,1,0
336,144,162465,2,0,B|304:189|336:264,1,105,2|0
328,244,162865,2,0,B|240:272,1,70,2|0
184,296,163265,1,2
64,72,163665,6,0,B|152:56,1,70,2|0
200,48,164065,2,0,B|164:120|224:192,1,140,2|0
344,216,164865,2,0,B|380:144|320:72,2,140,2|0|2
416,208,165865,1,2
416,208,165965,1,2
416,208,166065,1,2
488,200,166265,2,0,B|496:280,1,70,0|2
96,264,166865,6,0,B|88:184,1,70
88,128,167265,2,0,B|144:48|249:8|380:16|456:136,1,420
448,320,170065,6,0,B|344:320,1,70
304,320,170465,1,0
200,224,170865,1,0
304,128,171265,1,0
200,32,171665,2,0,B|120:40|96:128,1,140,0|2
80,184,172265,1,2
80,184,172365,1,2
80,184,172465,1,2
96,248,172665,1,0
144,296,172865,1,2
272,352,173265,6,0,B|352:352,1,70,0|0
344,352,173665,1,0
240,32,174065,2,0,B|160:32,1,70,0|0
168,32,174465,1,0
64,128,174865,1,0
64,128,175065,1,0
64,128,175265,1,2
160,312,175665,1,2
352,232,176065,1,2
256,40,176465,1,2
64,128,176865,6,0,B|48:216,1,70,4|2
120,216,177265,2,0,B|216:232,1,70,0|2
256,240,177665,2,0,B|272:168,1,70,0|2
280,104,178065,2,0,B|200:88,1,70,0|2
256,40,178465,5,0
8,168,178865,1,0
200,368,179265,1,0
456,216,179665,2,0,B|440:232|443:192|472:224,1,35,0|0
256,192,180365,12,2,182865
