osu file format v12

[General]
AudioFilename: RIP=RELEASE.mp3
AudioLeadIn: 0
PreviewTime: 83113
Countdown: 0
SampleSet: Soft
StackLeniency: 0.7
Mode: 0
LetterboxInBreaks: 0

[Editor]
Bookmarks: 73069
DistanceSpacing: 1.6
BeatDivisor: 4
GridSize: 4

[Metadata]
Title:RIP=RELEASE
TitleUnicode:RIP=RELEASE
Artist:Ryuusei-P
ArtistUnicode:流星P
Creator:eldnl
Version:Beginner
Source:
Tags:verdisphena deif megurine luka vocaloid
BeatmapID:153869
BeatmapSetID:49830

[Difficulty]
HPDrainRate:3
CircleSize:3
OverallDifficulty:2
ApproachRate:4
SliderMultiplier:0.999999999999999
SliderTickRate:1

[Events]
//Background and Video events
0,0,"Megurine Luka.jpg",0,0
//Break Periods
//Storyboard Layer 0 (Background)
//Storyboard Layer 1 (Fail)
//Storyboard Layer 2 (Pass)
//Storyboard Layer 3 (Foreground)
//Storyboard Sound Samples
//Background Colour Transformations
3,100,163,162,255

[TimingPoints]
2113,521.739130434783,4,2,1,90,1,0
2634,-100,4,2,1,5,0,0
3678,-100,4,2,1,90,0,0
4721,-100,4,2,1,5,0,0
5765,-100,4,2,1,90,0,0
10982,-100,4,2,0,5,0,0
12026,-100,4,2,1,90,0,0
13069,-100,4,2,0,5,0,0
14113,-100,4,2,1,90,0,0
18808,-80,4,1,2,80,0,0
35504,-80,4,1,2,60,0,0
43591,-80,4,2,0,80,0,0
44895,-80,4,2,0,10,0,0
45417,-80,4,1,0,60,0,0
48026,-80,4,2,0,90,0,0
49852,-80,4,1,0,60,0,0
51678,-80,4,2,0,90,0,0
52199,-80,4,1,0,60,0,0
56373,-80,4,2,0,90,0,0
58199,-80,4,1,0,60,0,0
60547,-80,4,2,0,90,0,0
62113,-80,4,1,0,60,0,0
64721,-80,4,2,0,80,0,0
66808,-80,4,1,0,60,0,0
81417,-133.333333333333,4,1,0,60,0,0
85591,-80,4,1,2,80,0,1
103852,-80,4,1,2,60,0,1
104373,-80,4,1,2,60,0,0
121069,-80,4,2,0,30,0,0
123156,-80,4,2,0,15,0,0

[Colours]
Combo1 : 255,149,202
Combo2 : 128,0,255
Combo3 : 255,0,128

[HitObjects]
340,272,2373,6,0,B|380:332|452:316|452:316|408:224|472:152,1,300,0|2,0:0|0:0,0:0:0:0:
344,48,4460,2,0,B|261:36|205:94|205:94|134:56|59:93,1,300,0|2,0:0|0:0,0:0:0:0:
72,248,6547,6,0,B|51:320,4,74.9999999999999,0|0|0|0|2,0:0|0:0|0:0|0:0|0:0,0:0:0:0:
192,360,8634,2,0,B|212:287,4,74.9999999999999,0|0|0|0|2,0:0|0:0|0:0|0:0|0:0,0:0:0:0:
344,304,10721,6,0,B|257:299|204:229|203:140|268:84,1,300,0|2,0:0|0:0,0:0:0:0:
340,188,12808,2,0,B|212:207|130:107|130:107|68:135,1,300,0|2,0:0|0:0,0:0:0:0:
76,296,14895,6,0,B|37:287|17:253,4,74.9999999999999,0|0|0|0|2,0:0|0:0|0:0|0:0|0:0,0:0:0:0:
236,312,16982,2,0,B|274:320|294:354,3,74.9999999999999
444,252,18808,6,0,B|472:120,1,124.999998137355,4|8,0:0|0:0,0:0:0:0:
372,52,19852,1,0,0:0:0:0:
248,76,20373,2,0,B|220:208,1,124.999998137355,8|0,0:0|0:0,0:0:0:0:
120,272,21417,1,8,0:0:0:0:
0,232,21939,2,0,B|27:170|91:148,1,124.999998137355,0|8,0:0|0:0,0:0:0:0:
168,52,22982,6,0,B|215:99|283:96,1,124.999998137355,0|8,0:0|0:0,0:0:0:0:
400,44,24026,1,0,0:0:0:0:
464,152,24547,2,0,B|484:280,1,124.999998137355,8|0,0:0|0:0,0:0:0:0:
372,332,25591,2,0,B|262:257|131:289,1,249.99999627471,8|8,0:0|0:0,0:0:0:0:
44,200,27156,5,0,0:0:0:0:
80,80,27678,2,0,B|208:48,1,124.999998137355,8|0,0:0|0:0,0:0:0:0:
300,128,28721,1,8,0:0:0:0:
420,92,29243,2,0,B|434:157|394:213,1,124.999998137355,0|8,0:0|0:0,0:0:0:0:
344,324,30286,1,0,0:0:0:0:
220,336,30808,1,8,0:0:0:0:
132,244,31330,5,0,0:0:0:0:
44,156,31852,2,0,B|95:112|163:121,1,124.999998137355,8|0,0:0|0:0,0:0:0:0:
260,48,32895,2,0,B|311:91|379:82,1,124.999998137355,8|0,0:0|0:0,0:0:0:0:
460,176,33939,2,0,B|508:229|498:302|446:355|375:349,1,249.99999627471,8|8,0:0|0:0,0:0:0:0:
264,292,35504,6,0,B|213:249|145:258,1,124.999998137355,4|0,0:0|0:0,0:0:0:0:
48,336,36547,2,0,B|123:226|91:95,1,249.99999627471,0|0,0:0|0:0,0:0:0:0:
196,28,38113,1,0,0:0:0:0:
316,68,38634,2,0,B|367:111|435:102,1,124.999998137355,0|0,0:0|0:0,0:0:0:0:
496,212,39678,5,0,0:0:0:0:
436,324,40199,1,0,0:0:0:0:
312,308,40721,2,0,B|243:298|197:345|197:345|138:314|76:345,1,249.99999627471
16,236,42286,1,0,0:0:0:0:
40,112,42808,1,0,0:0:0:0:
148,52,43330,1,0,0:0:0:0:
272,72,43852,6,0,B|347:135|447:122,2,187.499997206032,0|2|0,0:0|0:0|0:0,0:0:0:0:
148,52,45939,1,0,0:0:0:0:
40,112,46460,2,0,B|24:248,1,124.999998137355
120,320,47504,1,0,0:0:0:0:
236,276,48026,6,0,B|273:244|323:251,3,93.7499986030161,0|2|0|2,0:0|0:0|0:0|0:0,0:0:0:0:
480,320,50113,2,0,B|415:244|429:142,1,187.499997206032,0|0,0:0|0:0,0:0:0:0:
348,48,51417,2,0,B|276:52,1,62.4999990686774
180,120,52199,6,0,B|53:127,1,124.999998137355
12,244,53243,1,0,0:0:0:0:
68,356,53765,2,0,B|194:348,1,124.999998137355
240,232,54808,6,0,B|291:275|359:266,1,124.999998137355,0|0,0:0|0:0,0:0:0:0:
448,184,55852,1,0,0:0:0:0:
408,64,56373,2,0,B|357:21|289:30,1,124.999998137355,0|0,0:0|0:0,0:0:0:0:
196,108,57417,2,0,B|145:151|77:142,1,124.999998137355,0|0,0:0|0:0,0:0:0:0:
28,256,58460,6,0,B|26:310|66:346|122:352|160:315,1,187.499997206032,0|0,0:0|0:0,0:0:0:0:
284,308,59765,2,0,B|335:265|403:274,1,124.999998137355,0|0,0:0|0:0,0:0:0:0:
456,304,60547,2,0,B|511:222|487:123,1,187.499997206032,0|2,0:0|0:0,0:0:0:0:
104,56,62634,6,0,B|52:176,1,124.999998137355
72,296,63678,1,0,0:0:0:0:
188,340,64199,1,0,0:0:0:0:
296,280,64721,2,0,B|378:225|477:249,2,187.499997206032,0|2|0,0:0|0:0|0:0,0:0:0:0:
188,340,66808,5,0,0:0:0:0:
71,295,67329,1,0,0:0:0:0:
164,212,67852,1,0,0:0:0:0:
48,168,68373,1,0,0:0:0:0:
140,84,68895,6,0,B|202:47|272:72|313:134|293:204,1,249.99999627471,4|0,0:0|0:0,0:0:0:0:
244,316,70460,1,0,0:0:0:0:
364,356,70982,2,0,B|409:307|477:307,2,124.999998137355
244,316,72547,1,0,0:0:0:0:
120,340,73069,6,0,B|84:156,1,187.499997206032
184,80,74373,2,0,B|238:117|305:102,1,124.999998137355
364,108,75156,2,0,B|400:292,1,187.499997206032
72,312,77243,6,0,B|47:187,1,124.999998137355
104,80,78286,1,0,0:0:0:0:
204,152,78808,1,0,0:0:0:0:
316,100,79330,6,0,B|387:100|434:158|437:231|385:280,1,249.99999627471,0|0,0:0|0:0,0:0:0:0:
280,348,80895,1,0,0:0:0:0:
164,324,81417,2,0,B|126:275|63:271,1,112.499996647239
256,192,82721,12,0,84678,0:0:0:0:
64,88,85591,6,0,B|76:220,1,124.999998137355,4|8,0:0|0:0,0:0:0:0:
176,284,86634,2,0,B|182:350,2,62.4999990686774,0|0|8,0:0|0:0|0:0,0:0:0:0:
296,244,87678,1,0,0:0:0:0:
420,264,88199,1,8,0:0:0:0:
500,168,88721,1,0,0:0:0:0:
376,148,89242,1,8,0:0:0:0:
292,56,89765,6,0,B|168:68,1,124.999998137355,4|8,0:0|0:0,0:0:0:0:
84,164,90808,2,0,B|14:170,2,62.4999990686774,0|0|8,0:0|0:0|0:0,0:0:0:0:
180,248,91852,1,0,0:0:0:0:
304,224,92373,2,0,B|311:289|266:341,2,124.999998137355,8|0|8,0:0|0:0|0:0,0:0:0:0:
396,136,93939,6,0,B|343:91|278:98,1,124.999998137355,4|8,0:0|0:0,0:0:0:0:
160,60,94982,2,0,B|140:89|107:94,2,62.4999990686774,0|0|8,0:0|0:0|0:0,0:0:0:0:
192,180,96026,1,0,0:0:0:0:
144,296,96547,1,8,0:0:0:0:
268,316,97069,2,0,B|400:296,1,124.999998137355,0|8,0:0|0:0,0:0:0:0:
448,184,98113,6,0,B|481:121|454:52|392:13|323:35,1,249.99999627471,4|0,0:0|0:0,0:0:0:0:
324,160,99678,1,8,0:0:0:0:
256,192,100199,12,4,102286,0:0:0:0:
348,44,103852,6,0,B|352:116,1,62.4999990686774
396,152,104373,2,0,B|402:276,1,124.999998137355,4|8,0:0|0:0,0:0:0:0:
292,336,105417,2,0,B|239:291|174:298,1,124.999998137355,0|8,0:0|0:0,0:0:0:0:
64,244,106460,2,0,B|19:191|26:126,1,124.999998137355,0|8,0:0|0:0,0:0:0:0:
116,40,107504,1,0,0:0:0:0:
236,72,108026,1,8,0:0:0:0:
360,60,108547,6,0,B|392:180,1,124.999998137355,0|8,0:0|0:0,0:0:0:0:
372,304,109591,1,0,0:0:0:0:
248,324,110113,2,0,B|189:362|126:347,1,124.999998137355,8|0,0:0|0:0,0:0:0:0:
60,244,111156,1,8,0:0:0:0:
88,124,111678,2,0,B|147:86|210:101,1,124.999998137355,0|8,0:0|0:0,0:0:0:0:
320,48,112721,6,0,B|359:106|423:116,1,124.999998137355,0|8,0:0|0:0,0:0:0:0:
480,228,113765,2,0,B|484:290|436:341,1,124.999998137355,0|8,0:0|0:0,0:0:0:0:
356,244,114808,1,0,0:0:0:0:
284,144,115330,1,8,0:0:0:0:
160,132,115852,1,0,0:0:0:0:
64,208,116373,1,8,0:0:0:0:
60,332,116895,6,0,B|129:324|168:272,1,124.999998137355,0|8,0:0|0:0,0:0:0:0:
292,256,117939,1,0,0:0:0:0:
408,300,118460,1,8,0:0:0:0:
504,220,118982,1,0,0:0:0:0:
388,176,119503,1,8,0:0:0:0:
340,60,120026,2,0,B|272:68,2,62.4999990686774,0|0|8,0:0|0:0|0:0,0:0:0:0:
256,192,121069,12,0,127330,0:0:0:0:
