osu file format v12

[General]
AudioFilename: RIP=RELEASE.mp3
AudioLeadIn: 0
PreviewTime: 83113
Countdown: 0
SampleSet: Soft
StackLeniency: 0.7
Mode: 0
LetterboxInBreaks: 0

[Editor]
DistanceSpacing: 0.9
BeatDivisor: 4
GridSize: 4

[Metadata]
Title:RIP=RELEASE
TitleUnicode:RIP=RELEASE
Artist:Ryuusei-P
ArtistUnicode:流星P
Creator:eldnl
Version:Advanced
Source:Megurine Luka
Tags:verdisphena deif megurine luka vocaloid
BeatmapID:153872
BeatmapSetID:49830

[Difficulty]
HPDrainRate:5
CircleSize:4
OverallDifficulty:6
ApproachRate:7
SliderMultiplier:1.8
SliderTickRate:2

[Events]
//Background and Video events
0,0,"Megurine Luka.jpg",0,0
//Break Periods
//Storyboard Layer 0 (Background)
//Storyboard Layer 1 (Fail)
//Storyboard Layer 2 (Pass)
//Storyboard Layer 3 (Foreground)
//Storyboard Sound Samples
//Background Colour Transformations
3,100,163,162,255

[TimingPoints]
2113,521.739130434783,4,2,1,90,1,0
10460,-100,4,1,0,60,0,0
10721,-100,4,2,0,90,0,0
12286,-100,4,1,0,60,0,0
12808,-100,4,2,0,90,0,0
14634,-100,4,1,0,60,0,0
14895,-100,4,2,1,90,0,0
16460,-100,4,1,1,60,0,0
17504,-100,4,1,1,75,0,0
18286,-100,4,1,1,65,0,0
18808,-100,4,1,2,80,0,0
35504,-100,4,1,1,60,0,0
35765,-100,4,2,0,90,0,0
36026,-100,4,1,1,60,0,0
37852,-100,4,2,0,90,0,0
38113,-100,4,1,1,60,0,0
39417,-100,4,2,0,90,0,0
39678,-100,4,1,1,60,0,0
39939,-100,4,2,0,90,0,0
40199,-100,4,1,1,60,0,0
40460,-100,4,2,0,90,0,0
40721,-100,4,1,1,60,0,0
41243,-100,4,1,1,80,0,0
41504,-100,4,2,0,90,0,0
41765,-100,4,1,1,80,0,0
42026,-100,4,2,0,90,0,0
42286,-100,4,1,1,80,0,0
43852,-100,4,1,1,75,0,0
44113,-100,4,2,0,90,0,0
44373,-100,4,1,1,75,0,0
44634,-100,4,2,0,90,0,0
44634,-100,4,2,0,90,0,0
44895,-100,4,1,1,75,0,0
45678,-100,4,2,0,90,0,0
45939,-100,4,1,1,75,0,0
46460,-100,4,1,1,75,0,0
46721,-100,4,2,0,90,0,0
47504,-100,4,1,1,75,0,0
47765,-100,4,2,0,90,0,0
48026,-100,4,1,1,60,0,0
49852,-100,4,2,0,90,0,0
50113,-100,4,1,0,80,0,0
51678,-100,4,2,0,90,0,0
52199,-100,4,1,1,60,0,0
54026,-100,4,2,0,90,0,0
54286,-100,4,1,1,60,0,0
54417,-100,4,2,0,90,0,0
54808,-100,4,1,1,60,0,0
56113,-100,4,2,0,90,0,0
56373,-100,4,1,1,60,0,0
58199,-100,4,2,0,80,0,0
58460,-100,4,1,1,60,0,0
58852,-100,4,1,1,60,0,0
60808,-100,4,2,0,90,0,0
61069,-100,4,1,1,60,0,0
61330,-100,4,2,0,90,0,0
61460,-100,4,1,1,60,0,0
63417,-100,4,2,0,90,0,0
64199,-100,4,1,1,60,0,0
64460,-100,4,2,0,90,0,0
64721,-100,4,1,1,60,0,0
64982,-100,4,2,0,90,0,0
65243,-100,4,1,1,60,0,0
65504,-100,4,2,0,90,0,0
65765,-100,4,1,1,60,0,0
66026,-100,4,2,0,90,0,0
66286,-100,4,1,1,60,0,0
66547,-100,4,2,0,90,0,0
66808,-100,4,1,1,45,0,0
67852,-100,4,2,2,60,0,0
69026,-100,4,2,2,5,0,0
70460,-100,4,1,1,60,0,0
71765,-100,4,2,0,90,0,0
72026,-100,4,1,1,60,0,0
77373,-100,4,2,0,5,0,0
78808,-100,4,1,1,60,0,0
79591,-100,4,2,0,90,0,0
79852,-100,4,1,1,60,0,0
80113,-100,4,2,0,90,0,0
80373,-100,4,1,1,60,0,0
85069,-76.9230769230769,4,1,0,80,0,0
85591,-100,4,1,2,80,0,1
104373,-100,4,1,2,80,0,0
104634,-100,4,2,0,90,0,0
121069,-100,4,2,0,30,0,0
123156,-100,4,2,0,15,0,0

[Colours]
Combo1 : 255,149,202
Combo2 : 128,0,255
Combo3 : 255,0,128

[HitObjects]
124,128,2113,1,0,0:0:0:0:
68,188,2373,2,0,B|104:264|44:320,4,135,2|2|2|2|2,0:0|0:0|0:0|0:0|0:0,0:0:0:0:
153,86,4199,5,0,0:0:0:0:
80,123,4459,2,0,B|88:207|13:239,4,135,2|2|2|2|2,0:0|0:0|0:0|0:0|0:0,0:0:0:0:
196,58,6286,5,0,0:0:0:0:
112,68,6546,2,0,B|91:149|9:153,4,135,2|2|2|2|2,0:0|0:0|0:0|0:0|0:0,0:0:0:0:
216,154,8373,5,0,0:0:0:0:
292,124,8634,2,0,B|339:54|418:78,1,135,2|2,0:0|0:0,0:0:0:0:
348,180,9417,2,0,B|300:249|221:225,2,135,2|2|2,0:0|0:0|0:0,0:0:0:0:
372,104,10460,5,0,0:0:0:0:
428,164,10721,2,0,B|444:252|444:252|416:316,4,135,2|2|2|2|0,0:0|0:0|0:0|0:0|0:0,0:0:0:0:
348,164,12547,1,0,0:0:0:0:
316,240,12808,6,0,B|252:264|180:252,4,135,2|2|2|2|2,0:0|0:0|0:0|0:0|0:0,0:0:0:0:
320,320,14634,1,0,0:0:0:0:
244,352,14895,6,0,B|108:332,4,135,2|2|2|2|0,0:0|0:0|0:0|0:0|0:0,0:0:0:0:
236,272,16721,6,0,B|40:248,1,180
32,172,17504,1,0,0:0:0:0:
56,96,17765,1,0,0:0:0:0:
116,44,18026,2,0,B|160:40,3,30,0|0|0|8,0:0|0:0|0:0|0:0,0:0:0:0:
464,204,18808,5,4,0:0:0:0:
428,276,19069,2,0,B|424:328,2,45,0|0|8,0:0|0:0|0:0,0:0:0:0:
352,252,19591,2,0,B|264:192|196:280,1,180,0|0,0:0|0:0,0:0:0:0:
124,320,20373,1,8,0:0:0:0:
76,252,20634,6,0,B|72:152,1,90,0|4,0:0|0:0,0:0:0:0:
80,80,21156,2,0,B|40:40,2,45,0|0|8,0:0|0:0|0:0,0:0:0:0:
152,116,21678,2,0,B|252:164|304:56,1,180,0|8,0:0|0:0,0:0:0:0:
300,62,22460,1,8,0:0:0:0:
380,40,22721,1,0,0:0:0:0:
380,40,22852,1,0,0:0:0:0:
380,40,22982,1,4,0:0:0:0:
404,116,23243,6,0,B|396:168|416:212,1,90,0|8,0:0|0:0,0:0:0:0:
400,284,23765,2,0,B|404:357|289:386|265:300,1,180,0|8,0:0|0:0,0:0:0:0:
324,256,24547,1,8,0:0:0:0:
400,284,24808,1,0,0:0:0:0:
436,300,24939,1,0,0:0:0:0:
472,316,25069,1,4,0:0:0:0:
456,168,25330,6,0,L|508:152,2,45,0|0|8,0:0|0:0|0:0,0:0:0:0:
376,192,25852,1,0,0:0:0:0:
300,164,26113,2,0,B|252:140|180:144,1,90,0|8,0:0|0:0,0:0:0:0:
140,108,26634,1,8,0:0:0:0:
124,188,26895,2,0,B|108:240,2,45,0|8|4,0:0|0:0|0:0,0:0:0:0:
44,200,27417,5,0,0:0:0:0:
36,280,27678,1,8,0:0:0:0:
116,300,27939,2,0,B|224:284|260:384,1,180
336,360,28721,1,8,0:0:0:0:
376,288,28982,1,0,0:0:0:0:
452,312,29243,1,4,0:0:0:0:
436,232,29504,6,0,B|432:160,2,45,0|0|8,0:0|0:0|0:0,0:0:0:0:
448,104,30026,1,0,0:0:0:0:
368,92,30286,2,0,B|176:80,1,180,0|8,0:0|0:0,0:0:0:0:
112,96,31069,1,8,0:0:0:0:
72,100,31199,1,0,0:0:0:0:
32,96,31330,1,4,0:0:0:0:
28,176,31591,5,0,0:0:0:0:
104,272,31982,1,8,0:0:0:0:
192,192,32373,1,0,0:0:0:0:
252,292,32765,2,0,P|304:328|380:328,1,135,8|8,0:0|0:0,0:0:0:0:
432,276,33417,5,4,0:0:0:0:
400,200,33678,2,0,P|388:144|400:40,1,135,0|8,0:0|0:0,0:0:0:0:
112,28,34460,2,0,P|124:84|112:188,1,135,8|8,0:0|0:0,0:0:0:0:
200,124,35504,6,0,B|256:136|320:104,1,90,0|2,0:0|0:0,0:0:0:0:
320,44,36026,2,0,B|416:0|484:76,1,180,0|0,0:0|0:0,0:0:0:0:
476,236,37069,2,0,B|380:280|312:204,1,180,0|0,0:0|0:0,0:0:0:0:
372,148,37852,1,2,0:0:0:0:
448,176,38113,2,0,B|428:279|327:291,1,180,0|0,0:0|0:0,0:0:0:0:
172,252,39156,1,0,0:0:0:0:
92,232,39417,6,0,B|40:144,1,90,2|4,0:0|0:0,0:0:0:0:
84,80,39939,1,2,0:0:0:0:
164,64,40199,2,0,B|212:72|280:52,2,90,0|0|0,0:0|0:0|0:0,0:0:0:0:
176,224,41243,1,0,0:0:0:0:
124,288,41504,1,2,0:0:0:0:
72,348,41765,6,0,B|140:332|192:368,1,90,0|2,0:0|0:0,0:0:0:0:
240,372,42286,2,0,B|288:384|288:384|344:384|388:356|384:292,1,180,0|4,0:0|0:0,0:0:0:0:
368,236,43069,1,0,0:0:0:0:
368,236,43199,1,0,0:0:0:0:
400,164,43460,1,0,0:0:0:0:
400,164,43591,1,0,0:0:0:0:
360,92,43852,6,0,B|316:80|256:88,1,90,0|2,0:0|0:0,0:0:0:0:
168,168,44373,2,0,B|212:180|272:172,2,90,0|2|0,0:0|0:0|0:0,0:0:0:0:
32,84,45417,5,0,0:0:0:0:
92,32,45678,2,0,B|120:88|100:132,1,90,2|4,0:0|0:0,0:0:0:0:
40,228,46330,1,0,0:0:0:0:
28,268,46460,1,0,0:0:0:0:
60,344,46721,2,0,B|160:392|216:280,1,180,2|2,0:0|0:0,0:0:0:0:
228,212,47504,2,0,B|240:160|268:96,1,90,0|2,0:0|0:0,0:0:0:0:
336,140,48026,6,0,P|368:212|360:352,2,180
172,132,49591,1,0,0:0:0:0:
140,204,49852,2,0,B|87:208|59:171,1,90,2|0,0:0|0:0,0:0:0:0:
84,52,50504,1,2,2:0:0:0:
124,44,50634,2,0,B|164:23|212:31,1,90,0|2,0:0|2:0,0:0:0:0:
256,100,51156,2,0,B|312:160|376:112,2,135,0|0|0,0:0|0:0|0:0,0:0:0:0:
272,216,52199,6,0,B|269:264|229:300|165:284|133:248,1,180,4|0,0:0|0:0,0:0:0:0:
36,136,53243,2,0,B|240:160,1,180,0|0,0:0|0:0,0:0:0:0:
272,100,54026,1,2,0:0:0:0:
192,84,54286,6,0,B|64:68,2,90,4|2|0,0:0|0:0|0:0,0:0:0:0:
348,112,55330,1,0,0:0:0:0:
240,232,55852,1,0,0:0:0:0:
192,168,56113,2,0,B|248:140|312:180,1,90,2|4,0:0|0:0,0:0:0:0:
176,284,56895,6,0,P|256:312|324:232,2,180,0|0|0,0:0|0:0|0:0,0:0:0:0:
136,212,58199,1,2,0:0:0:0:
180,148,58460,2,0,B|372:148,1,180,4|0,0:0|0:0,0:0:0:0:
472,264,59504,2,0,B|280:264,1,180,4|0,0:0|0:0,0:0:0:0:
212,248,60286,1,2,0:0:0:0:
248,324,60547,6,0,B|204:340|148:356,1,90,4|2,0:0|0:0,0:0:0:0:
88,320,61069,2,0,B|44:336|-12:352,1,90,0|0,0:0|0:0,0:0:0:0:
16,268,61591,2,0,B|-32:172|28:84,1,180,0|0,0:0|0:0,0:0:0:0:
180,64,62634,6,0,B|228:160|168:248,1,180,4|0,0:0|0:0,0:0:0:0:
96,252,63417,2,0,B|284:280,1,180,2|2,0:0|0:0,0:0:0:0:
344,240,64199,2,0,B|416:252,2,45,0|0|2,0:0|0:0|0:0,0:0:0:0:
332,160,64721,6,0,B|324:32,1,90,4|2,0:0|0:0,0:0:0:0:
408,184,65243,2,0,B|428:72,1,90,0|2,0:0|0:0,0:0:0:0:
468,240,65765,2,0,B|516:128,2,90,0|2|0,0:0|0:0|0:0,0:0:0:0:
424,308,66547,1,2,0:0:0:0:
348,276,66808,6,2,B|364:324|328:368|264:360|240:304|268:268|268:268|104:248,1,360,2|4,0:0|0:0,0:0:0:0:
72,92,68373,1,0,0:0:0:0:
232,88,68895,1,4,0:0:0:0:
256,192,69026,12,0,70460,0:0:0:0:
160,52,70982,6,0,B|40:84|88:200,1,180,4|2,0:0|0:0,0:0:0:0:
128,256,71765,1,2,0:0:0:0:
208,244,72026,2,0,B|221:320|316:314,2,135,0|2|2,0:0|0:0|0:0,0:0:0:0:
288,236,73069,6,0,B|328:380,1,135,4|2,0:0|0:0,0:0:0:0:
384,260,73852,2,0,B|384:76,1,180,4|2,0:0|0:0,0:0:0:0:
460,56,74634,2,0,B|444:0,2,45,0|0|2,0:0|0:0|0:0,0:0:0:0:
480,136,75156,6,0,B|444:200|496:288,1,135,4|2,0:0|0:0,0:0:0:0:
392,348,75939,2,0,B|304:332,1,90,4|2,0:0|0:0,0:0:0:0:
220,312,76460,2,0,B|140:316,1,45,0|8,0:0|0:0,0:0:0:0:
180,232,76852,1,0,0:0:0:0:
180,232,76982,2,0,B|288:232,1,90,10|4,0:0|0:0,0:0:0:0:
256,192,77373,12,0,78808,0:0:0:0:
64,304,79330,6,0,B|116:308|172:296,1,90,4|0,0:0|0:0,0:0:0:0:
148,220,79852,2,0,B|96:216|40:228,1,90,2|2,0:0|0:0,0:0:0:0:
64,304,80373,2,0,B|100:220|76:116,1,180,0|2,0:0|0:0,0:0:0:0:
224,60,81417,6,0,B|176:120|200:208,2,135,4|2|2,0:0|0:0|0:0,0:0:0:0:
300,36,82460,2,0,B|344:48|404:32,2,90,4|0|8,0:0|0:0|0:0,0:0:0:0:
284,116,83243,1,2,0:0:0:0:
364,116,83504,5,6,0:0:0:0:
236,212,83895,1,6,0:0:0:0:
388,264,84286,1,6,0:0:0:0:
236,212,84678,5,0,0:0:0:0:
236,212,84808,1,0,0:0:0:0:
140,252,85069,2,2,P|60:304|48:232,1,175.499991966248,2|0,0:0|0:0,0:0:0:0:
48,184,85591,6,0,B|117:176|157:144,1,90,0|0,0:0|0:0,0:0:0:0:
132,76,86113,2,0,B|60:56|-16:76,2,135,8|0|0,0:0|0:0|0:0,0:0:0:0:
212,92,87156,1,8,0:0:0:0:
288,64,87417,1,0,0:0:0:0:
364,92,87678,6,0,B|420:112|464:84,1,90,4|0,0:0|0:0,0:0:0:0:
460,172,88199,2,0,B|460:288|352:292,1,180,8|2,0:0|0:0,0:0:0:0:
304,232,88982,1,0,0:0:0:0:
304,232,89113,1,2,0:0:0:0:
256,296,89373,1,0,0:0:0:0:
256,296,89504,1,2,0:0:0:0:
184,356,89765,6,0,B|136:364|96:340,1,90,4|0,0:0|0:0,0:0:0:0:
152,284,90286,2,0,B|76:320|32:296|32:296|24:212,1,180,8|0,0:0|0:0,0:0:0:0:
56,164,91069,2,0,B|112:148|156:180,2,90,0|8|0,0:0|0:0|0:0,0:0:0:0:
40,84,91852,5,0,0:0:0:0:
112,52,92113,2,0,B|160:40|212:64,2,90,0|8|0,0:0|0:0|0:0,0:0:0:0:
148,124,92895,6,0,B|176:136|208:136,1,45,6|0,0:0|0:0,0:0:0:0:
376,188,93286,2,0,B|348:176|316:176,3,45,0|2|0|2,0:0|0:0|0:0|0:0,0:0:0:0:
412,296,93939,6,0,B|400:340|336:352,1,90,4|0,0:0|0:0,0:0:0:0:
268,336,94460,2,0,B|96:324,2,135,8|0|0,0:0|0:0|0:0,0:0:0:0:
236,260,95504,2,0,B|136:252,1,90,8|0,0:0|0:0,0:0:0:0:
80,300,96026,5,0,0:0:0:0:
64,220,96286,2,0,B|52:152,1,45,0|8,0:0|0:0,0:0:0:0:
104,64,96808,1,8,0:0:0:0:
168,112,97069,2,0,B|216:164|308:136,2,135,4|2|2,0:0|0:0|0:0,0:0:0:0:
236,68,98113,6,0,B|262:24|315:40,1,90,0|0,0:0|0:0,0:0:0:0:
388,76,98634,2,8,B|416:160,1,90,8|0,0:0|0:0,0:0:0:0:
412,244,99156,6,0,B|340:208|276:264,2,135,4|8|0,0:0|0:0|0:0,0:0:0:0:
384,320,100199,2,0,B|328:344,2,45,4|0|2,0:0|0:0|0:0,0:0:0:0:
224,356,100721,2,0,B|160:364,1,45,0|2,0:0|0:0,0:0:0:0:
124,256,101113,2,0,B|56:232,1,45,0|2,0:0|0:0,0:0:0:0:
152,140,101504,2,0,B|112:76,2,45,0|2|0,0:0|0:0|0:0,0:0:0:0:
184,164,101895,2,2,B|272:188,1,90,0|2,0:0|0:0,0:0:0:0:
300,160,102286,5,10,0:0:0:0:
300,160,102417,1,14,0:0:0:0:
304,332,102678,1,10,0:0:0:0:
304,332,102808,1,14,0:0:0:0:
388,164,103069,1,10,0:0:0:0:
388,164,103199,1,10,0:0:0:0:
240,264,103460,1,10,0:0:0:0:
240,264,103591,1,10,0:0:0:0:
392,272,103852,2,2,B|432:240|460:284|412:312,1,90,2|4,0:0|0:0,0:0:0:0:
360,356,104373,5,4,0:0:0:0:
280,356,104634,2,0,B|184:336|116:400,4,135,2|2|2|2|2,0:0|0:0|0:0|0:0|0:0,0:0:0:0:
336,296,106460,5,4,0:0:0:0:
264,256,106721,2,0,B|190:190|99:212,4,135,2|2|2|2|2,0:0|0:0|0:0|0:0|0:0,0:0:0:0:
332,212,108547,5,4,0:0:0:0:
292,140,108808,2,0,B|256:80|148:56,1,135,2|2,0:0|0:0,0:0:0:0:
68,104,109591,2,0,B|104:164|212:188,2,135,2|2|2,0:0|0:0|0:0,0:0:0:0:
124,48,110634,5,4,0:0:0:0:
196,88,110895,1,2,0:0:0:0:
252,196,111286,1,2,0:0:0:0:
148,260,111678,1,2,0:0:0:0:
80,160,112069,1,2,0:0:0:0:
296,320,112460,6,0,B|192:316,1,90,2|4,0:0|0:0,0:0:0:0:
232,240,112982,2,0,B|296:220|364:240,4,135,2|2|2|2|2,0:0|0:0|0:0|0:0|0:0,0:0:0:0:
224,160,114808,5,4,0:0:0:0:
296,124,115069,2,0,B|356:80|356:80|372:0,4,135,2|2|2|2|2,0:0|0:0|0:0|0:0|0:0,0:0:0:0:
220,96,116895,5,4,0:0:0:0:
172,160,117156,2,0,B|168:240|220:324,3,135,2|2|2|2,0:0|0:0|0:0|0:0,0:0:0:0:
320,316,118721,1,0,0:0:0:0:
364,248,118982,1,4,0:0:0:0:
444,228,119243,2,0,B|456:288|540:308,2,90
392,168,120026,5,0,0:0:0:0:
392,128,120156,1,4,0:0:0:0:
240,44,120417,1,0,0:0:0:0:
240,84,120547,2,0,B|208:140|264:208|228:280,1,180,4|0,0:0|0:0,0:0:0:0:
256,192,121199,12,0,127330,0:0:0:0:
