osu file format v9

[General]
AudioFilename: 03.Mighty Girl of the Supernatural(Voc)(10-11).mp3
AudioLeadIn: 3000
PreviewTime: 108710
Countdown: 0
SampleSet: Normal
StackLeniency: 0.3
Mode: 0
LetterboxInBreaks: 1
EpilepsyWarning: 1

[Editor]
DistanceSpacing: 0.8
BeatDivisor: 4
GridSize: 8

[Metadata]
Title:Mighty Girl of the Supernatural
Artist:Ryu-5150
Creator:X_Force
Version:Mighty Force
Source:Touhou
Tags:Faith is for the Transient People symphonic metal Mountain of Faith

[Difficulty]
HPDrainRate:8
CircleSize:4
OverallDifficulty:9
ApproachRate:9
SliderMultiplier:2
SliderTickRate:1

[Events]
//Background and Video events
0,0,"background.jpg"
//Break Periods
2,2883,4609
2,5409,7135
2,23093,27346
2,81198,87977
2,144356,163767
//Storyboard Layer 0 (Background)
//Storyboard Layer 1 (Fail)
//Storyboard Layer 2 (Pass)
//Storyboard Layer 3 (Foreground)
//Storyboard Sound Samples
//Background Colour Transformations
3,100,163,162,255

[TimingPoints]
1420,315.789473684211,4,1,1,80,1,0
58262,-100,4,1,1,80,0,1
67420,-100,4,1,1,80,0,0
68367,-100,4,1,1,80,0,1
80998,-100,4,1,1,80,0,0
88577,-200,4,1,1,80,0,0
98683,-100,4,1,1,80,0,0
118893,-100,4,1,1,80,0,1
127735,-100,4,1,1,80,0,0
128998,-100,4,1,1,80,0,1
141314,-100,4,1,1,80,0,0
207314,-100,4,1,1,80,0,1
239841,-100,4,1,1,80,0,0

[Colours]
Combo1 : 252,92,92
Combo2 : 111,232,85
Combo3 : 122,122,252

[HitObjects]
256,304,2209,1,0
256,192,2367,1,0
256,192,2446,1,0
256,192,2525,1,0
256,192,2604,1,0
256,192,2683,1,4
256,192,5209,5,4
64,56,7735,5,4
448,56,8998,1,4
120,288,10261,1,4
384,280,10893,1,4
176,144,11525,1,4
336,144,11840,1,4
256,200,12156,5,4
256,184,12235,1,0
256,168,12314,1,0
248,152,12393,1,0
240,136,12472,1,4
232,120,12551,1,0
224,104,12630,1,0
216,88,12709,1,0
208,72,12788,6,0,B|160:72|120:112,1,100,4|8
176,168,13104,2,0,B|224:168|264:128,1,100,0|8
288,56,13419,2,0,B|336:56|376:96,1,100,0|8
436,212,13735,1,0
448,232,13814,1,0
460,253,13893,1,8
416,336,14051,6,0,B|368:336|328:296,1,100,0|8
304,216,14367,2,0,B|256:192|208:216,1,100,0|8
184,296,14683,2,0,B|143:336|95:336,1,100,0|8
32,240,14998,1,0
32,216,15077,1,0
32,192,15156,1,8
32,112,15314,6,0,B|72:64|72:64|112:64,1,100,0|8
136,144,15630,2,0,B|173:144|173:144|213:96,1,100,0|8
264,32,15946,2,0,B|301:32|301:32|341:80,1,100,0|8
412,188,16261,1,0
424,208,16340,1,0
436,229,16419,1,8
384,296,16577,6,0,B|336:336|336:336|296:336,1,100,0|8
256,264,16893,2,0,B|240:240|240:240|168:240,1,100,0|8
104,288,17209,2,0,B|64:264|64:264|64:208,1,100,0|8
104,88,17525,1,0
124,76,17604,1,0
145,63,17683,1,8
200,120,17840,6,0,B|224:168|280:168,1,100,0|8
352,128,18156,2,0,B|400:128|432:184,1,100,0|8
368,296,18472,1,0
352,312,18551,1,0
336,328,18630,1,0
320,344,18709,1,0
296,344,18788,1,0
272,344,18867,1,0
248,344,18946,1,0
184,304,19104,6,0,B|184:248|184:248|152:216,1,100,0|8
72,232,19419,2,0,B|40:192|40:192|40:144,1,100,0|8
128,48,19735,1,0
152,48,19814,1,0
176,48,19893,1,0
200,48,19972,1,0
224,48,20051,1,0
240,64,20130,1,0
256,80,20209,1,0
272,96,20288,1,0
288,112,20367,6,0,B|312:136|312:136|312:208,1,100,0|8
256,264,20683,2,0,B|165:316,1,100,0|8
176,232,20998,2,0,B|72:232,1,100,0|8
120,160,21314,2,0,B|29:108,1,100,0|8
160,48,21630,1,0
160,48,21709,1,0
160,48,21788,1,8
240,48,21946,2,0,B|296:48|296:48|328:80,1,100,0|8
424,160,22261,5,0
424,184,22340,1,0
424,208,22419,1,0
424,232,22498,1,0
424,256,22577,1,8
88,192,22893,1,4
192,304,27946,6,0,B|143:304|143:304|120:256,1,100,0|8
96,184,28262,2,0,B|144:184|144:184|168:136,1,100,0|8
272,64,28577,1,0
296,64,28656,1,0
320,64,28735,1,8
360,136,28893,2,0,B|409:136|409:136|440:96,2,100,0|8|0
256,320,29525,1,2
176,96,29841,5,0
104,64,29998,1,8
336,288,30314,1,0
408,320,30472,1,8
176,288,30788,1,0
104,320,30946,1,8
336,96,31262,1,2
408,64,31419,6,0,B|448:96|448:96|448:144,1,100,0|8
376,184,31735,2,0,B|376:232|376:232|416:264,1,100,0|8
416,352,32051,1,2
416,352,32130,1,0
416,352,32209,1,0
416,352,32288,1,0
416,352,32367,1,8
320,352,32525,2,0,B|216:352,2,100,0|8|0
416,352,32998,6,0,B|480:304|480:304|480:184,1,200,2|8
328,136,33630,1,0
184,136,33788,1,2
256,256,33946,1,0
256,176,34104,1,0
256,96,34261,1,2
64,272,34577,1,2
85,284,34656,1,0
105,296,34735,1,0
126,308,34814,1,0
144,320,34893,6,0,B|248:320,1,100,0|8
344,248,35209,2,0,B|240:248,1,100,0|8
176,192,35525,2,0,B|176:144|176:144|216:112,1,100,0|8
336,192,35841,2,0,B|336:240|336:240|296:272,1,100,0|8
256,192,36156,1,0
256,192,36235,1,0
256,192,36314,1,8
336,192,36472,1,0
176,192,36630,1,8
256,88,36788,5,2
256,112,36867,1,0
256,136,36946,1,0
256,160,37025,1,0
256,184,37104,1,8
176,192,37262,1,0
336,192,37420,1,2
256,328,37735,1,2
424,80,38051,6,0,B|368:80|336:120,1,100,4|8
296,192,38367,2,0,B|252:192|208:144,1,100,0|8
152,88,38683,2,0,B|104:128|104:176,1,100,0|8
144,296,38998,1,0
164,308,39077,1,0
185,320,39156,1,8
264,336,39314,2,0,B|320:336|344:280,1,100,0|8
288,224,39630,2,0,B|320:176|376:176,1,100,0|8
448,208,39946,6,0,B|496:184|496:120,1,100,0|8
392,48,40262,1,2
368,48,40341,1,0
344,48,40420,1,0
320,48,40498,1,0
296,48,40577,2,0,B|248:48|208:88,1,100,0|8
160,152,40893,2,0,B|110:152|72:112,2,100,0|8|0
256,112,41367,1,2
352,152,41525,1,0
256,192,41683,1,0
256,192,41762,1,0
256,192,41841,1,8
160,232,41998,5,2
256,272,42156,1,8
352,232,42314,2,0,B|400:232|440:272,1,100,2|8
512,344,42630,1,2
424,384,42788,1,8
184,320,43104,6,0,B|131:320|96:360,2,100,0|8|0
288,320,43577,1,0
360,296,43735,2,0,B|408:264|408:208,1,100,0|8
336,168,44051,1,0
344,88,44209,1,8
216,80,44367,1,0
216,80,44446,1,0
216,80,44525,1,8
122,130,44683,5,2
176,192,44841,1,8
136,264,44998,2,0,B|117:313|60:330,2,100,2|8|2
176,192,45472,1,8
256,104,45630,6,0,B|312:104|344:144,1,100,0|8
256,280,45946,2,0,B|200:280|168:240,1,100,0|8
218,112,46262,2,0,B|269:88|315:111,1,100,0|8
293,271,46577,2,0,B|242:295|196:272,1,100,0|8
184,136,46893,6,0,B|220:92|271:94,2,100,0|8|0
184,136,47367,1,2
328,248,47525,2,0,B|291:291|240:289,2,100,0|8|0
328,248,47999,1,2
220,68,48156,6,0,B|171:68|140:124,1,100,4|8
292,68,48472,2,0,B|340:68|372:124,1,100,0|8
452,224,48788,1,0
323,237,48946,1,8
375,355,49104,1,0
247,369,49262,1,8
152,280,49420,5,0
139,259,49498,1,0
127,238,49577,1,8
88,168,49735,2,0,B|120:120|176:120,1,100,0|8
224,184,50051,2,0,B|280:184|304:136,1,100,0|8
360,72,50367,1,0
384,72,50446,1,0
408,72,50525,1,8
472,184,50683,6,0,B|472:232|472:232|448:280,1,100,0|8
376,312,50998,2,0,B|376:264|376:264|400:216,1,100,0|8
400,112,51314,1,2
312,48,51472,1,8
200,40,51630,2,0,B|168:72|168:72|168:128,1,100,2|8
128,304,51946,5,6
384,304,52261,1,0
208,200,52577,1,4
304,184,52735,1,0
144,168,52893,1,0
368,216,53051,1,0
432,168,53209,6,0,B|408:120|344:120,1,100,4|8
296,176,53525,2,0,B|248:176|216:120,1,100,0|8
88,120,53841,1,0
88,120,53920,1,0
88,120,53998,1,8
64,248,54157,6,0,B|88:296|144:296,1,100,0|8
192,232,54472,2,0,B|248:232|280:280,1,100,0|8
400,320,54788,1,0
400,320,54867,1,0
400,320,54946,1,8
464,208,55104,5,0
416,88,55262,1,8
328,184,55420,1,0
280,64,55577,1,8
160,112,55735,1,2
160,112,55814,1,0
160,112,55893,1,8
256,200,56051,5,2
256,200,56130,1,0
256,200,56209,1,8
256,328,56367,1,2
256,200,56525,1,0
256,200,56604,1,0
256,200,56683,1,10
256,72,56841,1,0
256,192,56998,12,4,57946
104,328,58261,6,0,B|80:288|80:288|80:232,1,100,4|8
160,256,58577,2,0,B|160:202|160:202|136:162,1,100,0|8
64,56,58893,1,0
84,44,58972,1,0
105,32,59051,1,8
232,56,59209,1,0
352,104,59367,1,8
416,216,59525,6,0,B|432:240|432:240|432:312,1,100,0|8
312,264,59840,2,0,B|336:240|336:240|336:152,1,100,0|8
224,240,60156,2,8,B|200:272|200:272|200:336,1,100,0|8
96,256,60472,2,0,B|72:224|72:224|72:160,1,100,0|8
144,56,60788,6,0,B|192:56|192:56|232:88,1,100,0|8
184,152,61104,2,0,B|216:184|216:184|272:184,1,100,0|8
336,72,61420,1,0
356,84,61498,1,0
377,96,61577,1,8
440,176,61735,2,0,B|440:224|440:224|400:256,1,100,0|8
328,296,62051,6,0,B|375:304,1,50
320,304,62209,2,0,B|361:328,1,50
312,312,62367,2,0,B|342:348,1,50
304,320,62525,2,0,B|323:372|320:365,1,50
296,328,62683,2,2,B|256:328|192:320|144:288|112:256,1,200
48,40,63314,6,0,B|48:96|96:128,1,100,4|8
160,88,63630,2,0,B|200:120|200:176,1,100,0|8
111,271,63946,1,0
128,288,64025,1,0
144,304,64104,1,8
256,240,64262,1,0
304,360,64420,1,8
416,296,64577,6,0,B|360:296|320:272,1,100,0|8
408,176,64893,2,0,B|344:176|304:168,1,100,0|8
376,56,65209,2,0,B|312:56|272:80,1,100,0|8
128,128,65525,2,0,B|192:128|232:104,1,100,0|8
144,208,65841,2,0,B|224:208|248:200,1,100,0|8
168,312,66156,2,0,B|232:312|264:288,1,100,0|8
328,240,66472,6,0,B|364:270,1,50
336,232,66630,2,0,B|388:251,1,50
344,224,66788,2,0,B|392:224,1,50
352,216,66946,2,0,B|397:199,1,50
352,208,67104,2,2,B|344:160|320:112|264:80|216:72,1,200
80,288,67735,1,0
432,96,68051,1,0
416,256,68367,6,0,B|448:296|448:352,1,100,4|8
368,328,68683,2,0,B|336:296|336:232,1,100,0|8
384,176,68998,2,0,B|360:136|296:136,1,100,0|8
168,128,69314,1,0
147,140,69393,1,0
126,151,69472,1,8
80,216,69630,6,0,B|80:272|120:304,1,100,0|8
144,224,69946,2,0,B|144:280|184:312,1,100,0|8
208,232,70262,2,0,B|208:288|248:320,1,100,0|8
368,272,70577,1,0
388,260,70656,1,0
409,248,70735,1,8
416,168,70893,6,0,B|416:112|416:112|384:80,1,100,0|8
360,160,71209,2,0,B|360:104|360:104|328:72,1,100,0|8
304,152,71525,2,0,B|304:96|304:96|272:64,1,100,0|8
152,112,71841,1,0
152,112,71920,1,0
152,112,71998,1,8
168,192,72156,6,0,B|168:248|216:272,1,100,0|8
344,192,72472,2,0,B|344:136|296:112,1,100,0|8
256,192,72788,1,0
256,192,72867,1,0
256,192,72946,1,0
256,192,73025,1,0
256,192,73104,1,0
256,192,73183,1,0
256,192,73262,1,0
256,272,73420,6,0,B|208:272|160:240,1,100,0|8
96,200,73735,2,0,B|96:144|128:104,1,100,0|8
232,32,74051,1,0
256,32,74130,1,0
280,32,74209,1,8
328,152,74367,1,0
456,136,74525,1,8
456,216,74682,6,0,B|456:272|456:272|424:304,1,100,0|8
344,320,74998,2,0,B|344:264|344:264|376:232,1,100,0|8
336,160,75314,2,0,B|336:112|296:72,1,100,0|8
216,72,75629,2,0,B|216:128|256:160,1,100,0|8
264,240,75946,6,0,B|360:296,1,100,2|8
248,138,76262,2,0,B|157:85,1,100,2|8
205,197,76577,2,0,B|149:293,1,100,2|8
306,181,76893,2,0,B|362:84,1,100,2|8
256,192,77209,1,2
80,64,77841,1,0
432,64,78156,1,0
256,192,78472,12,4,80998
256,312,88577,6,0,B|360:312|360:312|424:240,1,200
424,240,89367,1,8
256,48,89683,1,8
256,48,89841,2,0,B|152:48|152:48|88:120,1,200
56,192,90630,1,8
80,264,90788,1,0
144,304,90946,1,8
304,304,91104,6,0,B|344:264|344:264|344:216,1,100
344,224,91577,1,8
256,40,91893,1,8
256,40,92051,2,0,B|176:40|176:40|144:104,1,150
144,104,92683,1,8
144,296,92998,1,2
256,192,93314,1,2
320,152,93472,1,0
384,192,93630,6,0,B|352:280|352:280|256:336,1,200,2|0
192,296,94420,1,8
128,256,94577,1,0
156,184,94735,1,8
192,116,94893,2,0,B|256:56|256:56|368:80,1,200
432,120,95683,5,8
456,192,95841,1,0
432,264,95998,1,8
320,328,96156,2,0,B|264:360,1,50,0|2
232,232,96472,2,0,B|292:210,1,50,0|2
176,136,96788,2,0,B|115:114,1,50,0|2
256,192,97104,12,4,98367
304,256,98683,6,0,B|344:216|392:216,1,100,4|8
432,288,98998,2,0,B|392:328|344:328,1,100,0|8
216,304,99314,1,0
195,292,99393,1,0
174,280,99472,1,8
80,192,99630,1,0
144,80,99788,1,8
232,176,99946,6,0,B|288:176|320:136,1,100,0|8
256,88,100262,2,0,B|288:48|344:48,1,100,0|8
432,144,100577,1,0
432,144,100656,1,0
432,144,100735,1,8
448,272,100893,1,0
336,336,101051,1,8
208,336,101209,6,2,B|104:304|104:176,1,200
104,184,101683,1,8
320,48,101998,1,8
320,48,102156,2,2,B|432:96|432:200,1,200
384,320,102630,5,8
256,320,102788,1,2
256,320,102867,1,0
256,320,102946,1,0
320,208,103104,1,8
192,208,103262,1,2
192,208,103341,1,0
192,208,103420,1,0
256,96,103577,1,8
136,48,103735,6,0,B|96:72|96:72|96:128,1,100,4|8
168,160,104051,2,0,B|168:208|168:208|128:248,1,100,0|8
72,296,104367,2,0,B|112:336|112:336|160:336,1,100,0|8
280,304,104683,1,0
292,283,104762,1,0
304,262,104841,1,8
240,152,104998,1,0
352,88,105156,1,8
424,160,105314,6,0,B|464:192|464:192|464:240,1,100,0|8
392,272,105630,2,0,B|360:240|360:240|360:184,1,100,0|8
296,72,105946,1,0
232,184,106104,1,8
184,64,106262,2,0,B|136:64|136:64|96:96,1,100,0|8
152,152,106577,2,0,B|152:208|152:208|120:240,1,100,0|8
64,296,106893,6,0,B|104:328|104:328|152:328,2,100,0|2|8
88,168,107367,1,2
200,232,107525,1,8
216,104,107683,1,2
328,168,107841,1,8
344,40,107998,1,2
456,104,108156,5,0
456,128,108235,1,0
456,152,108314,1,0
456,176,108393,1,0
448,200,108472,1,0
440,224,108551,1,0
432,248,108630,1,0
424,272,108709,1,0
416,296,108788,6,0,B|384:336|384:336|336:336,1,100,4|8
256,336,109104,2,0,B|216:296|216:296|216:248,1,100,0|8
272,136,109420,1,0
272,136,109499,1,0
272,136,109578,1,8
176,52,109735,1,0
100,156,109893,1,8
100,240,110051,6,0,B|100:304|100:304|124:336,2,100,0|2|8
100,240,110525,1,0
200,160,110683,1,2
200,160,110762,1,0
200,160,110841,1,0
248,280,110998,1,2
336,184,111156,1,8
416,288,111314,6,2,B|472:232|472:232|472:112,1,200
472,112,111788,1,8
360,48,111946,1,0
256,128,112104,1,8
152,48,112262,2,0,B|104:48|104:48|72:88,1,100,0|8
72,88,112577,1,2
256,272,112893,1,2
368,40,113209,1,2
304,152,113367,1,8
432,128,113525,1,0
368,240,113683,1,8
480,304,113841,6,0,B|440:336|440:336|392:336,1,100,0|8
408,256,114156,2,0,B|352:256|352:256|320:288,1,100,0|8
256,336,114472,1,0
192,288,114630,1,8
72,336,114788,1,0
72,336,114867,1,0
72,336,114946,1,8
48,264,115104,6,0,B|48:208|48:208|88:184,1,100,0|8
144,240,115420,2,0,B|176:216|176:216|176:152,1,100,0|8
256,56,115735,1,0
384,80,115893,1,8
288,168,116051,1,0
416,192,116209,1,8
328,288,116367,5,2
340,308,116446,1,0
352,329,116525,1,8
240,216,116683,1,2
252,236,116762,1,0
264,257,116841,1,8
152,144,116998,1,2
164,164,117077,1,0
176,185,117156,1,8
64,72,117314,1,2
76,92,117393,1,0
88,113,117472,1,8
200,48,117630,5,2
400,176,117867,1,2
376,24,118104,1,2
296,120,118262,1,0
278,137,118341,1,0
261,154,118420,1,0
244,171,118498,1,0
227,188,118577,1,0
211,204,118656,1,0
193,221,118735,1,0
176,238,118814,1,0
160,256,118893,6,0,B|120:296|120:296|120:344,1,100,4|8
192,368,119209,2,0,B|248:368|248:368|272:328,1,100,0|8
344,304,119525,2,0,B|376:280|376:280|376:216,1,100,0|8
336,96,119841,1,0
315,83,119920,1,0
294,72,119998,1,8
216,72,120156,6,0,B|168:72|128:120,1,100,0|8
128,248,120472,2,0,B|128:296|176:336,1,100,0|8
304,336,120788,2,0,B|352:336|392:288,1,100,0|8
392,160,121104,2,0,B|392:112|344:72,1,100,0|8
216,72,121420,5,0
104,136,121577,1,8
200,224,121735,1,0
88,288,121893,1,8
200,352,122051,1,0
200,352,122130,1,0
200,352,122209,1,8
320,304,122367,1,0
440,352,122525,1,8
488,288,122683,6,0,B|488:232|448:200,1,100,0|8
392,256,122998,2,0,B|352:232|352:168,1,100,0|8
256,80,123314,1,0
232,80,123393,1,0
208,80,123472,1,0
184,80,123551,1,0
160,88,123630,1,0
136,96,123709,1,0
112,104,123788,1,0
88,112,123867,1,0
64,128,123946,6,0,B|24:160|24:216,1,100,4|8
120,160,124262,2,0,B|80:192|80:248,1,100,0|8
192,312,124577,1,0
240,192,124735,1,8
288,72,124893,1,0
416,56,125051,1,8
448,176,125209,6,0,B|408:208|352:208,1,100,0|8
432,312,125525,2,0,B|381:319|332:291,1,100,0|8
208,272,125841,2,0,B|215:322|187:371,1,100,0|8
128,256,126156,2,0,B|109:303|60:331,1,100,0|8
56,200,126472,6,0,B|106:207|155:179,1,100,0|8
80,72,126788,2,0,B|120:104|176:103,1,100,0|8
296,144,127104,2,0,B|288:93|316:44,1,100,0|8
392,152,127420,2,0,B|410:104|459:76,1,100,0|8
464,208,127735,1,0
256,352,128051,1,0
256,48,128367,1,2
32,176,128683,1,2
256,352,128998,6,0,B|302:339|328:282,1,100,4|8
250,270,129314,2,0,B|268:215|322:200,1,100,0|8
448,216,129630,1,0
448,192,129709,1,0
448,168,129788,1,8
448,40,129946,1,0
336,104,130104,1,8
248,8,130262,6,0,B|192:8|160:48,1,100,0|8
200,120,130577,2,0,B|168:168|112:168,1,100,0|8
48,208,130893,2,0,B|48:264|88:296,1,100,0|8
168,312,131209,2,0,B|168:248|128:224,1,100,0|8
80,104,131525,5,0
192,40,131683,1,8
216,168,131841,1,0
328,104,131998,1,8
392,216,132156,1,0
392,240,132235,1,0
392,264,132314,1,8
304,360,132472,1,0
216,264,132630,1,8
152,152,132788,6,0,B|208:152|256:192,1,100,0|8
360,232,133104,2,0,B|304:232|256:192,1,100,0|8
216,296,133420,2,0,B|216:240|256:192,1,100,0|8
296,88,133735,2,0,B|296:144|256:192,1,100,0|8
160,304,134051,6,0,B|208:344|256:344,1,100,0|8
256,264,134367,2,0,B|312:264|344:304,1,100,0|8
472,312,134683,1,0
472,312,134762,1,0
472,312,134841,1,8
424,192,134998,1,0
472,72,135156,1,8
400,40,135314,6,0,B|344:40|312:88,1,100,0|8
360,152,135630,2,0,B|328:192|272:192,1,100,0|8
152,144,135946,1,0
131,156,136025,1,0
110,168,136104,1,8
96,296,136262,1,0
216,344,136420,1,8
336,296,136577,6,0,B|392:296|424:256,2,100,2|8|2
336,296,137051,1,8
256,192,137209,1,2
256,192,137288,1,0
256,192,137367,1,8
256,192,137446,1,0
256,192,137525,1,0
256,64,137683,5,8
128,88,137841,1,0
128,296,138156,1,0
384,88,138472,1,2
256,192,138788,1,2
256,192,139104,12,0,141314
32,192,141630,5,0
480,192,141946,1,0
32,48,142262,1,0
480,48,142577,1,0
32,336,142893,1,0
480,336,143209,1,0
32,192,143525,1,0
480,192,143841,1,0
256,192,144156,1,4
152,64,164367,6,2,B|80:112|80:112|80:224,1,200,4|0
80,224,164841,1,8
320,320,165156,1,8
320,320,165314,2,0,B|360:288|360:288|360:240,1,100
360,160,165630,2,2,B|328:96|328:96|200:96,1,200
200,96,166104,1,8
152,352,166420,5,8
152,352,166577,2,0,B|208:352|208:352|240:320,1,100
320,320,166893,2,2,B|376:240|376:240|320:152,1,200
320,152,167367,1,8
80,64,167683,1,8
176,152,167841,1,0
80,240,167998,6,0,B|80:296|80:296|112:328,2,100,0|2|8
80,160,168472,2,2,B|136:80|136:80|240:80,1,200
240,80,168946,1,8
472,192,169262,1,8
472,272,169420,6,2,B|400:336|400:336|296:336,1,200
296,336,169893,1,8
80,192,170209,1,8
80,192,170367,2,0,B|80:144|80:144|112:104,1,100,0|8
184,64,170683,2,0,B|184:120|184:120|152:160,2,100,0|2|0
184,64,171156,1,8
432,128,171472,5,8
432,128,171630,2,0,B|432:184|432:184|400:216,1,100,0|8
360,144,171946,2,2,B|320:184|320:184|320:272|320:272|272:320,1,200
280,312,172420,1,8
48,192,172735,1,8
48,192,172893,2,0,B|48:144|48:144|80:104,1,100,0|8
80,24,173209,2,2,B|136:24|136:24|168:80|168:80|256:80,1,200
248,80,173683,1,8
432,264,173998,2,0,B|400:312|400:312|352:312,1,100,0|2
112,232,174472,5,0
160,168,174630,2,0,B|105:168|105:168|72:128,2,100,8|0|8
208,104,175104,1,0
256,168,175262,2,0,B|304:168|304:168|336:208,2,100,8|0|8
280,296,175735,6,0,B|226:296|226:296|192:264,1,100,0|8
256,216,176051,2,0,B|222:184|222:184|168:184,1,100,0|8
56,120,176367,1,0
152,32,176525,1,8
216,144,176683,1,0
312,56,176841,1,8
344,180,176998,6,0,B|400:180|400:180|432:212,1,100,0|8
376,268,177314,2,0,B|328:268|328:268|288:236,1,100,0|8
168,180,177630,2,0,B|112:180|112:180|80:212,1,100,0|8
136,268,177946,2,0,B|184:268|184:268|224:236,1,100,0|8
264,112,178262,5,0
288,112,178341,1,0
312,112,178420,1,0
336,112,178498,1,0
360,112,178577,1,0
376,128,178656,1,0
393,145,178735,1,0
410,162,178814,1,0
408,184,178893,2,0,B|408:240,3,50
408,256,179209,2,0,B|408:320,2,50
288,304,179525,5,0
208,304,179683,2,0,B|160:304|160:304|120:272,2,100,8|0|8
208,224,180156,1,0
288,224,180314,2,0,B|336:224|336:224|376:184,2,100,8|0|8
168,176,180788,5,0
256,80,180946,1,8
344,176,181104,1,0
256,272,181262,1,8
168,176,181420,2,0,B|168:128|168:128|208:96,1,100,0|8
344,176,181735,2,0,B|344:224|344:224|304:256,1,100,0|8
256,192,182051,12,4,184262
256,328,184577,6,2,B|352:328|408:216,1,200
408,216,185051,1,8
424,88,185209,1,0
312,152,185367,1,8
336,24,185525,2,0,B|280:24|248:64,1,100,0|8
176,104,185841,6,2,B|143:128|111:192|143:256|175:280,1,200
176,280,186314,1,8
432,320,186630,1,8
432,320,186788,2,0,B|472:288|472:232,1,100,0|8
480,104,187104,6,2,B|432:48|288:48,1,200
296,48,187577,1,8
184,112,187735,1,0
64,64,187893,1,8
40,192,188051,2,0,B|40:248|80:280,1,100,0|8
208,304,188367,5,2
304,80,188683,1,2
456,288,188998,1,2
344,224,189156,1,8
360,352,189314,1,0
248,288,189472,1,8
136,352,189630,6,0,B|88:320|88:264,1,100,0|8
168,264,189946,2,0,B|168:208|128:176,1,100,0|8
40,80,190262,1,0
61,69,190341,1,0
81,57,190420,1,8
200,104,190577,1,0
320,56,190735,1,8
448,40,190893,6,0,B|480:80|480:136,1,100,0|8
400,120,191209,2,0,B|400:176|432:216,1,100,0|8
432,344,191525,1,0
432,344,191604,1,0
432,344,191683,1,8
320,280,191841,1,0
208,344,191998,1,8
112,256,192156,5,2
99,235,192235,1,0
88,214,192314,1,8
216,232,192472,1,2
203,211,192551,1,0
192,190,192630,1,8
320,208,192788,1,2
307,187,192867,1,0
296,166,192946,1,8
424,184,193104,1,2
411,163,193183,1,0
400,142,193262,1,8
320,40,193420,5,2
144,120,193656,1,2
208,304,193893,1,2
256,192,194051,1,6
256,192,194367,12,4,197209
256,40,198472,5,4
48,192,199735,1,4
256,344,200998,1,4
464,192,202262,1,4
256,192,202893,1,0
256,40,203525,5,4
48,192,203841,1,0
256,344,204156,1,4
464,192,204472,1,0
256,192,204788,1,4
256,192,204946,1,0
256,192,205104,1,4
256,192,205262,1,0
256,192,205420,1,4
256,192,205577,1,0
256,192,205735,1,4
256,192,205893,1,0
256,192,206051,5,4
256,192,206130,1,0
256,192,206209,1,0
256,192,206288,1,0
256,192,206367,1,0
256,192,206446,1,0
256,192,206525,1,0
256,192,206604,1,0
256,192,206683,1,0
256,192,206762,1,0
256,192,206841,1,0
256,192,206920,1,0
256,192,206998,1,0
256,192,207077,1,0
256,192,207156,1,0
256,64,207314,6,0,B|208:64|208:64|168:96,1,100,4|8
232,152,207630,2,0,B|192:184|192:184|136:184,1,100,0|8
64,288,207946,1,0
84,300,208025,1,0
105,312,208104,1,8
232,336,208262,1,0
352,288,208420,1,8
252,208,208577,6,0,B|284:168|284:168|332:152,1,100,2|8
364,224,208893,2,0,B|416:204|416:204|432:160,1,100,2|8
384,96,209209,2,0,B|336:72|336:72|280:96,1,100,0|8
128,96,209525,2,0,B|176:72|176:72|232:96,1,100,0|8
80,162,209841,6,0,B|96:204|96:204|148:224,1,100,2|8
181,152,210157,2,0,B|228:168|228:168|260:208,1,100,2|0
256,336,210472,1,0
256,336,210551,1,0
256,336,210630,1,8
384,312,210788,1,0
320,200,210946,1,8
256,88,211104,5,2
256,88,211183,1,0
256,88,211262,1,8
160,176,211420,1,2
160,176,211499,1,0
160,176,211578,1,8
176,304,211735,1,2
176,304,211814,1,0
176,304,211893,1,8
304,328,212051,1,0
416,264,212209,1,8
400,136,212367,6,0,B|376:96|376:96|320:96,1,100,4|8
288,168,212683,2,0,B|232:168|232:168|208:128,1,100,0|8
136,40,212998,1,0
115,52,213077,1,0
94,64,213156,1,8
144,184,213314,1,0
56,280,213472,1,8
176,328,213630,6,0,B|224:328|224:328|264:296,1,100,0|8
216,232,213946,2,0,B|248:200|248:200|304:200,1,100,0|8
400,288,214262,1,0
448,168,214420,1,8
384,56,214577,1,0
256,32,214735,1,8
136,80,214893,5,2
124,100,214972,1,0
112,121,215051,1,8
240,136,215209,1,2
228,156,215288,1,0
216,177,215367,1,8
344,192,215525,1,2
332,212,215604,1,0
320,233,215683,1,8
448,248,215841,1,2
436,268,215920,1,0
424,289,215999,1,8
256,192,216156,12,0,217104
160,304,217420,6,0,B|216:304|248:256,1,100,0|8
208,136,217735,2,0,B|232:88|288:88,1,100,0|8
416,120,218051,1,0
424,144,218130,1,0
432,168,218209,1,0
440,192,218288,1,0
432,216,218367,1,0
424,240,218446,1,0
416,264,218525,1,0
408,288,218604,1,0
400,312,218683,6,0,B|368:352|312:352,1,100,0|8
288,224,218998,2,0,B|240:224|200:272,1,100,0|8
96,344,219314,1,0
32,232,219472,1,8
144,168,219630,1,0
96,48,219788,1,8
224,72,219946,6,0,B|275:72|312:112,1,100,0|8
224,208,220262,2,0,B|224:262|264:296,1,100,0|8
392,312,220577,2,0,B|448:312|480:264,1,100,0|8
440,144,220893,2,0,B|440:90|384:64,1,100,0|8
256,40,221209,5,0
232,40,221288,1,0
208,40,221367,1,0
184,40,221446,1,0
160,40,221525,1,0
136,48,221604,1,0
112,56,221683,1,0
88,72,221762,1,0
64,88,221841,1,0
48,112,221920,1,0
40,136,221999,1,0
32,160,222078,1,0
32,184,222157,1,0
32,208,222236,1,0
32,232,222315,1,0
32,256,222394,1,0
32,280,222472,6,0,B|32:328|32:328|72:360,1,100,4|8
200,360,222788,2,0,B|240:328|240:328|240:272,1,100,0|8
120,224,223104,2,0,B|120:176|120:176|152:136,1,100,0|8
248,224,223420,2,0,B|304:224|304:224|336:184,1,100,0|8
384,72,223735,5,2
256,48,223893,1,8
128,72,224051,1,2
256,48,224209,1,8
192,160,224367,2,0,B|160:200|160:200|160:256,1,100,2|0
320,160,224683,2,0,B|352:200|352:200|352:256,1,100,2|8
240,312,224998,5,0
360,360,225156,1,8
336,232,225314,1,0
456,280,225472,1,8
456,152,225630,1,0
440,128,225709,1,0
424,104,225788,1,0
408,80,225867,1,0
392,56,225946,1,0
376,32,226025,1,0
352,32,226104,1,0
328,32,226183,1,0
304,40,226262,1,0
280,48,226341,1,0
256,56,226420,1,0
232,64,226498,5,0
208,64,226577,1,0
184,56,226656,1,0
160,48,226735,1,0
136,40,226814,1,0
112,40,226893,1,0
88,56,226972,1,0
64,72,227051,1,0
56,96,227130,1,0
48,120,227209,1,0
40,144,227288,1,0
40,168,227367,1,0
40,192,227446,1,0
40,216,227525,6,0,B|40:264|80:304,1,100,0|8
160,312,227841,2,0,B|160:256|120:224,1,100,0|8
112,96,228156,1,0
112,96,228235,1,0
112,96,228314,1,8
224,32,228472,1,0
336,96,228630,1,8
400,208,228788,5,0
400,232,228867,1,0
400,256,228946,1,8
304,344,229104,1,0
256,224,229262,1,8
208,104,229420,2,0,B|160:104|120:152,1,100,0|8
80,272,229735,2,0,B|104:328|160:328,1,100,0|8
224,216,230051,6,0,B|280:216|312:264,1,100,0|8
424,320,230367,2,0,B|464:280|464:224,1,100,0|8
488,104,230683,1,0
376,40,230841,1,8
376,168,230998,1,0
264,104,231156,1,8
240,232,231314,5,0
224,256,231393,1,0
208,280,231472,1,0
192,304,231551,1,0
168,304,231630,1,0
144,304,231709,1,0
120,304,231788,1,0
112,280,231867,1,0
104,256,231946,1,0
96,232,232025,1,0
88,208,232104,1,0
80,184,232183,1,0
72,160,232262,2,0,B|72:112|112:72,1,100,0|8
176,120,232577,6,0,B|224:120|224:120|256:80,1,100,0|8
384,56,232893,2,0,B|424:80|424:80|424:136,1,100,0|8
424,264,233209,1,0
424,264,233288,1,0
424,264,233367,1,8
312,328,233525,1,0
192,280,233683,1,8
304,216,233841,5,0
304,216,233920,1,0
304,216,233998,1,8
416,152,234156,1,0
296,104,234314,1,8
176,152,234472,2,0,B|124:152|124:152|96:112,2,100,0|8|0
296,200,234946,1,8
392,288,235104,5,2
404,308,235183,1,0
416,329,235262,1,8
280,240,235420,1,2
292,260,235499,1,0
304,281,235578,1,8
176,184,235735,1,2
188,204,235814,1,0
200,225,235893,1,8
76,124,236051,1,2
88,144,236130,1,0
100,165,236209,1,8
152,48,236367,5,0
272,96,236525,1,8
224,216,236683,1,0
392,336,236998,1,2
120,336,237314,1,2
256,192,237630,12,0,239841
256,48,240156,6,0,B|312:48|312:48|344:80,1,100,4|8
288,136,240472,2,0,B|336:168|336:168|384:168,1,100,0|8
456,168,240788,2,0,B|456:216|456:216|424:256,1,100,0|8
320,336,241104,1,0
296,336,241183,1,0
272,336,241262,1,8
192,336,241420,6,0,B|136:336|136:336|104:304,1,100,0|8
160,248,241735,2,0,B|160:192|160:192|120:152,1,100,0|8
80,224,242051,2,0,B|48:184|48:184|48:128,1,100,0|8
152,56,242367,1,0
176,56,242446,1,0
200,56,242525,1,8
280,56,242683,6,0,B|328:56|368:104,1,100,0|8
296,144,242998,2,0,B|336:192|384:192,1,100,0|8
464,192,243314,2,0,B|464:248|424:280,1,100,0|8
304,328,243630,1,0
280,328,243709,1,0
256,328,243788,1,8
176,328,243946,6,0,B|128:328|88:288,1,100,0|8
72,208,244262,2,0,B|136:208|160:248,1,100,0|8
216,304,244577,2,0,B|256:272|256:216,1,100,0|8
256,84,244893,1,0
256,84,244972,1,0
256,84,245051,1,8
128,64,245209,6,0,B|88:104|88:104|88:152,1,100,0|8
168,160,245525,2,8,B|168:216|168:216|136:248,1,100,8|8
72,360,245841,1,0
96,360,245920,1,0
120,360,245998,1,0
144,360,246077,1,0
168,360,246156,1,0
192,360,246235,1,0
216,360,246314,1,0
344,360,246472,6,0,B|400:336|400:280,1,100,0|8
320,280,246788,2,0,B|320:224|368:200,1,100,0|8
448,96,247104,1,0
424,88,247183,1,0
400,80,247262,1,0
376,72,247341,1,0
352,72,247420,1,0
328,72,247498,1,0
304,72,247577,1,0
280,72,247656,1,0
256,72,247735,6,0,B|208:72|208:72|168:104,1,100,0|8
104,152,248051,2,0,B|72:192|72:192|72:240,1,100,0|8
120,304,248367,2,0,B|160:336|160:336|208:336,1,100,0|8
288,336,248683,2,0,B|336:312|336:248,1,100,0|8
416,232,248998,6,0,B|416:184|376:144,1,100,0|8
352,64,249314,2,0,B|296:64|256:96,1,100,0|8
256,176,249630,2,0,B|311:208,1,50
256,192,249788,2,0,B|207:220,1,50
80,64,250262,5,8
192,128,250420,1,8
432,64,250893,5,8
320,128,251051,1,8
256,360,251525,5,8
256,232,251683,1,8
192,128,252156,5,8
320,128,252314,1,12
80,320,252788,5,8
192,256,252946,1,8
432,320,253419,5,8
320,256,253577,1,8
256,24,254051,5,8
256,152,254209,1,8
192,256,254682,5,8
320,256,254840,1,12
256,192,255314,12,0,256262
176,144,256577,5,2
176,144,256656,1,0
176,144,256735,1,0
208,216,256893,1,8
304,128,257051,1,2
304,128,257130,1,0
304,128,257209,1,0
304,128,257288,1,0
304,128,257367,1,0
336,200,257525,1,8
256,336,257841,1,6
