osu file format v12

[General]
AudioFilename: 18. Ryu - Force of wind.mp3
AudioLeadIn: 2000
PreviewTime: 86798
Countdown: 0
SampleSet: Soft
StackLeniency: 0.7
Mode: 0
LetterboxInBreaks: 0

[Editor]
Bookmarks: 32543,65085,108475,130170,141050,151865,173560
DistanceSpacing: 0.8
BeatDivisor: 4
GridSize: 4

[Metadata]
Title:Force of Wind
TitleUnicode:Force of Wind
Artist:Ryu* vs. kors k
ArtistUnicode:Ryu☆ vs. kors k
Creator:Jenny
Version:Advanced
Source:
Tags:starmine ryu galvenize ultimate KiyoshiX101
BeatmapID:200177
BeatmapSetID:44519

[Difficulty]
HPDrainRate:4
CircleSize:4
OverallDifficulty:5
ApproachRate:7
SliderMultiplier:1.3
SliderTickRate:1

[Events]
//Background and Video events
0,0,"fow_BG.jpg",0,0
//Break Periods
2,21951,31699
2,130426,140173
//Storyboard Layer 0 (Background)
//Storyboard Layer 1 (Fail)
//Storyboard Layer 2 (Pass)
//Storyboard Layer 3 (Foreground)
//Storyboard Sound Samples
//Background Colour Transformations
3,100,163,162,255

[TimingPoints]
57,338.983050847458,4,1,1,70,1,0
16328,-100,4,2,1,80,0,0
16412,-100,4,1,1,80,0,0
18955,-100,4,2,1,80,0,0
21751,-133.333333333333,4,1,0,100,0,0
32768,-133.333333333333,4,2,0,35,0,0
43446,-200,4,1,0,80,0,0
43531,-200,4,2,0,25,0,0
65141,-83.3333333333333,4,1,1,80,0,1
65226,-83.3333333333333,4,1,1,80,0,0
75989,-83.3333333333333,4,1,0,80,0,0
81667,-83.3333333333333,4,1,0,60,0,0
81921,-76.9230769230769,4,1,0,60,0,0
82768,-71.4285714285714,4,1,0,60,0,0
83446,-66.6666666666667,4,1,0,60,0,0
84040,-83.3333333333333,4,1,0,80,0,0
86836,-66.6666666666667,4,1,0,80,0,1
97006,-66.6666666666667,4,1,0,80,0,0
97684,-66.6666666666667,4,1,0,95,0,1
97768,-66.6666666666667,4,1,0,80,0,1
107175,-66.6666666666667,4,1,0,80,0,0
108531,-66.6666666666667,4,1,0,80,0,1
118701,-66.6666666666667,4,1,0,80,0,0
119379,-66.6666666666667,4,1,0,80,0,1
127514,-66.6666666666667,4,2,0,100,0,1
127599,-66.6666666666667,4,1,1,80,0,1
128192,-66.6666666666667,4,2,0,100,0,1
128277,-66.6666666666667,4,1,1,80,0,1
128870,-66.6666666666667,4,2,0,100,0,1
128955,-66.6666666666667,4,1,1,60,0,1
129209,-66.6666666666667,4,2,0,100,0,1
129294,-66.6666666666667,4,1,0,60,0,1
129548,-66.6666666666667,4,2,0,100,0,1
129633,-66.6666666666667,4,1,0,60,0,1
129887,-66.6666666666667,4,2,0,100,0,1
129972,-66.6666666666667,4,1,0,60,0,1
130226,-133.333333333333,4,1,0,60,0,0
141073,-100,4,2,0,80,0,0
150565,-133.333333333333,4,1,0,70,0,0
151921,-83.3333333333333,4,1,0,100,0,1
152006,-83.3333333333333,4,1,0,80,0,1
161073,-83.3333333333333,4,1,0,80,0,0
162090,-83.3333333333333,4,1,0,60,0,0
162768,-66.6666666666667,4,1,0,100,0,1
168192,-133.333333333333,4,1,0,80,0,1
169548,-117.647058823529,4,1,0,80,0,1
170904,-100,4,1,0,85,0,1
172260,-100,4,1,0,90,0,1
173531,-100,4,1,0,80,0,0
173616,-100,4,1,0,100,0,1
173701,-100,4,2,0,5,0,0

[Colours]
Combo1 : 14,119,154
Combo2 : 30,52,142
Combo3 : 111,111,255
Combo4 : 17,135,232
Combo5 : 192,192,192

[HitObjects]
171,146,57,1,4,0:0:0:0:
171,146,395,2,0,L|183:73,1,65,8|0,0:0|0:0,0:0:0:0:
228,58,734,2,0,P|285:88|365:71,1,130,0|8,0:0|0:0,0:0:0:0:
390,50,1243,1,0,0:0:0:0:
475,147,1582,5,0,0:0:0:0:
475,147,1751,2,0,L|447:211,1,65,8|0,0:0|0:0,0:0:0:0:
400,225,2090,2,0,P|339:243|274:205,1,130,0|8,0:0|0:0,0:0:0:0:
258,167,2599,1,0,0:0:0:0:
145,106,2938,5,0,0:0:0:0:
145,106,3107,2,0,L|108:177,1,65,8|0,0:0|0:0,0:0:0:0:
73,194,3446,2,0,P|50:253|73:315,1,130,0|8,0:0|0:0,0:0:0:0:
122,325,3955,1,0,0:0:0:0:
250,306,4294,5,0,0:0:0:0:
250,306,4463,2,0,L|298:240,1,65,8|0,0:0|0:0,0:0:0:0:
338,238,4802,2,0,P|408:253|459:210,1,130,0|8,0:0|0:0,0:0:0:0:
459,169,5311,1,0,0:0:0:0:
379,66,5650,5,0,0:0:0:0:
379,66,5819,2,0,L|308:90,1,65,8|0,0:0|0:0,0:0:0:0:
282,125,6158,2,0,P|218:145|157:115,1,130,0|8,0:0|0:0,0:0:0:0:
142,72,6667,1,0,0:0:0:0:
263,24,7006,5,0,0:0:0:0:
263,24,7175,2,0,L|304:81,1,65,8|0,0:0|0:0,0:0:0:0:
281,125,7514,2,0,P|272:194|302:251,1,130,0|8,0:0|0:0,0:0:0:0:
349,255,8023,1,0,0:0:0:0:
470,207,8362,5,0,0:0:0:0:
470,207,8531,2,0,L|486:136,1,65,8|0,0:0|0:0,0:0:0:0:
447,106,8870,2,0,P|384:107|338:61,1,130,0|8,0:0|0:0,0:0:0:0:
335,10,9379,1,0,0:0:0:0:
232,89,9718,5,0,0:0:0:0:
232,89,9887,2,0,L|219:159,1,65,8|0,0:0|0:0,0:0:0:0:
179,186,10226,2,0,P|237:224|309:211,1,130,0|8,0:0|0:0,0:0:0:0:
331,179,10734,1,0,0:0:0:0:
461,171,11073,5,0,0:0:0:0:
461,171,11243,2,0,L|435:240,1,65,8|0,0:0|0:0,0:0:0:0:
373,237,11582,2,0,L|347:306,3,65,0|0|8|0,0:0|0:0|0:0|0:0,0:0:0:0:
234,356,12429,5,0,0:0:0:0:
234,356,12599,2,0,L|208:287,1,65,8|0,0:0|0:0,0:0:0:0:
146,290,12938,2,0,L|120:221,3,65,0|0|8|0,0:0|0:0|0:0|0:0,0:0:0:0:
194,120,13785,5,0,0:0:0:0:
194,120,13955,2,0,L|223:41,1,65,8|0,0:0|0:0,0:0:0:0:
279,74,14294,2,0,L|308:-5,3,65,0|0|8|0,0:0|0:0|0:0|0:0,0:0:0:0:
352,132,15141,5,0,0:0:0:0:
352,132,15311,2,0,L|381:211,1,65,8|0,0:0|0:0,0:0:0:0:
437,178,15650,2,0,L|466:257,3,65,0|0|8|0,0:0|0:0|0:0|0:0,0:0:0:0:
438,300,16328,5,4,0:0:0:0:
321,358,16667,5,8,0:0:0:0:
321,358,17345,1,8,0:0:0:0:
75,271,18023,5,8,0:0:0:0:
75,271,18701,1,8,0:0:0:0:
129,153,19040,5,4,0:0:0:0:
143,174,19718,5,4,0:0:0:0:
157,195,20395,5,4,0:0:0:0:
262,119,20734,1,4,0:0:0:0:
344,219,21073,1,4,0:0:0:0:
469,183,21412,1,4,0:0:0:0:
475,175,21751,5,4,0:0:0:0:
171,101,32599,5,4,0:0:0:0:
164,119,33277,1,2,0:0:0:0:
158,137,33955,1,0,0:0:0:0:
152,155,34633,1,2,0:0:0:0:
158,173,35311,5,0,0:0:0:0:
164,191,35989,1,2,0:0:0:0:
171,209,36667,1,0,0:0:0:0:
178,227,37345,1,2,0:0:0:0:
196,231,38023,5,0,0:0:0:0:
214,235,38701,1,2,0:0:0:0:
232,239,39379,1,0,0:0:0:0:
250,243,40057,1,2,0:0:0:0:
267,234,40734,5,0,0:0:0:0:
284,225,41412,1,2,0:0:0:0:
301,216,42090,1,0,0:0:0:0:
318,207,42768,1,2,0:0:0:0:
318,207,43446,6,0,P|346:109|120:152,1,455,4|0,0:0|0:0,0:0:0:0:
104,188,46158,6,0,P|76:286|302:243,1,455,0|0,0:0|0:0,0:0:0:0:
309,204,48870,6,0,P|536:174|508:272,1,455,0|0,0:0|0:0,0:0:0:0:
474,312,51582,6,0,P|280:188|383:52,1,455,0|0,0:0|0:0,0:0:0:0:
426,79,54294,6,0,P|365:169|142:9,1,455
189,7,57006,6,0,P|272:99|90:304,1,455
55,270,59718,6,0,P|47:174|125:110,1,195
165,124,61073,6,0,P|263:145|327:72,1,195
256,192,62429,12,0,64802,0:0:0:0:
192,112,65141,6,0,L|82:54,2,116.999996429443,4|0|0,0:0|0:0|0:0,0:0:0:0:
264,213,65989,2,0,L|204:275,1,77.999997619629
147,277,66328,1,0,0:0:0:0:
147,277,66497,2,0,P|91:299|33:276,3,116.999996429443
19,189,67514,1,0,0:0:0:0:
19,189,67684,1,0,0:0:0:0:
19,189,67853,6,0,L|118:117,1,116.999996429443
172,193,68362,2,0,L|303:97,1,155.999995239258
298,101,68870,1,0,0:0:0:0:
298,101,69040,1,0,0:0:0:0:
298,101,69209,2,0,P|346:127|422:108,2,116.999996429443
175,76,70057,1,0,0:0:0:0:
175,76,70226,1,0,0:0:0:0:
67,139,70565,6,0,P|51:196|75:261,2,116.999996429443
160,221,71412,1,0,0:0:0:0:
197,270,71582,2,0,P|243:289|300:277,1,77.999997619629
323,254,71921,2,0,L|375:139,3,116.999996429443
321,67,72938,1,0,0:0:0:0:
321,67,73107,1,0,0:0:0:0:
321,67,73277,6,0,P|383:61|434:23,2,116.999996429443
202,27,74124,1,0,0:0:0:0:
189,88,74294,1,0,0:0:0:0:
203,148,74463,1,0,0:0:0:0:
246,193,74633,2,0,P|296:221|360:225,2,116.999996429443
298,79,75480,1,0,0:0:0:0:
351,112,75650,1,0,0:0:0:0:
377,168,75819,1,0,0:0:0:0:
354,225,75989,6,0,P|345:282|357:347,3,116.999996429443,2|0|0|0,0:0|0:0|0:0|0:0,0:0:0:0:
269,379,77006,1,2,0:0:0:0:
205,271,77345,6,0,P|143:308|71:300,3,116.999996429443,2|0|0|0,0:0|0:0|0:0|0:0,0:0:0:0:
37,239,78362,1,2,0:0:0:0:
72,119,78701,6,0,L|198:65,1,116.999996429443,2|0,0:0|0:0,0:0:0:0:
179,166,79209,5,0,0:0:0:0:
179,166,79379,2,0,L|305:112,1,116.999996429443,2|0,0:0|0:0,0:0:0:0:
285,214,79887,5,0,0:0:0:0:
285,214,80057,2,0,L|411:160,1,116.999996429443,2|0,0:0|0:0,0:0:0:0:
391,262,80564,5,2,0:0:0:0:
391,262,80734,2,0,L|517:208,1,116.999996429443,2|0,0:0|0:0,0:0:0:0:
459,130,81243,1,0,0:0:0:0:
459,130,81412,6,0,P|374:137|299:70,1,155.999995239258,6|2,0:0|0:0,0:0:0:0:
211,184,82090,6,0,P|140:126|40:134,1,168.999992263794,2|2,0:0|0:0,0:0:0:0:
15,261,82768,6,0,P|80:318|192:311,1,181.999994445801,2|2,0:0|0:0,0:0:0:0:
184,164,83446,6,0,P|238:98|344:100,1,195.00000743866,2|2,0:0|0:0,0:0:0:0:
359,222,84124,6,0,L|438:181,3,77.999997619629,0|0|2|2,0:0|0:0|0:0|0:0,0:0:0:0:
389,137,84802,2,0,L|468:96,3,77.999997619629,2|2|2|2,0:0|0:0|0:0|0:0,0:0:0:0:
419,51,85480,1,4,0:0:0:0:
419,51,86836,6,0,P|343:65|277:29,2,146.250005578995,6|0|2,0:0|0:0|0:0,0:0:0:0:
481,194,87684,1,0,0:0:0:0:
417,239,87853,1,2,0:0:0:0:
339,250,88023,1,0,0:0:0:0:
265,225,88192,2,0,P|215:171|216:83,3,146.250005578995,2|0|2|0,0:0|0:0|0:0|0:0,0:0:0:0:
305,33,89209,5,2,0:0:0:0:
359,88,89379,1,0,0:0:0:0:
380,162,89548,2,0,P|385:224|347:306,1,146.250005578995,2|0,0:0|0:0,0:0:0:0:
247,353,90057,2,0,P|143:364|65:312,1,195.00000743866,2|0,0:0|0:0,0:0:0:0:
56,240,90565,2,0,L|126:155,1,97.50000371933,2|0,0:0|0:0,0:0:0:0:
193,144,90904,5,2,0:0:0:0:
193,144,91158,1,0,0:0:0:0:
193,144,91412,2,0,P|219:79|199:3,2,146.250005578995,2|0|2,0:0|0:0|0:0,0:0:0:0:
173,219,92090,1,0,0:0:0:0:
230,282,92260,6,0,L|373:336,1,146.250005578995,2|0,0:0|0:0,0:0:0:0:
463,268,92768,1,2,0:0:0:0:
411,120,93107,1,0,0:0:0:0:
411,120,93277,2,0,L|314:88,1,97.50000371933,2|0,0:0|0:0,0:0:0:0:
249,126,93616,2,0,P|183:141|105:99,1,146.250005578995,2|0,0:0|0:0,0:0:0:0:
194,24,94124,1,2,0:0:0:0:
252,168,94463,5,0,0:0:0:0:
291,235,94633,1,2,0:0:0:0:
358,274,94802,1,0,0:0:0:0:
436,288,94972,2,0,P|477:234|483:154,1,146.250005578995,2|0,0:0|0:0,0:0:0:0:
367,146,95480,2,0,P|343:75|373:-1,1,146.250005578995,2|0,0:0|0:0,0:0:0:0:
433,104,95989,5,2,0:0:0:0:
367,146,96158,1,0,0:0:0:0:
291,168,96328,2,0,L|146:141,1,146.250005578995,2|0,0:0|0:0,0:0:0:0:
72,51,96836,1,2,0:0:0:0:
72,51,97175,5,0,0:0:0:0:
72,51,97345,1,2,0:0:0:0:
72,51,97514,1,0,0:0:0:0:
72,51,97684,6,0,L|105:200,1,146.250005578995,6|0,0:0|0:0,0:0:0:0:
210,240,98192,2,0,P|304:262|367:176,1,195.00000743866,2|0,0:0|0:0,0:0:0:0:
317,133,98701,1,2,0:0:0:0:
443,41,99040,6,0,L|497:194,1,146.250005578995,2|0,0:0|0:0,0:0:0:0:
471,293,99548,2,0,P|374:311|306:242,1,195.00000743866,2|0,0:0|0:0,0:0:0:0:
365,196,100057,1,2,0:0:0:0:
274,69,100395,6,0,L|118:34,1,146.250005578995,2|0,0:0|0:0,0:0:0:0:
27,91,100904,2,0,P|5:180|86:259,1,195.00000743866,2|0,0:0|0:0,0:0:0:0:
141,227,101412,1,2,0:0:0:0:
276,150,101751,6,0,L|235:306,1,146.250005578995,2|0,0:0|0:0,0:0:0:0:
338,353,102260,2,0,P|439:372|500:298,1,195.00000743866,2|0,0:0|0:0,0:0:0:0:
485,233,102768,1,2,0:0:0:0:
432,174,102938,1,0,0:0:0:0:
355,162,103107,6,0,P|289:179|227:245,2,146.250005578995,6|0|2,0:0|0:0|0:0,0:0:0:0:
432,174,103785,1,0,0:0:0:0:
384,236,103955,1,0,0:0:0:0:
355,162,104124,2,2,L|325:65,1,97.50000371933,2|0,0:0|0:0,0:0:0:0:
253,39,104463,6,0,P|179:20|112:54,1,146.250005578995,2|0,0:0|0:0,0:0:0:0:
90,162,104972,2,0,L|215:325,1,195.00000743866,2|0,0:0|0:0,0:0:0:0:
285,333,105480,1,2,0:0:0:0:
360,311,105650,1,0,0:0:0:0:
384,236,105819,6,0,P|394:152|351:78,2,146.250005578995,2|0|2,0:0|0:0|0:0,0:0:0:0:
307,253,106497,1,0,0:0:0:0:
229,245,106667,1,0,0:0:0:0:
167,197,106836,2,2,P|144:145|140:96,1,97.50000371933,2|0,0:0|0:0,0:0:0:0:
181,39,107175,5,6,0:0:0:0:
181,39,107345,1,2,0:0:0:0:
296,144,107684,6,2,P|311:200|297:296,1,146.250005578995,0|2,0:0|0:0,0:0:0:0:
198,344,108192,1,2,0:0:0:0:
121,359,108362,1,2,0:0:0:0:
46,335,108531,6,0,P|17:274|27:185,2,146.250005578995,6|0|2,0:0|0:0|0:0,0:0:0:0:
172,242,109379,1,0,0:0:0:0:
226,186,109548,2,0,P|219:137|184:94,1,97.50000371933,2|0,0:0|0:0,0:0:0:0:
227,30,109887,2,0,P|282:86|304:155,3,146.250005578995,2|0|2|0,0:0|0:0|0:0|0:0,0:0:0:0:
290,265,110904,6,0,L|393:292,1,97.50000371933,2|0,0:0|0:0,0:0:0:0:
446,241,111243,2,0,P|471:180|456:100,2,146.250005578995,2|0|2,0:0|0:0|0:0,0:0:0:0:
348,362,112090,1,0,0:0:0:0:
348,362,112260,2,0,L|245:335,1,97.50000371933,2|0,0:0|0:0,0:0:0:0:
200,281,112599,2,0,P|175:220|190:140,3,146.250005578995,2|0|2|0,0:0|0:0|0:0|0:0,0:0:0:0:
281,70,113616,5,0,0:0:0:0:
281,70,113785,1,2,0:0:0:0:
281,70,113955,2,0,L|457:56,2,146.250005578995,2|0|2,0:0|0:0|0:0,0:0:0:0:
269,147,114633,2,0,P|248:198|200:215,1,97.50000371933,0|0,0:0|0:0,0:0:0:0:
134,203,114972,5,2,0:0:0:0:
73,153,115141,1,0,0:0:0:0:
50,78,115311,2,0,P|89:23|172:10,3,146.250005578995,2|0|2|0,0:0|0:0|0:0|0:0,0:0:0:0:
149,125,116328,1,2,0:0:0:0:
134,203,116497,1,0,0:0:0:0:
150,279,116667,2,0,P|198:329|306:336,2,146.250005578995,2|0|2,0:0|0:0|0:0,0:0:0:0:
252,161,117514,5,0,0:0:0:0:
252,161,117684,2,0,L|344:119,1,97.50000371933,2|0,0:0|0:0,0:0:0:0:
409,158,118023,2,0,P|436:213|412:308,2,146.250005578995,2|0|2,0:0|0:0|0:0,0:0:0:0:
289,57,118870,1,0,0:0:0:0:
289,57,119040,2,0,L|242:34,2,48.750001859665
366,64,119379,6,0,P|444:74|503:26,2,146.250005578995,6|0|2,0:0|0:0|0:0,0:0:0:0:
289,57,120057,1,0,0:0:0:0:
215,83,120226,1,0,0:0:0:0:
171,147,120395,2,0,P|160:196|168:248,1,97.50000371933,2|0,0:0|0:0,0:0:0:0:
225,293,120734,2,0,L|378:342,1,146.250005578995,2|0,0:0|0:0,0:0:0:0:
459,269,121243,2,0,L|306:220,1,146.250005578995,2|0,0:0|0:0,0:0:0:0:
326,107,121751,5,2,0:0:0:0:
398,137,121921,1,0,0:0:0:0:
440,201,122090,2,0,P|459:266|437:349,1,146.250005578995,2|0,0:0|0:0,0:0:0:0:
326,362,122599,2,0,L|139:300,1,195.00000743866,2|0,0:0|0:0,0:0:0:0:
105,230,123107,2,0,P|89:183|103:134,1,97.50000371933,2|0,0:0|0:0,0:0:0:0:
178,140,123446,2,0,P|255:146|309:95,2,146.250005578995,2|0|2,0:0|0:0|0:0,0:0:0:0:
288,28,124294,2,0,L|189:3,2,97.50000371933,0|2|0,0:0|0:0|0:0,0:0:0:0:
363,49,124802,6,0,P|430:80|506:56,3,146.250005578995,6|0|2|0,0:0|0:0|0:0|0:0,0:0:0:0:
442,166,125819,2,0,L|478:261,1,97.50000371933,2|0,0:0|0:0,0:0:0:0:
430,320,126158,6,0,P|375:356|273:332,3,146.250005578995,6|0|2|0,0:0|0:0|0:0|0:0,0:0:0:0:
218,261,127175,2,0,L|255:164,1,97.50000371933,2|0,0:0|0:0,0:0:0:0:
208,105,127514,6,0,P|104:101|52:19,1,195.00000743866,4|8,0:0|0:0,0:0:0:0:
209,13,128192,6,0,P|288:61|281:160,1,195.00000743866,4|8,0:0|0:0,0:0:0:0:
303,371,128870,6,4,P|224:323|231:224,3,195.00000743866
297,195,130226,5,4,0:0:0:0:
128,318,141073,6,0,P|172:271|176:205,1,130,2|8,0:0|0:0,0:0:0:0:
132,180,141582,1,0,0:0:0:0:
91,148,141751,2,0,P|109:81|167:47,1,130,2|8,0:0|0:0,0:0:0:0:
198,81,142260,1,0,0:0:0:0:
236,117,142429,2,0,P|282:159|363:146,1,130,2|8,0:0|0:0,0:0:0:0:
387,123,142938,1,2,0:0:0:0:
367,76,143107,1,2,0:0:0:0:
319,61,143276,1,2,0:0:0:0:
276,87,143446,1,10,0:0:0:0:
267,137,143615,1,2,0:0:0:0:
299,176,143785,6,0,P|324:239|305:305,1,130,2|8,0:0|0:0,0:0:0:0:
266,328,144294,1,0,0:0:0:0:
214,334,144463,2,0,P|155:310|120:252,1,130,2|8,0:0|0:0,0:0:0:0:
118,203,144972,1,0,0:0:0:0:
142,157,145141,2,0,P|160:95|140:32,1,130,2|8,0:0|0:0,0:0:0:0:
89,28,145650,1,2,0:0:0:0:
39,44,145819,1,2,0:0:0:0:
10,87,145988,1,2,0:0:0:0:
3,138,146158,1,8,0:0:0:0:
14,188,146327,1,2,0:0:0:0:
46,228,146497,6,0,P|90:264|169:274,1,130,2|8,0:0|0:0,0:0:0:0:
211,262,147006,1,0,0:0:0:0:
251,229,147175,2,0,P|277:169|270:97,1,130,2|8,0:0|0:0,0:0:0:0:
248,59,147684,1,0,0:0:0:0:
198,43,147853,2,0,P|172:103|179:175,1,130,2|8,0:0|0:0,0:0:0:0:
203,210,148362,1,2,0:0:0:0:
248,234,148531,1,2,0:0:0:0:
299,245,148700,1,2,0:0:0:0:
351,242,148870,1,8,0:0:0:0:
400,225,149039,1,10,0:0:0:0:
442,195,149209,6,0,P|459:144|455:106,1,65,2|0,0:0|0:0,0:0:0:0:
440,85,149548,2,0,L|309:43,2,130,8|2|8,0:0|0:0|0:0,0:0:0:0:
364,146,150565,5,4,0:0:0:0:
320,166,150734,1,0,0:0:0:0:
272,175,150904,2,0,P|240:178|208:170,2,48.750001859665
306,209,151412,1,0,0:0:0:0:
294,256,151582,2,0,P|284:284|267:306,1,48.750001859665
205,338,151921,6,0,P|140:354|58:317,1,155.999995239258,4|8,0:0|0:0,0:0:0:0:
37,245,152429,1,0,0:0:0:0:
65,172,152599,2,0,L|214:109,1,155.999995239258,0|8,0:0|0:0,0:0:0:0:
283,133,153107,1,0,0:0:0:0:
357,154,153277,2,0,P|429:171|498:125,1,155.999995239258,0|8,0:0|0:0,0:0:0:0:
468,55,153785,1,0,0:0:0:0:
397,87,153954,1,0,0:0:0:0:
357,154,154123,1,0,0:0:0:0:
345,231,154293,1,8,0:0:0:0:
365,306,154462,1,8,0:0:0:0:
420,361,154633,6,0,P|456:374|505:368,1,77.999997619629
492,291,154972,2,0,P|516:256|521:217,1,77.999997619629,8|0,0:0|0:0,0:0:0:0:
468,163,155311,1,0,0:0:0:0:
468,163,155480,1,0,0:0:0:0:
395,132,155650,1,8,0:0:0:0:
395,132,155819,1,0,0:0:0:0:
316,137,155989,6,0,P|280:156|253:184,1,77.999997619629
283,255,156328,2,0,P|257:281|221:300,1,77.999997619629,8|0,0:0|0:0,0:0:0:0:
142,301,156667,1,0,0:0:0:0:
69,275,156836,1,0,0:0:0:0:
24,212,157005,1,8,0:0:0:0:
23,136,157175,1,8,0:0:0:0:
65,72,157345,6,0,P|100:52|146:51,1,77.999997619629
180,114,157684,2,0,P|220:128|264:126,1,77.999997619629,8|0,0:0|0:0,0:0:0:0:
325,93,158023,1,0,0:0:0:0:
325,93,158192,1,0,0:0:0:0:
375,33,158362,1,8,0:0:0:0:
375,33,158531,1,0,0:0:0:0:
451,51,158701,6,0,P|479:83|487:122,1,77.999997619629
437,177,159040,2,0,P|425:215|437:265,1,77.999997619629,8|0,0:0|0:0,0:0:0:0:
486,307,159379,1,0,0:0:0:0:
419,346,159548,1,0,0:0:0:0:
340,344,159718,1,8,0:0:0:0:
269,311,159887,1,8,0:0:0:0:
231,242,160057,6,0,P|218:205|222:163,1,77.999997619629
273,109,160395,2,0,P|355:115|394:60,2,155.999995239258,8|0|8,0:0|0:0|0:0,0:0:0:0:
240,37,161243,5,0,0:0:0:0:
240,37,161582,1,0,0:0:0:0:
240,37,161921,1,0,0:0:0:0:
317,44,162090,6,0,P|341:72|351:113,1,77.999997619629,0|0,0:0|0:0,0:0:0:0:
305,176,162429,2,0,P|283:151|273:109,1,77.999997619629,8|8,0:0|0:0,0:0:0:0:
350,111,162768,6,0,P|376:147|373:215,3,97.50000371933,4|0|8|0,0:0|0:0|0:0|0:0,0:0:0:0:
341,267,163446,2,0,P|343:318|369:354,3,97.50000371933,0|0|8|0,0:0|0:0|0:0|0:0,0:0:0:0:
448,356,164124,2,0,P|474:320|476:268,3,97.50000371933,0|0|8|0,0:0|0:0|0:0|0:0,0:0:0:0:
462,191,164802,1,0,0:0:0:0:
422,123,164972,1,0,0:0:0:0:
355,82,165141,1,8,0:0:0:0:
278,67,165311,1,8,0:0:0:0:
202,83,165480,6,0,P|158:113|139:167,1,97.50000371933
178,220,165819,2,0,P|157:265|117:291,1,97.50000371933,8|0,0:0|0:0,0:0:0:0:
40,285,166158,2,0,P|15:240|26:172,1,97.50000371933
57,128,166497,2,0,P|42:78|9:44,1,97.50000371933,8|0,0:0|0:0,0:0:0:0:
77,3,166836,5,0,0:0:0:0:
152,22,167006,1,0,0:0:0:0:
202,82,167175,2,0,P|229:123|285:157,1,97.50000371933,8|0,0:0|0:0,0:0:0:0:
346,157,167514,1,0,0:0:0:0:
346,157,167684,1,0,0:0:0:0:
421,139,167853,1,8,0:0:0:0:
421,139,168023,1,8,0:0:0:0:
464,75,168192,6,0,L|474:38,14,24.3750009298325,4|0|0|0|0|0|0|0|0|0|0|0|0|0|0,0:0|0:0|0:0|0:0|0:0|0:0|0:0|0:0|0:0|0:0|0:0|0:0|0:0|0:0|0:0,0:0:0:0:
384,37,169548,6,0,L|387:4,14,27.6250005269051,4|0|0|0|0|0|0|0|0|0|0|0|0|0|0,0:0|0:0|0:0|0:0|0:0|0:0|0:0|0:0|0:0|0:0|0:0|0:0|0:0|0:0|0:0,0:0:0:0:
279,30,170904,6,0,L|276:-4,6,32.5,4|0|0|0|0|0|0,0:0|0:0|0:0|0:0|0:0|0:0|0:0,0:0:0:0:
177,54,171582,6,0,L|156:28,6,32.5
96,121,172260,5,4,0:0:0:0:
141,214,172599,5,4,0:0:0:0:
186,307,172938,5,4,0:0:0:0:
311,342,173277,5,12,0:0:0:0:
390,314,173446,1,8,0:0:0:0:
326,260,173616,1,4,0:0:0:0:
