osu file format v5

[General]
AudioFilename: Go Beyond!!.mp3
AudioLeadIn: 0
PreviewTime: -1
Countdown: 1
SampleSet: Normal
StackLeniency: 0.7
Mode: 0
LetterboxInBreaks: 1

[Metadata]
Title:Go Beyond!!
Artist:Ryu* vs. Sota
Creator:sumomo1001
Version:Normal
Source:Beatmania IIDX DistorteD
Tags:beatmania iidx DistorteD ryu sota

[Difficulty]
HPDrainRate:5
CircleSize:4
OverallDifficulty:5
SliderMultiplier:1.4
SliderTickRate:3

[Events]
//Background and Video events
1,0,"beatmania IIDX 13 DistorteD CS - Go Beyond__low.avi"
0,0,"background.jpg"
//Break Periods
2,29248,38548
2,56723,59123
//Storyboard Layer 0 (Background)
//Storyboard Layer 1 (Failing)
//Storyboard Layer 2 (Passing)
//Storyboard Layer 3 (Foreground)
//Storyboard Sound Samples
//Background Colour Transformations
3,100,163,162,255

[TimingPoints]
1248,300,4,1,0,100,1,0
40323,1200,4,2,0,100,1,0
62523,300,4,1,0,100,1,0

[Colours]
Combo1 : 255,150,0
Combo2 : 255,0,0
Combo3 : 0,128,0
Combo4 : 0,0,128

[HitObjects]
112,96,1348,1,0
192,144,1648,1,0
272,96,1948,1,0
368,128,2248,1,0
384,208,2548,2,0,B|272:208,3,105
128,288,3748,5,0
208,240,4048,1,0
304,288,4348,1,0
384,240,4648,1,0
400,160,4948,2,0,B|288:160,3,105
112,64,6148,6,0,B|208:64,1,70
208,128,6448,2,0,B|304:128,1,70
288,192,6748,2,0,B|384:192,1,70
368,256,7048,2,0,B|464:256,1,70
96,144,8248,5,4
208,144,8848,5,4
320,144,9448,5,4
320,240,9748,2,0,B|208:240,2,93.3333333333333
400,240,10348,2,0,B|496:240,2,70
384,144,11023,5,0
384,144,11248,1,0
272,144,11548,1,0
272,144,11698,1,0
176,144,11998,2,0,B|32:144,2,140
176,144,12898,1,0
320,144,13348,5,0
288,240,13648,1,0
224,304,13948,1,0
128,304,14198,2,0,B|128:192,1,93.3333333333333
224,128,14723,1,0
224,128,14998,1,0
320,64,15298,1,0
416,96,15598,1,0
416,176,15798,5,0
416,176,16048,1,0
240,208,16373,1,0
240,208,16523,1,0
176,144,16823,2,0,B|32:144,2,140
176,144,17723,1,0
336,144,18173,5,0
304,240,18473,1,0
208,272,18773,1,0
128,224,19048,1,0
128,128,19398,2,0,B|208:128,7,70
256,192,20598,12,0,21648
256,192,22848,12,0,24048
256,192,24348,5,0
368,192,24648,1,0
368,80,24948,1,0
256,192,25548,12,0,26448
256,192,26748,5,0
144,192,27048,1,0
144,288,27348,1,0
256,288,28048,2,0,B|289:288,7,23.3333333333333
352,288,28648,2,0,B|395:288,8,23.3333333333333
256,192,39698,5,0
352,128,40323,1,0
256,80,40923,1,0
144,96,41523,1,0
144,240,42123,1,0
256,288,43323,2,0,B|336:288,1,70
144,288,44523,1,0
144,144,45123,1,0
256,192,45723,1,0
352,128,46323,1,0
256,80,46923,1,0
128,320,48723,6,0,B|128:256|256:304|496:304|496:240|464:208|144:160|144:128|160:112|496:112|512:80|496:64|64:32,1,910
144,160,60323,6,0,B|259:160,1,93.3333333333333
176,112,62823,5,8
256,112,63123,5,8
336,112,63423,5,8
352,224,63723,6,0,B|208:224,2,140
432,224,64623,2,0,B|432:80,1,140
352,80,65223,2,0,B|192:80,1,140
128,80,65823,2,0,B|128:160,2,70
208,48,66423,6,0,B|352:48,1,140
432,48,67023,2,0,B|432:192,1,140
432,272,67623,2,0,B|288:272,1,140
256,192,68223,12,0,68823
416,208,69423,5,0
416,208,69723,2,0,B|416:64,1,140
320,64,70323,2,0,B|176:64,1,140
80,64,70923,1,0
80,64,71223,2,0,B|80:208,1,140
176,128,72473,5,8
256,128,72773,5,8
336,128,73073,5,8
336,224,73323,6,0,B|192:224,2,140
432,224,74223,2,0,B|432:80,1,140
352,80,74823,2,0,B|208:80,1,140
128,80,75423,2,0,B|128:160,2,70
208,80,76023,6,0,B|352:80,1,140
432,80,76623,2,0,B|432:224,1,140
432,304,77223,2,0,B|288:304,1,140
208,304,77823,2,0,B|208:224,2,70
112,304,78423,2,0,B|112:160,1,140
112,80,79023,2,0,B|256:80,1,140
352,80,79623,2,0,B|352:224,1,140
272,144,80573,5,4
208,80,80873,1,4
144,144,81173,1,4
80,80,81473,1,4
176,128,82123,5,8
256,128,82423,5,8
336,128,82723,5,8
384,224,82973,6,0,B|80:225,2,280
368,144,84723,1,0
272,144,85023,2,0,B|192:144,2,70
112,144,85623,2,0,B|112:288,1,140
192,288,86223,2,0,B|336:288,1,140
416,288,86823,2,0,B|416:144,1,140
320,144,87423,2,0,B|240:144,2,70
416,144,88023,2,0,B|416:288,1,140
320,272,88623,5,0
240,208,88923,1,0
160,272,89223,1,0
80,208,89523,1,0
144,144,89823,5,0
224,80,90123,1,0
320,48,90423,1,0
400,96,90723,1,0
400,192,91023,1,0
400,288,91323,6,0,B|256:288,3,140
176,288,92523,2,0,B|32:288,1,140
32,208,93123,2,0,B|32:64,1,140
112,64,93723,2,0,B|256:64,1,140
336,64,94323,1,0
336,160,94623,2,0,B|256:160,2,70
336,240,95223,5,0
256,288,95523,1,0
176,240,95823,1,0
112,176,96123,1,0
144,96,96423,1,0
224,96,96723,1,0
320,96,97023,2,0,B|400:96,2,70
208,96,97623,5,0
96,96,97973,1,0
96,96,98123,1,0
96,192,98423,1,0
96,192,98573,1,0
96,192,98723,1,0
224,192,99023,1,0
224,192,99323,1,0
336,192,99623,1,0
336,192,99773,1,0
336,288,100023,6,0,B|303:288,7,23.3333333333333
240,288,100623,2,0,B|197:288,8,23.3333333333333
256,192,102123,12,0,110423
