osu file format v14

[General]
AudioFilename: 14. Only for you.mp3
AudioLeadIn: 0
PreviewTime: 26825
Countdown: 0
SampleSet: Soft
StackLeniency: 0.7
Mode: 3
LetterboxInBreaks: 0
SpecialStyle: 0
WidescreenStoryboard: 0

[Editor]
DistanceSpacing: 0.6
BeatDivisor: 4
GridSize: 8
TimelineZoom: 1

[Metadata]
Title:Only For You* (Ryu REMIX)
TitleUnicode:Only For You* (Ryu☆ REMIX)
Artist:Ryu ft. MAYU
ArtistUnicode:Ryu☆ ft. MAYU
Creator:MrSmooooch
Version:HARD
Source:
Tags:mayu vocaloid v3 ryu remix mrsmooooch [-mrsergio-] nowsmart sirade [c r a c k]
BeatmapID:466002
BeatmapSetID:196459

[Difficulty]
HPDrainRate:7
CircleSize:4
OverallDifficulty:7
ApproachRate:5
SliderMultiplier:1.4
SliderTickRate:1

[Events]
//Background and Video events
0,0,"Only.jpg",0,0
//Break Periods
//Storyboard Layer 0 (Background)
//Storyboard Layer 1 (Fail)
//Storyboard Layer 2 (Pass)
//Storyboard Layer 3 (Foreground)
//Storyboard Sound Samples

[TimingPoints]
672,384.615384615385,4,2,1,70,1,0
23748,-95.2380952380952,4,2,1,70,0,0
24133,-90.9090909090909,4,2,1,70,0,0
24518,-86.9565217391304,4,2,1,70,0,0
24902,-83.3333333333333,4,2,1,70,0,0
25287,-100,4,2,1,70,0,0
26441,-95.2380952380952,4,2,1,70,0,0
26825,-100,4,2,1,70,0,1
39806,-76.9230769230769,4,2,1,70,0,1
39906,-200,4,2,1,70,0,1
39998,-76.9230769230769,4,2,1,70,0,1
40191,-133.333333333333,4,2,1,70,0,1
40383,-76.9230769230769,4,2,1,70,0,1
40503,-222.222222222222,4,2,1,70,0,1
40575,-76.9230769230769,4,2,1,70,0,1
40672,-100,4,2,1,70,0,1
42498,-66.6666666666667,4,2,1,70,0,1
42595,-133.333333333333,4,2,1,70,0,1
42619,-66.6666666666667,4,2,1,70,0,1
42739,-222.222222222222,4,2,1,70,0,1
42787,-66.6666666666667,4,2,1,70,0,1
42883,-133.333333333333,4,2,1,70,0,1
42931,-222.222222222222,4,2,1,70,0,1
42979,-133.333333333333,4,2,1,70,0,1
43027,-66.6666666666667,4,2,1,70,0,1
43075,-133.333333333333,4,2,1,70,0,1
43123,-66.6666666666667,4,2,1,70,0,1
43172,-133.333333333333,4,2,1,70,0,1
43268,-66.6666666666667,4,2,1,70,0,1
43292,-222.222222222222,4,2,1,70,0,1
43364,-76.9230769230769,4,2,1,70,0,1
43556,-222.222222222222,4,2,1,70,0,1
43652,-76.9230769230769,4,2,1,70,0,1
43748,-222.222222222222,4,2,1,70,0,1
43772,-100,4,2,1,70,0,1
46056,-1000,4,2,1,70,0,1
46152,-66.6666666666667,4,2,1,70,0,1
46272,-222.222222222222,4,2,1,70,0,1
46345,-133.333333333333,4,2,1,70,0,1
46441,-100,4,2,1,70,0,1
46825,-66.6666666666667,4,2,1,70,0,1
46922,-133.333333333333,4,2,1,70,0,1
46970,-222.222222222222,4,2,1,70,0,1
47018,-76.9230769230769,4,2,1,70,0,1
47114,-76.9230769230769,4,2,1,70,0,1
47306,-133.333333333333,4,2,1,70,0,1
47402,-76.9230769230769,4,2,1,70,0,1
47498,-133.333333333333,4,2,1,70,0,1
47595,-100,4,2,1,70,0,1
48027,-76.9230769230769,4,2,1,70,0,1
48075,-222.222222222222,4,2,1,70,0,1
48172,-100,4,2,1,70,0,1
51441,-100,4,2,1,70,0,1
51465,-100,4,2,1,70,0,0
86922,-76.9230769230769,4,2,1,70,0,0
87114,-222.222222222222,4,2,1,70,0,0
87210,-76.9230769230769,4,2,1,70,0,0
87306,-222.222222222222,4,2,1,70,0,0
87450,-76.9230769230769,4,2,1,70,0,0
87595,-222.222222222222,4,2,1,70,0,0
87835,-76.9230769230769,4,2,1,70,0,0
88172,-222.222222222222,4,2,1,70,0,0
88364,-100,4,2,1,70,0,0
117571,-1000,4,2,1,70,0,0
118941,-66.6666666666667,4,2,1,70,0,0
119133,-100,4,2,1,70,0,1
119133,-100,4,2,1,70,0,1
132643,-76.9230769230769,4,2,1,70,0,1
132691,-222.222222222222,4,2,1,70,0,1
132787,-50,4,2,1,70,0,1
132883,-76.9230769230769,4,2,1,70,0,1
132979,-222.222222222222,4,2,1,70,0,1
133027,-76.9230769230769,4,2,1,70,0,1
133075,-222.222222222222,4,2,1,70,0,1
133268,-222.222222222222,4,2,1,70,0,1
133364,-100,4,2,1,70,0,1
133652,-222.222222222222,4,2,1,70,0,1
133748,-100,4,2,1,70,0,1
134325,-76.9230769230769,4,2,1,70,0,1
134373,-133.333333333333,4,2,1,70,0,1
134397,-222.222222222222,4,2,1,70,0,1
134422,-76.9230769230769,4,2,1,70,0,1
134470,-133.333333333333,4,2,1,70,0,1
134518,-100,4,2,1,70,0,1
135672,-76.9230769230769,4,2,1,70,0,1
135720,-50,4,2,1,70,0,1
135816,-133.333333333333,4,2,1,70,0,1
135864,-76.9230769230769,4,2,1,70,0,1
135960,-133.333333333333,4,2,1,70,0,1
136008,-222.222222222222,4,2,1,70,0,1
136056,-76.9230769230769,4,2,1,70,0,1
136080,-100,4,2,1,70,0,1
143748,-100,4,2,1,70,0,0

[HitObjects]
192,192,672,128,0,2210:0:0:0:70:drum-hitwhistle2.wav
320,192,672,128,0,2210:0:0:0:70:drum-hitwhistle2.wav
64,192,672,1,0,0:0:0:70:drum-hitwhistle2.wav
448,192,672,1,0,0:0:0:70:drum-hitwhistle2.wav
64,192,2210,128,0,2402:0:0:0:70:drum-hitwhistle2.wav
448,192,2402,128,0,2595:0:0:0:70:drum-hitwhistle2.wav
64,192,2595,128,0,2787:0:0:0:70:drum-hitwhistle2.wav
448,192,2787,128,0,2979:0:0:0:70:drum-hitwhistle2.wav
64,192,2979,128,0,3172:0:0:0:70:drum-hitwhistle2.wav
448,192,3172,128,0,3364:0:0:0:70:drum-hitwhistle2.wav
320,192,3364,128,0,3556:0:0:0:70:drum-hitwhistle2.wav
64,192,3556,128,0,3748:0:0:0:70:drum-hitwhistle2.wav
192,192,3748,128,0,3941:0:0:0:70:drum-hitwhistle2.wav
448,192,3941,1,0,0:0:0:70:drum-hitwhistle2.wav
192,192,4133,1,0,0:0:0:70:drum-hitwhistle2.wav
448,192,4325,1,0,0:0:0:70:drum-hitwhistle2.wav
64,192,4518,128,0,4710:0:0:0:70:drum-hitwhistle2.wav
320,192,4710,1,0,0:0:0:70:drum-hitwhistle2.wav
192,192,4902,1,0,0:0:0:70:drum-hitwhistle2.wav
448,192,5095,1,0,0:0:0:70:drum-hitwhistle2.wav
64,192,5287,128,0,5479:0:0:0:70:drum-hitwhistle2.wav
192,192,5287,1,0,0:0:0:70:drum-hitwhistle2.wav
448,192,5479,1,0,0:0:0:70:drum-hitwhistle2.wav
320,192,5672,128,0,5864:0:0:0:70:drum-hitwhistle2.wav
192,192,5672,1,0,0:0:0:70:drum-hitwhistle2.wav
64,192,5864,1,0,0:0:0:70:drum-hitwhistle2.wav
320,192,6056,128,0,6248:0:0:0:70:drum-hitwhistle2.wav
192,192,6056,1,0,0:0:0:70:drum-hitwhistle2.wav
448,192,6248,1,0,0:0:0:70:drum-hitwhistle2.wav
64,192,6441,128,0,6633:0:0:0:70:drum-hitwhistle2.wav
192,192,6441,1,0,0:0:0:70:drum-hitwhistle2.wav
320,192,6633,1,0,0:0:0:70:drum-hitwhistle2.wav
320,192,6825,1,0,0:0:0:70:drum-hitwhistle2.wav
64,192,7018,1,0,0:0:0:70:drum-hitwhistle2.wav
448,192,7210,1,0,0:0:0:70:drum-hitwhistle2.wav
192,192,7402,1,0,0:0:0:70:drum-hitwhistle2.wav
448,192,7595,1,0,0:0:0:70:drum-hitwhistle2.wav
192,192,7787,1,0,0:0:0:70:drum-hitwhistle2.wav
64,192,7979,1,0,0:0:0:70:drum-hitwhistle2.wav
320,192,8172,1,0,0:0:0:70:drum-hitwhistle2.wav
192,192,8364,128,0,8556:0:0:0:70:drum-hitwhistle2.wav
448,192,8556,1,0,0:0:0:70:drum-hitwhistle2.wav
320,192,8748,128,0,8941:0:0:0:70:drum-hitwhistle2.wav
192,192,8941,1,0,0:0:0:70:drum-hitwhistle2.wav
64,192,9133,128,0,9325:0:0:0:70:drum-hitwhistle2.wav
448,192,9325,1,0,0:0:0:70:drum-hitwhistle2.wav
192,192,9518,128,0,9710:0:0:0:70:drum-hitwhistle2.wav
64,192,9710,1,0,0:0:0:70:drum-hitwhistle2.wav
448,192,9902,1,0,0:0:0:70:drum-hitwhistle2.wav
192,192,10095,1,0,0:0:0:70:drum-hitwhistle2.wav
64,192,10287,1,0,0:0:0:70:drum-hitwhistle2.wav
192,192,10479,1,0,0:0:0:70:drum-hitwhistle2.wav
320,192,10672,1,0,0:0:0:70:drum-hitwhistle2.wav
192,192,10864,1,0,0:0:0:70:drum-hitwhistle2.wav
448,192,11056,1,0,0:0:0:70:drum-hitwhistle2.wav
192,192,11248,1,0,0:0:0:70:drum-hitwhistle2.wav
320,192,11441,128,0,11633:0:0:0:70:drum-hitwhistle2.wav
64,192,11441,1,0,0:0:0:70:drum-hitwhistle2.wav
448,192,11633,1,0,0:0:0:70:drum-hitwhistle2.wav
448,192,11825,128,0,12018:0:0:0:70:drum-hitwhistle2.wav
192,192,11825,1,0,0:0:0:70:drum-hitwhistle2.wav
64,192,12018,1,0,0:0:0:70:drum-hitwhistle2.wav
448,192,12210,128,0,12402:0:0:0:70:drum-hitwhistle2.wav
64,192,12210,1,0,0:0:0:70:drum-hitwhistle2.wav
320,192,12402,1,0,0:0:0:70:drum-hitwhistle2.wav
320,192,12595,128,0,12787:0:0:0:70:drum-hitwhistle2.wav
448,192,12595,1,0,0:0:0:70:drum-hitwhistle2.wav
192,192,12787,1,0,0:0:0:70:drum-hitwhistle2.wav
320,192,12979,1,0,0:0:0:70:drum-hitwhistle2.wav
64,192,12979,128,0,14518:0:0:0:70:drum-hitwhistle2.wav
192,192,13172,1,0,0:0:0:70:drum-hitwhistle2.wav
320,192,13364,1,0,0:0:0:70:drum-slidertick4.wav
448,192,13556,1,0,0:0:0:70:drum-slidertick4.wav
192,192,13748,1,0,0:0:0:70:drum-slidertick4.wav
320,192,13941,1,0,0:0:0:70:drum-slidertick4.wav
448,192,14133,128,0,14518:0:0:0:70:drum-slidertick4.wav
192,192,14325,1,0,0:0:0:70:drum-hitwhistle2.wav
192,192,14518,128,0,16056:0:0:0:70:drum-hitwhistle2.wav
320,192,14518,128,0,16056:0:0:0:70:drum-hitwhistle2.wav
448,192,16056,128,0,17595:0:0:0:70:drum-hitwhistle2.wav
192,192,17595,128,0,19133:0:0:0:70:drum-hitwhistle2.wav
448,192,19133,128,0,20672:0:0:0:70:drum-hitwhistle2.wav
320,192,19133,128,0,25287:0:0:0:70:drum-hitwhistle2.wav
64,192,20672,128,0,22210:0:0:0:70:drum-hitwhistle2.wav
192,192,22210,128,0,23748:0:0:0:70:drum-hitwhistle2.wav
448,192,23748,128,0,25287:0:0:0:70:drum-hitwhistle2.wav
192,192,25287,128,0,26825:0:0:0:70:drum-hitwhistle2.wav
448,192,26825,1,0,0:0:0:70:drum-hitwhistle2.wav
64,192,26825,1,0,0:0:0:70:drum-hitwhistle2.wav
320,192,26825,1,0,0:0:0:70:drum-hitwhistle2.wav
64,192,27018,1,0,0:0:0:70:drum-hitwhistle2.wav
192,192,27210,1,0,0:0:0:70:drum-hitclap.wav
448,192,27210,1,0,0:0:0:70:drum-hitclap.wav
320,192,27402,1,0,0:0:0:70:drum-hitwhistle2.wav
64,192,27595,1,0,0:0:0:70:drum-hitwhistle2.wav
448,192,27595,1,0,0:0:0:70:drum-hitwhistle2.wav
192,192,27787,1,0,0:0:0:70:drum-hitwhistle2.wav
64,192,27883,1,0,0:0:0:70:drum-hitwhistle2.wav
192,192,27979,1,0,0:0:0:70:drum-hitclap.wav
448,192,27979,1,0,0:0:0:70:drum-hitclap.wav
448,192,28172,1,0,0:0:0:70:drum-hitwhistle2.wav
64,192,28364,1,0,0:0:0:70:drum-hitwhistle2.wav
320,192,28364,1,0,0:0:0:70:drum-hitwhistle2.wav
192,192,28556,1,0,0:0:0:70:drum-hitwhistle2.wav
64,192,28748,1,0,0:0:0:70:drum-hitclap.wav
448,192,28748,1,0,0:0:0:70:drum-hitclap.wav
320,192,28941,1,0,0:0:0:70:drum-hitwhistle2.wav
192,192,29133,1,0,0:0:0:70:drum-hitwhistle2.wav
448,192,29133,1,0,0:0:0:70:drum-hitwhistle2.wav
320,192,29325,1,0,0:0:0:70:drum-hitwhistle2.wav
64,192,29518,1,0,0:0:0:70:drum-hitclap.wav
448,192,29518,1,0,0:0:0:70:drum-hitclap.wav
192,192,29710,1,0,0:0:0:70:drum-hitwhistle2.wav
64,192,29902,1,0,0:0:0:70:drum-hitwhistle2.wav
320,192,29902,1,0,0:0:0:70:drum-hitwhistle2.wav
192,192,30095,1,0,0:0:0:70:drum-hitwhistle2.wav
448,192,30287,1,0,0:0:0:70:drum-hitclap.wav
64,192,30287,1,0,0:0:0:70:drum-hitclap.wav
320,192,30479,1,0,0:0:0:70:drum-hitwhistle2.wav
64,192,30672,1,0,0:0:0:70:drum-hitwhistle2.wav
448,192,30672,1,0,0:0:0:70:drum-hitwhistle2.wav
192,192,30864,1,0,0:0:0:70:drum-hitwhistle2.wav
64,192,30960,1,0,0:0:0:70:drum-hitwhistle2.wav
192,192,31056,1,0,0:0:0:70:drum-hitclap.wav
448,192,31056,1,0,0:0:0:70:drum-hitclap.wav
192,192,31248,1,0,0:0:0:70:drum-hitwhistle2.wav
64,192,31441,1,0,0:0:0:70:drum-hitwhistle2.wav
320,192,31441,1,0,0:0:0:70:drum-hitwhistle2.wav
192,192,31633,1,0,0:0:0:70:drum-hitwhistle2.wav
64,192,31825,1,0,0:0:0:70:drum-hitclap.wav
448,192,31825,1,0,0:0:0:70:drum-hitclap.wav
320,192,32018,1,0,0:0:0:70:drum-hitwhistle2.wav
64,192,32210,1,0,0:0:0:70:drum-hitwhistle2.wav
448,192,32210,1,0,0:0:0:70:drum-hitwhistle2.wav
192,192,32402,1,0,0:0:0:70:drum-hitwhistle2.wav
64,192,32595,1,0,0:0:0:70:drum-hitclap.wav
448,192,32595,1,0,0:0:0:70:drum-hitclap.wav
320,192,32787,1,0,0:0:0:70:drum-hitwhistle2.wav
64,192,32979,1,0,0:0:0:70:drum-hitwhistle2.wav
320,192,32979,1,0,0:0:0:70:drum-hitwhistle2.wav
448,192,33172,1,0,0:0:0:70:drum-hitwhistle2.wav
192,192,33364,1,0,0:0:0:70:drum-hitclap.wav
64,192,33364,1,0,0:0:0:70:drum-hitclap.wav
64,192,33556,1,0,0:0:0:70:drum-hitwhistle2.wav
320,192,33556,1,0,0:0:0:70:drum-hitwhistle2.wav
448,192,33748,1,0,0:0:0:70:drum-hitwhistle2.wav
192,192,33748,1,0,0:0:0:70:drum-hitwhistle2.wav
448,192,33941,1,0,0:0:0:70:drum-hitwhistle2.wav
64,192,33941,1,0,0:0:0:70:drum-hitwhistle2.wav
192,192,34037,1,0,0:0:0:70:drum-hitwhistle2.wav
320,192,34133,1,0,0:0:0:70:drum-hitclap.wav
448,192,34133,1,0,0:0:0:70:drum-hitclap.wav
64,192,34325,1,0,0:0:0:70:drum-hitwhistle2.wav
320,192,34325,1,0,0:0:0:70:drum-hitwhistle2.wav
64,192,34518,1,0,0:0:0:70:drum-hitwhistle2.wav
448,192,34518,1,0,0:0:0:70:drum-hitwhistle2.wav
192,192,34710,1,0,0:0:0:70:drum-hitwhistle2.wav
448,192,34710,1,0,0:0:0:70:drum-hitwhistle2.wav
320,192,34902,1,0,0:0:0:70:drum-hitclap.wav
64,192,34902,1,0,0:0:0:70:drum-hitclap.wav
64,192,35095,1,0,0:0:0:70:drum-hitwhistle2.wav
448,192,35095,1,0,0:0:0:70:drum-hitwhistle2.wav
192,192,35287,1,0,0:0:0:70:drum-hitwhistle2.wav
448,192,35287,1,0,0:0:0:70:drum-hitwhistle2.wav
64,192,35479,1,0,0:0:0:70:drum-hitwhistle2.wav
448,192,35479,1,0,0:0:0:70:drum-hitwhistle2.wav
192,192,35672,1,0,0:0:0:70:drum-hitclap.wav
320,192,35672,1,0,0:0:0:70:drum-hitclap.wav
192,192,35864,1,0,0:0:0:70:drum-hitwhistle2.wav
448,192,35864,1,0,0:0:0:70:drum-hitwhistle2.wav
320,192,36056,1,0,0:0:0:70:drum-hitwhistle2.wav
448,192,36056,1,0,0:0:0:70:drum-hitwhistle2.wav
64,192,36248,1,0,0:0:0:70:drum-hitwhistle2.wav
320,192,36248,1,0,0:0:0:70:drum-hitwhistle2.wav
448,192,36441,1,0,0:0:0:70:drum-hitclap.wav
64,192,36441,1,0,0:0:0:70:drum-hitclap.wav
320,192,36633,1,0,0:0:0:70:drum-hitwhistle2.wav
64,192,36633,1,0,0:0:0:70:drum-hitwhistle2.wav
448,192,36729,1,0,0:0:0:70:drum-hitwhistle2.wav
192,192,36825,1,0,0:0:0:70:drum-hitwhistle2.wav
320,192,36825,1,0,0:0:0:70:drum-hitwhistle2.wav
64,192,37018,1,0,0:0:0:70:drum-hitwhistle2.wav
448,192,37018,1,0,0:0:0:70:drum-hitwhistle2.wav
64,192,37210,1,0,0:0:0:70:drum-hitclap.wav
320,192,37210,1,0,0:0:0:70:drum-hitclap.wav
192,192,37402,1,0,0:0:0:70:drum-hitwhistle2.wav
64,192,37402,1,0,0:0:0:70:drum-hitwhistle2.wav
448,192,37498,1,0,0:0:0:70:drum-hitwhistle2.wav
64,192,37595,1,0,0:0:0:70:drum-hitwhistle2.wav
320,192,37595,1,0,0:0:0:70:drum-hitwhistle2.wav
192,192,37787,1,0,0:0:0:70:drum-hitwhistle2.wav
448,192,37787,1,0,0:0:0:70:drum-hitwhistle2.wav
192,192,37979,1,0,0:0:0:70:drum-slidertick4.wav
64,192,37979,1,0,0:0:0:70:drum-slidertick4.wav
192,192,38172,1,0,0:0:0:70:drum-hitwhistle2.wav
320,192,38172,1,0,0:0:0:70:drum-hitwhistle2.wav
448,192,38364,1,0,0:0:0:70:drum-hitwhistle2.wav
320,192,38364,1,0,0:0:0:70:drum-hitwhistle2.wav
64,192,38556,1,0,0:0:0:70:drum-hitwhistle2.wav
448,192,38556,1,0,0:0:0:70:drum-hitwhistle2.wav
448,192,38748,1,0,0:0:0:70:drum-slidertick4.wav
192,192,38748,1,0,0:0:0:70:drum-slidertick4.wav
192,192,38941,1,0,0:0:0:70:drum-hitwhistle2.wav
64,192,39037,1,0,0:0:0:70:drum-hitwhistle2.wav
192,192,39133,1,0,0:0:0:70:drum-hitwhistle2.wav
448,192,39133,1,0,0:0:0:70:drum-hitwhistle2.wav
320,192,39133,1,0,0:0:0:70:drum-hitwhistle2.wav
64,192,39325,1,0,0:0:0:70:drum-hitwhistle2.wav
192,192,39518,1,0,0:0:0:70:drum-hitclap.wav
320,192,39518,1,0,0:0:0:70:drum-hitwhistle2.wav
320,192,39710,1,0,0:0:0:70:drum-hitwhistle2.wav
64,192,39902,1,0,0:0:0:70:drum-hitclap.wav
448,192,39902,1,0,0:0:0:70:drum-hitclap.wav
448,192,40095,1,0,0:0:0:70:drum-hitclap.wav
64,192,40095,1,0,0:0:0:70:drum-hitclap.wav
64,192,40287,1,0,0:0:0:70:drum-hitclap.wav
448,192,40287,128,0,40479:0:0:0:70:drum-hitclap.wav
320,192,40672,1,0,0:0:0:70:drum-hitclap.wav
64,192,40672,1,0,0:0:0:70:drum-hitwhistle2.wav
448,192,40864,1,0,0:0:0:70:drum-hitwhistle2.wav
192,192,41056,1,0,0:0:0:70:drum-hitwhistle2.wav
448,192,41056,1,0,0:0:0:70:drum-hitwhistle2.wav
320,192,41248,1,0,0:0:0:70:drum-hitwhistle2.wav
64,192,41441,1,0,0:0:0:70:drum-hitwhistle2.wav
448,192,41441,1,0,0:0:0:70:drum-hitwhistle2.wav
192,192,41633,1,0,0:0:0:70:drum-hitwhistle2.wav
448,192,41825,1,0,0:0:0:70:drum-hitwhistle2.wav
192,192,41825,1,0,0:0:0:70:drum-hitwhistle2.wav
320,192,42018,1,0,0:0:0:70:drum-hitwhistle2.wav
64,192,42210,1,0,0:0:0:70:drum-hitwhistle2.wav
448,192,42210,1,0,0:0:0:70:drum-hitwhistle2.wav
192,192,42402,1,0,0:0:0:70:drum-hitwhistle2.wav
64,192,42595,1,0,0:0:0:70:drum-hitclap.wav
192,192,42595,1,0,0:0:0:70:drum-hitclap.wav
192,192,42787,1,0,0:0:0:70:drum-hitwhistle2.wav
448,192,42979,1,0,0:0:0:70:drum-hitwhistle2.wav
320,192,43075,1,0,0:0:0:70:drum-hitwhistle2.wav
64,192,43172,1,0,0:0:0:70:drum-hitwhistle2.wav
320,192,43268,1,0,0:0:0:70:drum-hitwhistle2.wav
448,192,43364,1,0,0:0:0:70:drum-hitwhistle2.wav
192,192,43556,1,0,0:0:0:70:drum-hitwhistle2.wav
320,192,43748,1,0,0:0:0:70:drum-hitwhistle2.wav
192,192,43748,1,0,0:0:0:70:drum-hitwhistle2.wav
448,192,43941,1,0,0:0:0:70:drum-hitwhistle2.wav
64,192,43941,1,0,0:0:0:70:drum-hitwhistle2.wav
320,192,44133,1,0,0:0:0:70:drum-hitwhistle2.wav
64,192,44133,1,0,0:0:0:70:drum-hitwhistle2.wav
192,192,44325,1,0,0:0:0:70:drum-hitwhistle2.wav
320,192,44518,1,0,0:0:0:70:drum-hitwhistle2.wav
192,192,44518,1,0,0:0:0:70:drum-hitwhistle2.wav
192,192,44710,128,0,44902:0:0:0:70:drum-hitwhistle2.wav
320,192,44710,128,0,44902:0:0:0:70:drum-hitwhistle2.wav
192,192,45095,1,0,0:0:0:70:drum-hitwhistle2.wav
320,192,45095,1,0,0:0:0:70:drum-hitwhistle2.wav
448,192,45287,1,0,0:0:0:70:drum-hitwhistle2.wav
64,192,45287,1,0,0:0:0:70:drum-hitwhistle2.wav
448,192,45479,1,0,0:0:0:70:drum-hitwhistle2.wav
320,192,45672,1,0,0:0:0:70:drum-hitwhistle2.wav
192,192,45864,1,0,0:0:0:70:drum-hitwhistle2.wav
320,192,46056,1,0,0:0:0:70:drum-hitwhistle2.wav
448,192,46056,1,0,0:0:0:70:drum-hitwhistle2.wav
64,192,46441,1,0,0:0:0:70:drum-hitwhistle2.wav
192,192,46441,1,0,0:0:0:70:drum-hitwhistle2.wav
192,192,46825,1,0,0:0:0:70:drum-hitwhistle2.wav
320,192,47018,1,0,0:0:0:70:drum-hitwhistle2.wav
448,192,47114,1,0,0:0:0:70:drum-hitwhistle2.wav
192,192,47210,1,0,0:0:0:70:drum-hitwhistle2.wav
64,192,47402,1,0,0:0:0:70:drum-hitwhistle2.wav
320,192,47498,1,0,0:0:0:70:drum-hitwhistle2.wav
448,192,47595,1,0,0:0:0:70:drum-hitwhistle2.wav
64,192,47595,128,0,47979:0:0:0:70:drum-hitwhistle2.wav
448,192,47979,1,0,0:0:0:70:drum-hitwhistle2.wav
192,192,48172,1,0,0:0:0:70:drum-hitwhistle2.wav
64,192,48268,1,0,0:0:0:70:drum-hitwhistle2.wav
192,192,48364,128,0,49902:0:0:0:70:drum-hitwhistle2.wav
448,192,48556,1,0,0:0:0:70:drum-hitwhistle2.wav
320,192,48748,1,0,0:0:0:70:drum-hitwhistle2.wav
64,192,48941,1,0,0:0:0:70:drum-hitwhistle2.wav
320,192,49133,1,0,0:0:0:70:drum-hitwhistle2.wav
448,192,49325,1,0,0:0:0:70:drum-hitwhistle2.wav
320,192,49518,1,0,0:0:0:70:drum-hitwhistle2.wav
64,192,49710,1,0,0:0:0:70:drum-hitwhistle2.wav
64,192,49902,1,0,0:0:0:70:drum-hitwhistle2.wav
320,192,49902,1,0,0:0:0:70:drum-hitwhistle2.wav
448,192,49902,1,0,0:0:0:70:drum-hitwhistle2.wav
448,192,50095,1,0,0:0:0:70:drum-hitwhistle2.wav
64,192,50287,1,0,0:0:0:70:drum-hitwhistle2.wav
192,192,50287,1,0,0:0:0:70:drum-hitwhistle2.wav
320,192,50287,1,0,0:0:0:70:drum-hitwhistle2.wav
64,192,50479,1,0,0:0:0:70:drum-hitwhistle2.wav
192,192,50672,1,0,0:0:0:70:drum-hitwhistle2.wav
320,192,50672,1,0,0:0:0:70:drum-hitwhistle2.wav
448,192,50672,1,0,0:0:0:70:drum-hitwhistle2.wav
192,192,50864,1,0,0:0:0:70:drum-hitwhistle2.wav
64,192,51056,1,0,0:0:0:70:drum-hitwhistle2.wav
448,192,51056,1,0,0:0:0:70:drum-hitwhistle2.wav
320,192,51056,1,0,0:0:0:70:drum-hitwhistle2.wav
320,192,51248,1,0,0:0:0:70:drum-hitwhistle2.wav
64,192,51441,1,0,0:0:0:70:drum-hitwhistle2.wav
192,192,51441,1,0,0:0:0:70:drum-hitwhistle2.wav
448,192,51441,1,0,0:0:0:70:drum-hitwhistle2.wav
64,192,51825,1,0,0:0:0:70:drum-hitwhistle2.wav
192,192,51825,1,0,0:0:0:70:drum-hitwhistle2.wav
320,192,51825,1,0,0:0:0:70:drum-hitwhistle2.wav
192,192,52210,1,0,0:0:0:70:drum-hitwhistle2.wav
320,192,52210,1,0,0:0:0:70:drum-hitwhistle2.wav
448,192,52210,1,0,0:0:0:70:drum-hitwhistle2.wav
64,192,52595,1,0,0:0:0:70:drum-hitwhistle2.wav
192,192,52595,1,0,0:0:0:70:drum-hitwhistle2.wav
320,192,52595,1,0,0:0:0:70:drum-hitwhistle2.wav
192,192,52979,1,0,0:0:0:70:drum-hitwhistle2.wav
448,192,52979,1,0,0:0:0:70:drum-hitwhistle2.wav
448,192,53172,1,0,0:0:0:70:drum-hitwhistle2.wav
192,192,53364,1,0,0:0:0:70:drum-hitwhistle2.wav
320,192,53364,1,0,0:0:0:70:drum-hitwhistle2.wav
448,192,53556,1,0,0:0:0:70:drum-hitwhistle2.wav
320,192,53748,1,0,0:0:0:70:drum-hitwhistle2.wav
64,192,53748,1,0,0:0:0:70:drum-hitwhistle2.wav
448,192,53941,1,0,0:0:0:70:drum-hitwhistle2.wav
64,192,54133,1,0,0:0:0:70:drum-hitwhistle2.wav
320,192,54133,1,0,0:0:0:70:drum-hitwhistle2.wav
192,192,54325,1,0,0:0:0:70:drum-hitwhistle2.wav
448,192,54518,1,0,0:0:0:70:drum-hitwhistle2.wav
64,192,54518,1,0,0:0:0:70:drum-hitwhistle2.wav
192,192,54710,1,0,0:0:0:70:drum-hitwhistle2.wav
448,192,54902,1,0,0:0:0:70:drum-hitwhistle2.wav
320,192,55095,1,0,0:0:0:70:drum-hitwhistle2.wav
320,192,55287,1,0,0:0:0:70:drum-hitwhistle2.wav
64,192,55575,1,0,0:0:0:70:drum-hitwhistle2.wav
192,192,55672,1,0,0:0:0:70:drum-hitwhistle2.wav
320,192,55864,1,0,0:0:0:70:drum-hitwhistle2.wav
192,192,56056,1,0,0:0:0:70:drum-hitwhistle2.wav
448,192,56056,1,0,0:0:0:70:drum-hitwhistle2.wav
320,192,56248,1,0,0:0:0:70:drum-hitwhistle2.wav
64,192,56441,1,0,0:0:0:70:drum-hitwhistle2.wav
448,192,56441,1,0,0:0:0:70:drum-hitwhistle2.wav
192,192,56633,1,0,0:0:0:70:drum-hitwhistle2.wav
64,192,56825,1,0,0:0:0:70:drum-hitwhistle2.wav
320,192,56825,1,0,0:0:0:70:drum-hitwhistle2.wav
320,192,57018,1,0,0:0:0:70:drum-hitwhistle2.wav
192,192,57210,1,0,0:0:0:70:drum-hitwhistle2.wav
448,192,57210,1,0,0:0:0:70:drum-hitwhistle2.wav
192,192,57402,1,0,0:0:0:70:drum-hitwhistle2.wav
64,192,57595,1,0,0:0:0:70:drum-hitwhistle2.wav
320,192,57595,1,0,0:0:0:70:drum-hitwhistle2.wav
64,192,57979,1,0,0:0:0:70:drum-hitwhistle2.wav
320,192,57979,1,0,0:0:0:70:drum-hitwhistle2.wav
192,192,58364,1,0,0:0:0:70:drum-hitwhistle2.wav
448,192,58364,1,0,0:0:0:70:drum-hitwhistle2.wav
320,192,58748,1,0,0:0:0:70:drum-hitwhistle2.wav
64,192,58748,1,0,0:0:0:70:drum-hitwhistle2.wav
192,192,59133,1,0,0:0:0:70:drum-hitwhistle2.wav
448,192,59133,1,0,0:0:0:70:drum-hitwhistle2.wav
320,192,59325,1,0,0:0:0:70:drum-hitwhistle2.wav
64,192,59518,1,0,0:0:0:70:drum-hitwhistle2.wav
320,192,59518,1,0,0:0:0:70:drum-hitwhistle2.wav
192,192,59710,1,0,0:0:0:70:drum-hitwhistle2.wav
64,192,59902,1,0,0:0:0:70:drum-hitwhistle2.wav
320,192,59902,1,0,0:0:0:70:drum-hitwhistle2.wav
192,192,60095,1,0,0:0:0:70:drum-hitwhistle2.wav
448,192,60287,1,0,0:0:0:70:drum-hitwhistle2.wav
320,192,60287,1,0,0:0:0:70:drum-hitwhistle2.wav
320,192,60479,1,0,0:0:0:70:drum-hitwhistle2.wav
64,192,60672,1,0,0:0:0:70:drum-hitwhistle2.wav
192,192,60672,1,0,0:0:0:70:drum-hitwhistle2.wav
320,192,61056,1,0,0:0:0:70:drum-hitwhistle2.wav
448,192,61056,1,0,0:0:0:70:drum-hitwhistle2.wav
64,192,61441,1,0,0:0:0:70:drum-hitwhistle2.wav
192,192,61441,1,0,0:0:0:70:drum-hitwhistle2.wav
320,192,61825,1,0,0:0:0:70:drum-hitwhistle2.wav
448,192,61825,1,0,0:0:0:70:drum-hitwhistle2.wav
192,192,62210,1,0,0:0:0:70:drum-hitwhistle2.wav
64,192,62210,128,0,63748:0:0:0:70:drum-hitwhistle2.wav
192,192,63364,1,0,0:0:0:70:drum-hitwhistle2.wav
320,192,63460,1,0,0:0:0:70:drum-hitwhistle2.wav
448,192,63556,1,0,0:0:0:70:drum-hitwhistle2.wav
320,192,63748,1,0,0:0:0:70:drum-hitwhistle2.wav
192,192,63748,1,0,0:0:0:70:drum-hitwhistle2.wav
192,192,63941,1,0,0:0:0:70:drum-hitwhistle2.wav
64,192,64133,1,0,0:0:0:70:drum-hitwhistle2.wav
192,192,64133,1,0,0:0:0:70:drum-hitwhistle2.wav
320,192,64325,1,0,0:0:0:70:drum-hitwhistle2.wav
320,192,64518,1,0,0:0:0:70:drum-hitwhistle2.wav
448,192,64518,1,0,0:0:0:70:drum-hitwhistle2.wav
192,192,64614,1,0,0:0:0:70:drum-hitwhistle2.wav
320,192,64710,1,0,0:0:0:70:drum-hitwhistle2.wav
192,192,64902,1,0,0:0:0:70:drum-hitwhistle2.wav
64,192,64902,1,0,0:0:0:70:drum-hitwhistle2.wav
320,192,65095,1,0,0:0:0:70:drum-hitwhistle2.wav
64,192,65287,1,0,0:0:0:70:drum-hitwhistle2.wav
192,192,65287,1,0,0:0:0:70:drum-hitwhistle2.wav
192,192,65479,1,0,0:0:0:70:drum-hitwhistle2.wav
192,192,65672,1,0,0:0:0:70:drum-hitwhistle2.wav
448,192,65672,1,0,0:0:0:70:drum-hitwhistle2.wav
320,192,65864,1,0,0:0:0:70:drum-hitwhistle2.wav
64,192,66056,1,0,0:0:0:70:drum-hitwhistle2.wav
448,192,66056,1,0,0:0:0:70:drum-hitwhistle2.wav
192,192,66248,1,0,0:0:0:70:drum-hitwhistle2.wav
320,192,66248,1,0,0:0:0:70:drum-hitwhistle2.wav
64,192,66441,128,0,66633:0:0:0:70:drum-hitwhistle2.wav
448,192,66441,128,0,66633:0:0:0:70:drum-hitwhistle2.wav
192,192,66825,1,0,0:0:0:70:drum-hitwhistle2.wav
320,192,66825,1,0,0:0:0:70:drum-hitwhistle2.wav
64,192,67018,1,0,0:0:0:70:drum-hitwhistle2.wav
448,192,67210,1,0,0:0:0:70:drum-hitwhistle2.wav
320,192,67210,1,0,0:0:0:70:drum-hitwhistle2.wav
64,192,67402,1,0,0:0:0:70:drum-hitwhistle2.wav
64,192,67595,1,0,0:0:0:70:drum-hitwhistle2.wav
448,192,67595,1,0,0:0:0:70:drum-hitwhistle2.wav
192,192,67787,1,0,0:0:0:70:drum-hitwhistle2.wav
320,192,67883,1,0,0:0:0:70:drum-hitwhistle2.wav
192,192,67979,1,0,0:0:0:70:drum-hitwhistle2.wav
64,192,67979,1,0,0:0:0:70:drum-hitwhistle2.wav
320,192,68172,1,0,0:0:0:70:drum-hitwhistle2.wav
448,192,68364,1,0,0:0:0:70:drum-hitwhistle2.wav
320,192,68364,1,0,0:0:0:70:drum-hitwhistle2.wav
192,192,68460,1,0,0:0:0:70:drum-hitwhistle2.wav
64,192,68556,1,0,0:0:0:70:drum-hitwhistle2.wav
448,192,68748,1,0,0:0:0:70:drum-hitwhistle2.wav
320,192,68845,1,0,0:0:0:70:drum-hitwhistle2.wav
448,192,68941,1,0,0:0:0:70:drum-hitwhistle2.wav
320,192,69037,1,0,0:0:0:70:drum-hitwhistle2.wav
64,192,69133,1,0,0:0:0:70:drum-hitwhistle2.wav
192,192,69229,1,0,0:0:0:70:drum-hitwhistle2.wav
64,192,69325,1,0,0:0:0:70:drum-hitwhistle2.wav
192,192,69422,1,0,0:0:0:70:drum-hitwhistle2.wav
448,192,69518,1,0,0:0:0:70:drum-hitwhistle2.wav
448,192,69710,1,0,0:0:0:70:drum-hitwhistle2.wav
320,192,69806,1,0,0:0:0:70:drum-hitwhistle2.wav
192,192,69902,1,0,0:0:0:70:drum-hitwhistle2.wav
448,192,69902,128,0,70287:0:0:0:70:drum-hitwhistle2.wav
64,192,70095,1,0,0:0:0:70:drum-hitwhistle2.wav
320,192,70095,1,0,0:0:0:70:drum-hitwhistle2.wav
192,192,70287,128,0,70672:0:0:0:70:drum-hitwhistle2.wav
320,192,70479,1,0,0:0:0:70:drum-hitwhistle2.wav
64,192,70479,1,0,0:0:0:70:drum-hitwhistle2.wav
448,192,70672,128,0,71056:0:0:0:70:drum-hitwhistle2.wav
320,192,70864,1,0,0:0:0:70:drum-hitwhistle2.wav
192,192,70864,1,0,0:0:0:70:drum-hitwhistle2.wav
64,192,71056,128,0,71441:0:0:0:70:drum-hitwhistle2.wav
448,192,71248,128,0,71441:0:0:0:70:drum-hitwhistle2.wav
320,192,71441,128,0,71825:0:0:0:70:drum-hitwhistle2.wav
448,192,71633,128,0,71825:0:0:0:70:drum-hitwhistle2.wav
192,192,71633,1,0,0:0:0:70:drum-hitwhistle2.wav
64,192,71825,128,0,72210:0:0:0:70:drum-hitwhistle2.wav
192,192,72018,1,0,0:0:0:70:drum-hitwhistle2.wav
320,192,72018,1,0,0:0:0:70:drum-hitwhistle2.wav
448,192,72210,128,0,72595:0:0:0:70:drum-hitwhistle2.wav
320,192,72402,1,0,0:0:0:70:drum-hitwhistle2.wav
192,192,72402,1,0,0:0:0:70:drum-hitwhistle2.wav
192,192,72595,128,0,72979:0:0:0:70:drum-hitwhistle2.wav
320,192,72787,1,0,0:0:0:70:drum-hitwhistle2.wav
448,192,72787,1,0,0:0:0:70:drum-hitwhistle2.wav
320,192,72979,128,0,73364:0:0:0:70:drum-hitwhistle2.wav
64,192,73172,1,0,0:0:0:70:drum-hitwhistle2.wav
448,192,73172,1,0,0:0:0:70:drum-hitwhistle2.wav
192,192,73364,128,0,73748:0:0:0:70:drum-hitwhistle2.wav
320,192,73556,1,0,0:0:0:70:drum-hitwhistle2.wav
448,192,73556,1,0,0:0:0:70:drum-hitwhistle2.wav
64,192,73748,128,0,74133:0:0:0:70:drum-hitwhistle2.wav
192,192,73941,1,0,0:0:0:70:drum-hitwhistle2.wav
320,192,74133,128,0,74518:0:0:0:70:drum-hitwhistle2.wav
192,192,74325,1,0,0:0:0:70:drum-hitwhistle2.wav
448,192,74325,1,0,0:0:0:70:drum-hitwhistle2.wav
192,192,74518,1,0,0:0:0:70:drum-hitwhistle2.wav
64,192,74518,1,0,0:0:0:70:drum-hitwhistle2.wav
192,192,74710,1,0,0:0:0:70:drum-hitwhistle2.wav
320,192,74710,1,0,0:0:0:70:drum-hitwhistle2.wav
192,192,74902,1,0,0:0:0:70:drum-hitwhistle2.wav
320,192,74902,1,0,0:0:0:70:drum-hitwhistle2.wav
320,192,75191,1,0,0:0:0:70:drum-hitwhistle2.wav
448,192,75287,1,0,0:0:0:70:drum-hitwhistle2.wav
192,192,75383,1,0,0:0:0:70:drum-hitwhistle2.wav
64,192,75479,1,0,0:0:0:70:drum-hitwhistle2.wav
320,192,75575,1,0,0:0:0:70:drum-hitwhistle2.wav
448,192,75672,1,0,0:0:0:70:drum-hitwhistle2.wav
320,192,75768,1,0,0:0:0:70:drum-hitwhistle2.wav
64,192,76056,1,0,0:0:0:70:drum-hitwhistle2.wav
448,192,76248,1,0,0:0:0:70:drum-hitwhistle2.wav
64,192,76441,1,0,0:0:0:70:drum-hitwhistle2.wav
448,192,76441,1,0,0:0:0:70:drum-hitwhistle2.wav
64,192,76633,1,0,0:0:0:70:drum-hitwhistle2.wav
320,192,76825,1,0,0:0:0:70:drum-hitwhistle2.wav
448,192,76825,1,0,0:0:0:70:drum-hitwhistle2.wav
448,192,77018,1,0,0:0:0:70:drum-hitwhistle2.wav
64,192,77210,1,0,0:0:0:70:drum-hitwhistle2.wav
192,192,77210,1,0,0:0:0:70:drum-hitwhistle2.wav
448,192,77402,1,0,0:0:0:70:drum-hitwhistle2.wav
192,192,77595,1,0,0:0:0:70:drum-hitwhistle2.wav
448,192,77595,1,0,0:0:0:70:drum-hitwhistle2.wav
448,192,77787,1,0,0:0:0:70:drum-hitwhistle2.wav
64,192,77787,1,0,0:0:0:70:drum-hitwhistle2.wav
320,192,77979,1,0,0:0:0:70:drum-hitwhistle2.wav
64,192,78172,1,0,0:0:0:70:drum-hitwhistle2.wav
320,192,78172,1,0,0:0:0:70:drum-hitwhistle2.wav
192,192,78364,1,0,0:0:0:70:drum-hitwhistle2.wav
320,192,78364,1,0,0:0:0:70:drum-hitwhistle2.wav
448,192,78364,1,0,0:0:0:70:drum-hitwhistle2.wav
448,192,78556,1,0,0:0:0:70:drum-hitwhistle2.wav
64,192,78556,1,0,0:0:0:70:drum-hitwhistle2.wav
320,192,78748,1,0,0:0:0:70:drum-hitwhistle2.wav
448,192,78748,1,0,0:0:0:70:drum-hitwhistle2.wav
192,192,78748,1,0,0:0:0:70:drum-hitwhistle2.wav
64,192,78845,1,0,0:0:0:70:drum-hitwhistle2.wav
320,192,78941,1,0,0:0:0:70:drum-hitwhistle2.wav
192,192,79133,1,0,0:0:0:70:drum-hitwhistle2.wav
448,192,79133,1,0,0:0:0:70:drum-hitwhistle2.wav
320,192,79133,1,0,0:0:0:70:drum-hitwhistle2.wav
448,192,79325,1,0,0:0:0:70:drum-hitwhistle2.wav
64,192,79325,1,0,0:0:0:70:drum-hitwhistle2.wav
320,192,79518,1,0,0:0:0:70:drum-hitwhistle2.wav
64,192,79518,1,0,0:0:0:70:drum-hitwhistle2.wav
192,192,79518,1,0,0:0:0:70:drum-hitwhistle2.wav
64,192,79902,1,0,0:0:0:70:drum-hitwhistle2.wav
320,192,79902,1,0,0:0:0:70:drum-hitwhistle2.wav
448,192,79902,1,0,0:0:0:70:drum-hitwhistle2.wav
320,192,80287,1,0,0:0:0:70:drum-hitwhistle2.wav
448,192,80287,1,0,0:0:0:70:drum-hitwhistle2.wav
64,192,80287,1,0,0:0:0:70:drum-hitwhistle2.wav
64,192,80672,1,0,0:0:0:70:drum-hitwhistle2.wav
448,192,80672,1,0,0:0:0:70:drum-hitwhistle2.wav
192,192,80864,1,0,0:0:0:70:drum-hitwhistle2.wav
448,192,80864,1,0,0:0:0:70:drum-hitwhistle2.wav
64,192,81056,1,0,0:0:0:70:drum-hitwhistle2.wav
448,192,81056,1,0,0:0:0:70:drum-hitwhistle2.wav
320,192,81441,1,0,0:0:0:70:drum-hitwhistle2.wav
64,192,81441,1,0,0:0:0:70:drum-hitwhistle2.wav
448,192,81441,1,0,0:0:0:70:drum-hitwhistle2.wav
192,192,81537,1,0,0:0:0:70:drum-hitwhistle2.wav
320,192,81633,1,0,0:0:0:70:drum-hitwhistle2.wav
64,192,81633,1,0,0:0:0:70:drum-hitwhistle2.wav
192,192,81729,1,0,0:0:0:70:drum-hitwhistle2.wav
64,192,81825,1,0,0:0:0:70:drum-hitwhistle2.wav
320,192,81825,1,0,0:0:0:70:drum-hitwhistle2.wav
64,192,82210,1,0,0:0:0:70:drum-hitwhistle2.wav
192,192,82210,1,0,0:0:0:70:drum-hitwhistle2.wav
192,192,82498,1,0,0:0:0:70:drum-hitwhistle2.wav
320,192,82498,1,0,0:0:0:70:drum-hitwhistle2.wav
448,192,82787,1,0,0:0:0:70:drum-hitwhistle2.wav
320,192,82787,1,0,0:0:0:70:drum-hitwhistle2.wav
64,192,82979,128,0,83748:0:0:0:70:drum-hitwhistle2.wav
192,192,82979,1,0,0:0:0:70:drum-hitwhistle2.wav
320,192,83748,1,0,0:0:0:70:drum-hitwhistle2.wav
448,192,83748,1,0,0:0:0:70:drum-hitwhistle2.wav
64,192,84037,1,0,0:0:0:70:drum-hitwhistle2.wav
192,192,84037,1,0,0:0:0:70:drum-hitwhistle2.wav
320,192,84325,1,0,0:0:0:70:drum-hitwhistle2.wav
448,192,84325,1,0,0:0:0:70:drum-hitwhistle2.wav
320,192,84518,128,0,85287:0:0:0:70:drum-hitwhistle2.wav
192,192,84518,1,0,0:0:0:70:drum-hitwhistle2.wav
192,192,84902,1,0,0:0:0:70:drum-hitwhistle2.wav
64,192,84902,1,0,0:0:0:70:drum-hitwhistle2.wav
64,192,85287,1,0,0:0:0:70:drum-hitwhistle2.wav
192,192,85287,1,0,0:0:0:70:drum-hitwhistle2.wav
448,192,85383,1,0,0:0:0:70:drum-hitwhistle2.wav
320,192,85383,1,0,0:0:0:70:drum-hitwhistle2.wav
192,192,85479,1,0,0:0:0:70:drum-hitwhistle2.wav
64,192,85479,1,0,0:0:0:70:drum-hitwhistle2.wav
320,192,85575,1,0,0:0:0:70:drum-hitwhistle2.wav
448,192,85575,1,0,0:0:0:70:drum-hitwhistle2.wav
192,192,85672,1,0,0:0:0:70:drum-hitwhistle2.wav
64,192,85672,1,0,0:0:0:70:drum-hitwhistle2.wav
320,192,85768,1,0,0:0:0:70:drum-hitwhistle2.wav
448,192,85768,1,0,0:0:0:70:drum-hitwhistle2.wav
192,192,85864,1,0,0:0:0:70:drum-hitwhistle2.wav
64,192,85864,1,0,0:0:0:70:drum-hitwhistle2.wav
320,192,85960,1,0,0:0:0:70:drum-hitwhistle2.wav
448,192,85960,1,0,0:0:0:70:drum-hitwhistle2.wav
192,192,86056,1,0,0:0:0:70:drum-hitwhistle2.wav
64,192,86056,1,0,0:0:0:70:drum-hitwhistle2.wav
320,192,86152,1,0,0:0:0:70:drum-hitwhistle2.wav
448,192,86152,1,0,0:0:0:70:drum-hitwhistle2.wav
64,192,86248,1,0,0:0:0:70:drum-hitwhistle2.wav
192,192,86248,1,0,0:0:0:70:drum-hitwhistle2.wav
448,192,86345,1,0,0:0:0:70:drum-hitwhistle2.wav
320,192,86345,1,0,0:0:0:70:drum-hitwhistle2.wav
192,192,86441,1,0,0:0:0:70:drum-hitwhistle2.wav
64,192,86441,1,0,0:0:0:70:drum-hitwhistle2.wav
320,192,86537,1,0,0:0:0:70:drum-hitwhistle2.wav
448,192,86537,1,0,0:0:0:70:drum-hitwhistle2.wav
192,192,86633,1,0,0:0:0:70:drum-hitwhistle2.wav
64,192,86633,1,0,0:0:0:70:drum-hitwhistle2.wav
320,192,86729,1,0,0:0:0:70:drum-hitwhistle2.wav
448,192,86729,1,0,0:0:0:70:drum-hitwhistle2.wav
192,192,86825,1,0,0:0:0:70:drum-hitwhistle2.wav
64,192,86825,1,0,0:0:0:70:drum-hitwhistle2.wav
320,192,86922,1,0,0:0:0:70:drum-hitwhistle2.wav
448,192,86922,1,0,0:0:0:70:drum-hitwhistle2.wav
448,192,87210,1,0,0:0:0:70:drum-hitwhistle2.wav
320,192,87210,1,0,0:0:0:70:drum-hitwhistle2.wav
192,192,87306,1,0,0:0:0:70:drum-hitwhistle2.wav
64,192,87306,1,0,0:0:0:70:drum-hitwhistle2.wav
448,192,87595,1,0,0:0:0:70:drum-hitwhistle2.wav
320,192,87595,1,0,0:0:0:70:drum-hitwhistle2.wav
64,192,87691,1,0,0:0:0:70:drum-hitwhistle2.wav
192,192,87691,1,0,0:0:0:70:drum-hitwhistle2.wav
192,192,87883,1,0,0:0:0:70:drum-hitwhistle2.wav
64,192,87979,128,0,88147:0:0:0:70:drum-hitwhistle2.wav
320,192,87979,1,0,0:0:0:70:drum-hitwhistle2.wav
64,192,88364,1,0,0:0:0:30:drum-hitclap.wav
448,192,88364,1,0,0:0:0:30:drum-hitclap.wav
192,192,88556,1,0,0:0:0:30:drum-hitclap.wav
64,192,88556,1,0,0:0:0:30:drum-hitclap.wav
320,192,88748,1,0,0:0:0:30:drum-hitclap.wav
448,192,88748,1,0,0:0:0:30:drum-hitclap.wav
448,192,88941,1,0,0:0:0:30:drum-hitclap.wav
320,192,88941,1,0,0:0:0:30:drum-hitclap.wav
64,192,89133,1,0,0:0:0:30:drum-hitclap.wav
192,192,89133,1,0,0:0:0:30:drum-hitclap.wav
192,192,89325,1,0,0:0:0:30:drum-hitclap.wav
64,192,89325,1,0,0:0:0:30:drum-hitclap.wav
320,192,89518,1,0,0:0:0:30:drum-hitclap.wav
448,192,89518,1,0,0:0:0:30:drum-hitclap.wav
192,192,89710,1,0,0:0:0:30:drum-hitclap.wav
64,192,89710,1,0,0:0:0:30:drum-hitclap.wav
448,192,89902,1,0,0:0:0:30:drum-hitclap.wav
192,192,89902,1,0,0:0:0:30:drum-hitclap.wav
192,192,90095,1,0,0:0:0:30:drum-hitclap.wav
320,192,90095,1,0,0:0:0:30:drum-hitclap.wav
192,192,90287,1,0,0:0:0:30:drum-hitclap.wav
320,192,90287,1,0,0:0:0:30:drum-hitclap.wav
64,192,90479,1,0,0:0:0:30:drum-hitclap.wav
192,192,90479,1,0,0:0:0:30:drum-hitclap.wav
192,192,90672,1,0,0:0:0:30:drum-hitclap.wav
320,192,90672,1,0,0:0:0:30:drum-hitclap.wav
448,192,90864,1,0,0:0:0:30:drum-hitclap.wav
320,192,90864,1,0,0:0:0:30:drum-hitclap.wav
64,192,91056,1,0,0:0:0:30:drum-hitclap.wav
192,192,91056,1,0,0:0:0:30:drum-hitclap.wav
192,192,91248,1,0,0:0:0:20:drum-hitclap.wav
320,192,91248,1,0,0:0:0:20:drum-hitclap.wav
64,192,91345,1,0,0:0:0:20:drum-hitclap.wav
320,192,91441,1,0,0:0:0:10:drum-slidertick3.wav
448,192,91489,1,0,0:0:0:10:drum-slidertick3.wav
320,192,91537,1,0,0:0:0:10:drum-slidertick3.wav
192,192,91585,1,0,0:0:0:10:drum-slidertick3.wav
64,192,91633,1,0,0:0:0:10:drum-slidertick3.wav
192,192,91681,1,0,0:0:0:10:drum-slidertick3.wav
320,192,91729,1,0,0:0:0:10:drum-slidertick3.wav
448,192,91777,1,0,0:0:0:10:drum-slidertick3.wav
320,192,91825,1,0,0:0:0:10:drum-slidertick3.wav
192,192,91873,1,0,0:0:0:10:drum-slidertick3.wav
64,192,91922,1,0,0:0:0:10:drum-slidertick3.wav
192,192,91970,1,0,0:0:0:10:drum-slidertick3.wav
320,192,92018,1,0,0:0:0:10:drum-slidertick3.wav
448,192,92066,1,0,0:0:0:10:drum-slidertick3.wav
320,192,92114,1,0,0:0:0:10:drum-slidertick3.wav
192,192,92162,1,0,0:0:0:10:drum-slidertick3.wav
64,192,92210,1,0,0:0:0:10:drum-slidertick3.wav
192,192,92258,1,0,0:0:0:10:drum-slidertick3.wav
320,192,92306,1,0,0:0:0:10:drum-slidertick3.wav
448,192,92354,1,0,0:0:0:10:drum-slidertick3.wav
320,192,92402,1,0,0:0:0:10:drum-slidertick3.wav
192,192,92450,1,0,0:0:0:10:drum-slidertick3.wav
64,192,92498,1,0,0:0:0:10:drum-slidertick3.wav
192,192,92547,1,0,0:0:0:10:drum-slidertick3.wav
320,192,92595,1,0,0:0:0:10:drum-slidertick3.wav
448,192,92643,1,0,0:0:0:10:drum-slidertick3.wav
320,192,92691,1,0,0:0:0:10:drum-slidertick3.wav
192,192,92739,1,0,0:0:0:10:drum-slidertick3.wav
64,192,92787,1,0,0:0:0:10:drum-slidertick3.wav
192,192,92835,1,0,0:0:0:10:drum-slidertick3.wav
320,192,92883,1,0,0:0:0:10:drum-slidertick3.wav
448,192,92931,1,0,0:0:0:10:drum-slidertick3.wav
192,192,92979,128,0,94518:0:0:0:70:drum-hitwhistle2.wav
320,192,94518,1,0,0:0:0:70:drum-hitwhistle2.wav
448,192,94710,1,0,0:0:0:70:drum-hitwhistle2.wav
320,192,94902,1,0,0:0:0:70:drum-hitwhistle2.wav
192,192,95095,1,0,0:0:0:70:drum-hitwhistle2.wav
64,192,95287,1,0,0:0:0:70:drum-hitwhistle2.wav
448,192,95479,1,0,0:0:0:70:drum-hitwhistle2.wav
192,192,95672,1,0,0:0:0:70:drum-hitwhistle2.wav
320,192,95864,1,0,0:0:0:70:drum-hitwhistle2.wav
64,192,96056,1,0,0:0:0:70:drum-hitwhistle2.wav
448,192,96248,1,0,0:0:0:70:drum-hitwhistle2.wav
192,192,96441,1,0,0:0:0:70:drum-hitwhistle2.wav
320,192,96633,1,0,0:0:0:70:drum-hitwhistle2.wav
64,192,96825,1,0,0:0:0:70:drum-hitwhistle2.wav
448,192,97018,1,0,0:0:0:70:drum-hitwhistle2.wav
192,192,97210,1,0,0:0:0:70:drum-hitwhistle2.wav
320,192,97402,1,0,0:0:0:70:drum-hitwhistle2.wav
64,192,97595,1,0,0:0:0:70:drum-hitwhistle2.wav
448,192,97787,1,0,0:0:0:70:drum-hitwhistle2.wav
192,192,97979,1,0,0:0:0:70:drum-hitwhistle2.wav
320,192,98172,1,0,0:0:0:70:drum-hitwhistle2.wav
64,192,98364,1,0,0:0:0:70:drum-hitwhistle2.wav
448,192,98556,1,0,0:0:0:70:drum-hitwhistle2.wav
192,192,98748,1,0,0:0:0:70:drum-hitwhistle2.wav
448,192,98941,1,0,0:0:0:70:drum-hitwhistle2.wav
192,192,99133,1,0,0:0:0:70:drum-hitwhistle2.wav
320,192,99325,1,0,0:0:0:70:drum-hitwhistle2.wav
64,192,99518,1,0,0:0:0:70:drum-hitwhistle2.wav
320,192,99710,1,0,0:0:0:70:drum-hitwhistle2.wav
192,192,99902,1,0,0:0:0:70:drum-hitwhistle2.wav
448,192,100095,1,0,0:0:0:70:drum-hitwhistle2.wav
320,192,100287,1,0,0:0:0:70:drum-hitwhistle2.wav
192,192,100479,1,0,0:0:0:70:drum-hitwhistle2.wav
64,192,100672,1,0,0:0:0:70:drum-hitwhistle2.wav
320,192,100864,1,0,0:0:0:70:drum-hitwhistle2.wav
192,192,101056,1,0,0:0:0:70:drum-hitwhistle2.wav
448,192,101248,1,0,0:0:0:70:drum-hitwhistle2.wav
320,192,101441,1,0,0:0:0:70:drum-hitwhistle2.wav
64,192,101633,1,0,0:0:0:70:drum-hitwhistle2.wav
448,192,101825,1,0,0:0:0:70:drum-hitwhistle2.wav
192,192,102018,1,0,0:0:0:70:drum-hitwhistle2.wav
448,192,102210,1,0,0:0:0:70:drum-hitwhistle2.wav
320,192,102402,1,0,0:0:0:70:drum-hitwhistle2.wav
192,192,102595,1,0,0:0:0:70:drum-hitwhistle2.wav
64,192,102787,1,0,0:0:0:70:drum-hitwhistle2.wav
448,192,102979,1,0,0:0:0:70:drum-hitwhistle2.wav
192,192,103172,1,0,0:0:0:70:drum-hitwhistle2.wav
320,192,103364,1,0,0:0:0:70:drum-hitwhistle2.wav
64,192,103556,1,0,0:0:0:70:drum-hitwhistle2.wav
320,192,103748,1,0,0:0:0:70:drum-hitwhistle2.wav
192,192,103941,1,0,0:0:0:70:drum-hitwhistle2.wav
320,192,104133,1,0,0:0:0:70:drum-hitwhistle2.wav
192,192,104325,1,0,0:0:0:70:drum-hitwhistle2.wav
64,192,104518,1,0,0:0:0:70:drum-hitwhistle2.wav
192,192,104710,1,0,0:0:0:70:drum-hitwhistle2.wav
320,192,104902,1,0,0:0:0:70:drum-hitwhistle2.wav
448,192,105095,1,0,0:0:0:70:drum-hitwhistle2.wav
320,192,105287,1,0,0:0:0:70:drum-hitwhistle2.wav
64,192,105287,128,0,106825:0:0:0:70:drum-hitwhistle2.wav
192,192,105479,1,0,0:0:0:70:drum-hitwhistle2.wav
320,192,105672,1,0,0:0:0:70:drum-hitwhistle2.wav
192,192,105864,1,0,0:0:0:70:drum-hitwhistle2.wav
320,192,106056,1,0,0:0:0:70:drum-hitwhistle2.wav
448,192,106248,1,0,0:0:0:70:drum-hitwhistle2.wav
320,192,106441,1,0,0:0:0:70:drum-hitwhistle2.wav
192,192,106633,1,0,0:0:0:70:drum-hitwhistle2.wav
320,192,106825,1,0,0:0:0:70:drum-hitwhistle2.wav
448,192,106825,128,0,108364:0:0:0:70:drum-hitwhistle2.wav
192,192,108364,128,0,109902:0:0:0:70:drum-hitwhistle2.wav
64,192,109902,128,0,111441:0:0:0:70:drum-hitwhistle2.wav
320,192,111441,128,0,112979:0:0:0:70:drum-hitwhistle2.wav
192,192,112979,128,0,114518:0:0:0:70:drum-hitwhistle2.wav
448,192,114518,128,0,116056:0:0:0:70:drum-hitwhistle2.wav
320,192,116056,128,0,117595:0:0:0:70:drum-hitwhistle2.wav
192,192,119133,1,0,0:0:0:70:drum-hitwhistle2.wav
320,192,119133,1,0,0:0:0:70:drum-hitwhistle2.wav
192,192,119325,1,0,0:0:0:70:drum-hitwhistle2.wav
320,192,119518,1,0,0:0:0:70:drum-hitclap.wav
64,192,119518,1,0,0:0:0:70:drum-hitclap.wav
192,192,119710,1,0,0:0:0:70:drum-hitwhistle2.wav
64,192,119902,1,0,0:0:0:70:drum-hitwhistle2.wav
448,192,119902,1,0,0:0:0:70:drum-hitwhistle2.wav
448,192,120095,1,0,0:0:0:70:drum-hitwhistle2.wav
320,192,120191,1,0,0:0:0:70:drum-hitwhistle2.wav
192,192,120287,1,0,0:0:0:70:drum-hitclap.wav
448,192,120479,1,0,0:0:0:70:drum-hitwhistle2.wav
64,192,120479,1,0,0:0:0:70:drum-hitwhistle2.wav
320,192,120672,1,0,0:0:0:70:drum-hitwhistle2.wav
64,192,120864,1,0,0:0:0:70:drum-hitwhistle2.wav
320,192,120864,1,0,0:0:0:70:drum-hitwhistle2.wav
192,192,121056,1,0,0:0:0:70:drum-hitclap.wav
448,192,121248,1,0,0:0:0:70:drum-hitwhistle2.wav
64,192,121248,1,0,0:0:0:70:drum-hitwhistle2.wav
320,192,121441,1,0,0:0:0:70:drum-hitwhistle2.wav
192,192,121633,1,0,0:0:0:70:drum-hitwhistle2.wav
64,192,121825,1,0,0:0:0:70:drum-hitclap.wav
448,192,122018,1,0,0:0:0:70:drum-hitwhistle2.wav
192,192,122018,1,0,0:0:0:70:drum-hitwhistle2.wav
320,192,122210,1,0,0:0:0:70:drum-hitwhistle2.wav
64,192,122402,1,0,0:0:0:70:drum-hitwhistle2.wav
320,192,122402,1,0,0:0:0:70:drum-hitwhistle2.wav
192,192,122595,1,0,0:0:0:70:drum-hitclap.wav
448,192,122787,1,0,0:0:0:70:drum-hitwhistle2.wav
64,192,122787,1,0,0:0:0:70:drum-hitwhistle2.wav
320,192,122979,1,0,0:0:0:70:drum-hitwhistle2.wav
192,192,123172,1,0,0:0:0:70:drum-hitwhistle2.wav
448,192,123172,1,0,0:0:0:70:drum-hitwhistle2.wav
320,192,123268,1,0,0:0:0:70:drum-hitwhistle2.wav
448,192,123364,1,0,0:0:0:70:drum-hitclap.wav
64,192,123364,1,0,0:0:0:70:drum-hitclap.wav
192,192,123556,1,0,0:0:0:70:drum-hitwhistle2.wav
192,192,123748,1,0,0:0:0:70:drum-hitwhistle2.wav
64,192,123941,1,0,0:0:0:70:drum-hitwhistle2.wav
320,192,123941,1,0,0:0:0:70:drum-hitwhistle2.wav
448,192,124133,1,0,0:0:0:70:drum-hitclap.wav
192,192,124133,128,0,125287:0:0:0:70:drum-hitclap.wav
64,192,124325,1,0,0:0:0:70:drum-hitwhistle2.wav
448,192,124325,1,0,0:0:0:70:drum-hitwhistle2.wav
64,192,124518,1,0,0:0:0:70:drum-hitwhistle2.wav
448,192,124710,1,0,0:0:0:70:drum-hitwhistle2.wav
448,192,124902,1,0,0:0:0:70:drum-hitclap.wav
320,192,125095,1,0,0:0:0:70:drum-hitwhistle2.wav
64,192,125287,1,0,0:0:0:70:drum-hitwhistle2.wav
448,192,125287,1,0,0:0:0:70:drum-hitwhistle2.wav
192,192,125479,1,0,0:0:0:70:drum-hitwhistle2.wav
64,192,125672,1,0,0:0:0:70:drum-hitclap.wav
320,192,125672,1,0,0:0:0:70:drum-hitclap.wav
192,192,125864,1,0,0:0:0:70:drum-hitwhistle2.wav
64,192,126056,1,0,0:0:0:70:drum-hitwhistle2.wav
320,192,126056,1,0,0:0:0:70:drum-hitwhistle2.wav
192,192,126248,1,0,0:0:0:70:drum-hitwhistle2.wav
320,192,126345,1,0,0:0:0:70:drum-hitwhistle2.wav
448,192,126441,1,0,0:0:0:70:drum-hitclap.wav
64,192,126441,1,0,0:0:0:70:drum-hitclap.wav
320,192,126633,1,0,0:0:0:70:drum-hitwhistle2.wav
64,192,126825,1,0,0:0:0:70:drum-hitwhistle2.wav
192,192,126825,1,0,0:0:0:70:drum-hitwhistle2.wav
448,192,127018,1,0,0:0:0:70:drum-hitwhistle2.wav
192,192,127210,1,0,0:0:0:70:drum-hitclap.wav
448,192,127210,1,0,0:0:0:70:drum-hitclap.wav
320,192,127402,1,0,0:0:0:70:drum-hitwhistle2.wav
192,192,127595,1,0,0:0:0:70:drum-hitwhistle2.wav
448,192,127595,1,0,0:0:0:70:drum-hitwhistle2.wav
64,192,127787,1,0,0:0:0:70:drum-hitwhistle2.wav
64,192,127979,1,0,0:0:0:70:drum-hitclap.wav
448,192,127979,1,0,0:0:0:70:drum-hitclap.wav
320,192,128172,1,0,0:0:0:70:drum-hitwhistle2.wav
192,192,128172,1,0,0:0:0:70:drum-hitwhistle2.wav
64,192,128364,1,0,0:0:0:70:drum-hitwhistle2.wav
448,192,128556,1,0,0:0:0:70:drum-hitwhistle2.wav
192,192,128556,1,0,0:0:0:70:drum-hitwhistle2.wav
64,192,128748,1,0,0:0:0:70:drum-hitclap.wav
320,192,128941,1,0,0:0:0:70:drum-hitwhistle2.wav
64,192,129133,1,0,0:0:0:70:drum-hitwhistle2.wav
192,192,129133,1,0,0:0:0:70:drum-hitwhistle2.wav
448,192,129325,1,0,0:0:0:70:drum-hitwhistle2.wav
320,192,129422,1,0,0:0:0:70:drum-hitwhistle2.wav
192,192,129518,1,0,0:0:0:70:drum-hitclap.wav
320,192,129710,1,0,0:0:0:70:drum-hitwhistle2.wav
64,192,129710,1,0,0:0:0:70:drum-hitwhistle2.wav
192,192,129806,1,0,0:0:0:70:drum-hitwhistle2.wav
64,192,129902,1,0,0:0:0:70:drum-hitwhistle2.wav
448,192,129902,1,0,0:0:0:70:drum-hitwhistle2.wav
192,192,130095,1,0,0:0:0:70:drum-hitwhistle2.wav
64,192,130287,1,0,0:0:0:70:drum-hitwhistle2.wav
320,192,130287,1,0,0:0:0:70:drum-hitwhistle2.wav
192,192,130479,1,0,0:0:0:70:drum-hitwhistle2.wav
448,192,130672,1,0,0:0:0:70:drum-hitwhistle2.wav
320,192,130672,1,0,0:0:0:70:drum-hitwhistle2.wav
320,192,130864,1,0,0:0:0:70:drum-hitwhistle2.wav
64,192,131056,1,0,0:0:0:70:drum-hitwhistle2.wav
448,192,131056,1,0,0:0:0:70:drum-hitwhistle2.wav
192,192,131248,1,0,0:0:0:70:drum-hitwhistle2.wav
320,192,131441,1,0,0:0:0:70:drum-hitwhistle2.wav
64,192,131441,1,0,0:0:0:70:drum-hitwhistle2.wav
192,192,131633,1,0,0:0:0:70:drum-hitwhistle2.wav
320,192,131825,1,0,0:0:0:70:drum-hitwhistle2.wav
448,192,131825,1,0,0:0:0:70:drum-hitwhistle2.wav
448,192,132018,1,0,0:0:0:70:drum-hitwhistle2.wav
64,192,132210,1,0,0:0:0:70:drum-hitwhistle2.wav
192,192,132210,1,0,0:0:0:70:drum-hitwhistle2.wav
320,192,132402,1,0,0:0:0:70:drum-hitwhistle2.wav
192,192,132595,1,0,0:0:0:70:drum-hitwhistle2.wav
320,192,132595,1,0,0:0:0:70:drum-hitwhistle2.wav
64,192,132691,1,0,0:0:0:70:drum-hitwhistle2.wav
448,192,132691,1,0,0:0:0:70:drum-hitwhistle2.wav
64,192,132979,1,0,0:0:0:70:drum-hitwhistle2.wav
448,192,132979,1,0,0:0:0:70:drum-hitwhistle2.wav
320,192,133075,1,0,0:0:0:70:drum-hitwhistle2.wav
192,192,133075,1,0,0:0:0:70:drum-hitwhistle2.wav
448,192,133364,1,0,0:0:0:70:drum-hitwhistle2.wav
192,192,133364,1,0,0:0:0:70:drum-hitwhistle2.wav
320,192,133460,1,0,0:0:0:70:drum-hitwhistle2.wav
64,192,133460,1,0,0:0:0:70:drum-hitwhistle2.wav
192,192,133748,1,0,0:0:0:70:drum-hitwhistle2.wav
448,192,133941,1,0,0:0:0:70:drum-hitwhistle2.wav
192,192,133941,1,0,0:0:0:70:drum-hitwhistle2.wav
320,192,134133,1,0,0:0:0:70:drum-hitwhistle2.wav
448,192,134325,1,0,0:0:0:70:drum-hitwhistle2.wav
320,192,134422,1,0,0:0:0:70:drum-hitwhistle2.wav
192,192,134518,1,0,0:0:0:70:drum-hitwhistle2.wav
448,192,134710,1,0,0:0:0:70:drum-hitwhistle2.wav
64,192,134902,1,0,0:0:0:70:drum-hitwhistle2.wav
320,192,134902,1,0,0:0:0:70:drum-hitwhistle2.wav
448,192,135095,1,0,0:0:0:70:drum-hitwhistle2.wav
192,192,135287,1,0,0:0:0:70:drum-hitwhistle2.wav
320,192,135287,1,0,0:0:0:70:drum-hitwhistle2.wav
192,192,135479,1,0,0:0:0:70:drum-hitwhistle2.wav
64,192,135672,1,0,0:0:0:70:drum-hitwhistle2.wav
448,192,135672,1,0,0:0:0:70:drum-hitwhistle2.wav
320,192,135672,128,0,135864:0:0:0:70:drum-hitwhistle2.wav
192,192,135864,1,0,0:0:0:70:drum-hitwhistle2.wav
64,192,136056,1,0,0:0:0:70:drum-hitwhistle2.wav
448,192,136056,1,0,0:0:0:70:drum-hitwhistle2.wav
192,192,136248,1,0,0:0:0:70:drum-hitwhistle2.wav
448,192,136248,1,0,0:0:0:70:drum-hitwhistle2.wav
320,192,136441,1,0,0:0:0:70:drum-hitwhistle2.wav
64,192,136633,1,0,0:0:0:70:drum-hitwhistle2.wav
448,192,136633,1,0,0:0:0:70:drum-hitwhistle2.wav
192,192,136825,1,0,0:0:0:70:drum-hitwhistle2.wav
448,192,137018,1,0,0:0:0:70:drum-hitwhistle2.wav
64,192,137018,1,0,0:0:0:70:drum-hitwhistle2.wav
192,192,137210,1,0,0:0:0:70:drum-hitwhistle2.wav
448,192,137402,1,0,0:0:0:70:drum-hitwhistle2.wav
64,192,137402,1,0,0:0:0:70:drum-hitwhistle2.wav
448,192,137595,1,0,0:0:0:70:drum-hitwhistle2.wav
320,192,137595,1,0,0:0:0:70:drum-hitwhistle2.wav
192,192,137787,1,0,0:0:0:70:drum-hitwhistle2.wav
320,192,137979,1,0,0:0:0:70:drum-hitwhistle2.wav
192,192,137979,1,0,0:0:0:70:drum-hitwhistle2.wav
448,192,138172,1,0,0:0:0:70:drum-hitwhistle2.wav
64,192,138364,1,0,0:0:0:70:drum-hitwhistle2.wav
192,192,138364,1,0,0:0:0:70:drum-hitwhistle2.wav
448,192,138556,1,0,0:0:0:70:drum-hitwhistle2.wav
320,192,138652,1,0,0:0:0:70:drum-hitwhistle2.wav
192,192,138652,1,0,0:0:0:70:drum-hitwhistle2.wav
64,192,138748,1,0,0:0:0:70:drum-hitwhistle2.wav
448,192,138748,1,0,0:0:0:70:drum-hitwhistle2.wav
64,192,138941,1,0,0:0:0:70:drum-hitwhistle2.wav
192,192,138941,1,0,0:0:0:70:drum-hitwhistle2.wav
320,192,139133,1,0,0:0:0:70:drum-hitwhistle2.wav
448,192,139133,1,0,0:0:0:70:drum-hitwhistle2.wav
192,192,139325,1,0,0:0:0:70:drum-hitwhistle2.wav
448,192,139518,1,0,0:0:0:70:drum-hitwhistle2.wav
320,192,139518,1,0,0:0:0:70:drum-hitwhistle2.wav
192,192,139710,1,0,0:0:0:70:drum-hitwhistle2.wav
64,192,139806,1,0,0:0:0:70:drum-hitwhistle2.wav
320,192,139806,1,0,0:0:0:70:drum-hitwhistle2.wav
192,192,139902,1,0,0:0:0:70:drum-hitwhistle2.wav
448,192,139902,1,0,0:0:0:70:drum-hitwhistle2.wav
64,192,140095,1,0,0:0:0:70:drum-hitwhistle2.wav
320,192,140287,1,0,0:0:0:70:drum-hitwhistle2.wav
448,192,140287,1,0,0:0:0:70:drum-hitwhistle2.wav
192,192,140479,1,0,0:0:0:70:drum-hitwhistle2.wav
64,192,140672,1,0,0:0:0:70:drum-hitwhistle2.wav
448,192,140672,1,0,0:0:0:70:drum-hitwhistle2.wav
320,192,140864,1,0,0:0:0:70:drum-hitwhistle2.wav
192,192,141056,1,0,0:0:0:70:drum-hitwhistle2.wav
320,192,141056,1,0,0:0:0:70:drum-hitwhistle2.wav
320,192,141248,1,0,0:0:0:70:drum-hitwhistle2.wav
64,192,141441,1,0,0:0:0:70:drum-hitwhistle2.wav
448,192,141441,1,0,0:0:0:70:drum-hitwhistle2.wav
320,192,141633,1,0,0:0:0:70:drum-hitwhistle2.wav
320,192,141825,1,0,0:0:0:70:drum-hitwhistle2.wav
192,192,141825,1,0,0:0:0:70:drum-hitwhistle2.wav
320,192,142018,1,0,0:0:0:70:drum-hitwhistle2.wav
64,192,142210,1,0,0:0:0:70:drum-hitwhistle2.wav
448,192,142210,1,0,0:0:0:70:drum-hitwhistle2.wav
192,192,142402,1,0,0:0:0:70:drum-hitwhistle2.wav
448,192,142402,1,0,0:0:0:70:drum-hitwhistle2.wav
64,192,142595,1,0,0:0:0:70:drum-hitwhistle2.wav
320,192,142595,1,0,0:0:0:70:drum-hitwhistle2.wav
192,192,142787,1,0,0:0:0:70:drum-hitwhistle2.wav
448,192,142787,1,0,0:0:0:70:drum-hitwhistle2.wav
64,192,142979,1,0,0:0:0:70:drum-hitwhistle2.wav
192,192,142979,1,0,0:0:0:70:drum-hitwhistle2.wav
320,192,143172,1,0,0:0:0:70:drum-hitwhistle2.wav
448,192,143172,1,0,0:0:0:70:drum-hitwhistle2.wav
192,192,143364,1,0,0:0:0:70:drum-hitwhistle2.wav
320,192,143364,1,0,0:0:0:70:drum-hitwhistle2.wav
64,192,143556,1,0,0:0:0:70:drum-hitwhistle2.wav
448,192,143556,1,0,0:0:0:70:drum-hitwhistle2.wav
192,192,143748,128,0,145287:0:0:0:70:drum-hitwhistle2.wav
320,192,143748,128,0,145287:0:0:0:70:drum-hitwhistle2.wav
