osu file format v14

[General]
AudioFilename: 14. Only for you.mp3
AudioLeadIn: 0
PreviewTime: 26825
Countdown: 0
SampleSet: Normal
StackLeniency: 0.7
Mode: 3
LetterboxInBreaks: 0
SpecialStyle: 0
WidescreenStoryboard: 1

[Editor]
DistanceSpacing: 0.6
BeatDivisor: 4
GridSize: 8
TimelineZoom: 1

[Metadata]
Title:Only For You* (Ryu REMIX)
TitleUnicode:Only For You* (Ryu☆ REMIX)
Artist:Ryu ft. MAYU
ArtistUnicode:Ryu☆ ft. MAYU
Creator:MrSmooooch
Version:7K HARD
Source:
Tags:mayu vocaloid v3 ryu remix mrsmooooch [-mrsergio-] nowsmart sirade [c r a c k]
BeatmapID:499864
BeatmapSetID:196459

[Difficulty]
HPDrainRate:9
CircleSize:7
OverallDifficulty:9
ApproachRate:5
SliderMultiplier:1.4
SliderTickRate:1

[Events]
//Background and Video events
0,0,"Only.jpg",0,0
//Break Periods
//Storyboard Layer 0 (Background)
//Storyboard Layer 1 (Fail)
//Storyboard Layer 2 (Pass)
//Storyboard Layer 3 (Foreground)
//Storyboard Sound Samples

[TimingPoints]
672,384.615384615385,4,1,0,10,1,0
26922,-100,4,1,0,10,0,1
48268,-100,4,1,0,10,0,0
117595,-200,4,1,0,10,0,0
118941,-66.6666666666667,4,1,0,10,0,0
119133,-100,4,1,0,10,0,1
129806,-100,4,1,0,10,0,0

[HitObjects]
256,192,672,128,0,2210:0:0:0:70:drum-hitwhistle2.wav
182,192,2210,1,0,0:0:0:70:drum-hitwhistle2.wav
402,192,2210,1,0,0:0:0:70:drum-hitwhistle2.wav
256,192,2402,1,0,0:0:0:70:drum-hitwhistle2.wav
475,192,2402,1,0,0:0:0:70:drum-hitwhistle2.wav
329,192,2595,1,0,0:0:0:70:drum-hitwhistle2.wav
475,192,2595,1,0,0:0:0:70:drum-hitwhistle2.wav
109,192,2595,1,0,0:0:0:70:drum-hitwhistle2.wav
402,192,2787,1,0,0:0:0:70:drum-hitwhistle2.wav
182,192,2787,1,0,0:0:0:70:drum-hitwhistle2.wav
329,192,2979,1,0,0:0:0:70:drum-hitwhistle2.wav
109,192,2979,1,0,0:0:0:70:drum-hitwhistle2.wav
475,192,2979,1,0,0:0:0:70:drum-hitwhistle2.wav
36,192,3172,1,0,0:0:0:70:drum-hitwhistle2.wav
182,192,3172,1,0,0:0:0:70:drum-hitwhistle2.wav
109,192,3364,1,0,0:0:0:70:drum-hitwhistle2.wav
329,192,3364,1,0,0:0:0:70:drum-hitwhistle2.wav
475,192,3364,1,0,0:0:0:70:drum-hitwhistle2.wav
182,192,3556,1,0,0:0:0:70:drum-hitwhistle2.wav
475,192,3556,1,0,0:0:0:70:drum-hitwhistle2.wav
109,192,3748,1,0,0:0:0:70:drum-hitwhistle2.wav
402,192,3748,1,0,0:0:0:70:drum-hitwhistle2.wav
256,192,3748,1,0,0:0:0:70:drum-hitwhistle2.wav
329,192,3941,1,0,0:0:0:70:drum-hitwhistle2.wav
256,192,4133,1,0,0:0:0:70:drum-hitwhistle2.wav
402,192,4133,1,0,0:0:0:70:drum-hitwhistle2.wav
182,192,4325,1,0,0:0:0:70:drum-hitwhistle2.wav
36,192,4518,1,0,0:0:0:70:drum-hitwhistle2.wav
475,192,4518,1,0,0:0:0:70:drum-hitwhistle2.wav
402,192,4710,1,0,0:0:0:70:drum-hitwhistle2.wav
109,192,4902,1,0,0:0:0:70:drum-hitwhistle2.wav
475,192,4902,1,0,0:0:0:70:drum-hitwhistle2.wav
402,192,5095,1,0,0:0:0:70:drum-hitwhistle2.wav
36,192,5287,1,0,0:0:0:70:drum-hitwhistle2.wav
182,192,5287,1,0,0:0:0:70:drum-hitwhistle2.wav
329,192,5287,1,0,0:0:0:70:drum-hitwhistle2.wav
109,192,5479,1,0,0:0:0:70:drum-hitwhistle2.wav
475,192,5479,1,0,0:0:0:70:drum-hitwhistle2.wav
36,192,5672,1,0,0:0:0:70:drum-hitwhistle2.wav
182,192,5672,1,0,0:0:0:70:drum-hitwhistle2.wav
329,192,5672,1,0,0:0:0:70:drum-hitwhistle2.wav
109,192,5864,1,0,0:0:0:70:drum-hitwhistle2.wav
402,192,5864,1,0,0:0:0:70:drum-hitwhistle2.wav
329,192,6056,1,0,0:0:0:70:drum-hitwhistle2.wav
182,192,6056,1,0,0:0:0:70:drum-hitwhistle2.wav
475,192,6056,1,0,0:0:0:70:drum-hitwhistle2.wav
256,192,6248,1,0,0:0:0:70:drum-hitwhistle2.wav
402,192,6248,1,0,0:0:0:70:drum-hitwhistle2.wav
182,192,6441,1,0,0:0:0:70:drum-hitwhistle2.wav
329,192,6441,1,0,0:0:0:70:drum-hitwhistle2.wav
36,192,6441,1,0,0:0:0:70:drum-hitwhistle2.wav
109,192,6633,1,0,0:0:0:70:drum-hitwhistle2.wav
475,192,6633,1,0,0:0:0:70:drum-hitwhistle2.wav
109,192,6825,1,0,0:0:0:70:drum-hitwhistle2.wav
329,192,6825,1,0,0:0:0:70:drum-hitwhistle2.wav
475,192,6825,1,0,0:0:0:70:drum-hitwhistle2.wav
182,192,7018,1,0,0:0:0:70:drum-hitwhistle2.wav
36,192,7210,1,0,0:0:0:70:drum-hitwhistle2.wav
182,192,7210,1,0,0:0:0:70:drum-hitwhistle2.wav
109,192,7402,1,0,0:0:0:70:drum-hitwhistle2.wav
475,192,7595,1,0,0:0:0:70:drum-hitwhistle2.wav
182,192,7595,1,0,0:0:0:70:drum-hitwhistle2.wav
402,192,7787,1,0,0:0:0:70:drum-hitwhistle2.wav
109,192,7979,1,0,0:0:0:70:drum-hitwhistle2.wav
475,192,7979,1,0,0:0:0:70:drum-hitwhistle2.wav
402,192,8172,1,0,0:0:0:70:drum-hitwhistle2.wav
36,192,8364,1,0,0:0:0:70:drum-hitwhistle2.wav
256,192,8364,1,0,0:0:0:70:drum-hitwhistle2.wav
109,192,8556,1,0,0:0:0:70:drum-hitwhistle2.wav
402,192,8556,1,0,0:0:0:70:drum-hitwhistle2.wav
36,192,8748,1,0,0:0:0:70:drum-hitwhistle2.wav
256,192,8748,1,0,0:0:0:70:drum-hitwhistle2.wav
475,192,8748,1,0,0:0:0:70:drum-hitwhistle2.wav
109,192,8941,1,0,0:0:0:70:drum-hitwhistle2.wav
402,192,8941,1,0,0:0:0:70:drum-hitwhistle2.wav
256,192,9133,1,0,0:0:0:70:drum-hitwhistle2.wav
475,192,9133,1,0,0:0:0:70:drum-hitwhistle2.wav
36,192,9133,1,0,0:0:0:70:drum-hitwhistle2.wav
109,192,9325,1,0,0:0:0:70:drum-hitwhistle2.wav
182,192,9325,1,0,0:0:0:70:drum-hitwhistle2.wav
402,192,9518,1,0,0:0:0:70:drum-hitwhistle2.wav
329,192,9518,1,0,0:0:0:70:drum-hitwhistle2.wav
109,192,9710,1,0,0:0:0:70:drum-hitwhistle2.wav
182,192,9710,1,0,0:0:0:70:drum-hitwhistle2.wav
256,192,9902,1,0,0:0:0:70:drum-hitwhistle2.wav
329,192,9902,1,0,0:0:0:70:drum-hitwhistle2.wav
475,192,9902,1,0,0:0:0:70:drum-hitwhistle2.wav
182,192,10095,1,0,0:0:0:70:drum-hitwhistle2.wav
36,192,10287,1,0,0:0:0:70:drum-hitwhistle2.wav
329,192,10479,1,0,0:0:0:70:drum-hitwhistle2.wav
109,192,10672,1,0,0:0:0:70:drum-hitwhistle2.wav
402,192,10864,1,0,0:0:0:70:drum-hitwhistle2.wav
256,192,11056,1,0,0:0:0:70:drum-hitwhistle2.wav
475,192,11248,1,0,0:0:0:70:drum-hitwhistle2.wav
402,192,11441,1,0,0:0:0:70:drum-hitwhistle2.wav
109,192,11441,1,0,0:0:0:70:drum-hitwhistle2.wav
329,192,11441,1,0,0:0:0:70:drum-hitwhistle2.wav
182,192,11633,1,0,0:0:0:70:drum-hitwhistle2.wav
256,192,11633,1,0,0:0:0:70:drum-hitwhistle2.wav
109,192,11825,1,0,0:0:0:70:drum-hitwhistle2.wav
402,192,11825,1,0,0:0:0:70:drum-hitwhistle2.wav
36,192,11825,1,0,0:0:0:70:drum-hitwhistle2.wav
182,192,12018,1,0,0:0:0:70:drum-hitwhistle2.wav
329,192,12018,1,0,0:0:0:70:drum-hitwhistle2.wav
475,192,12210,1,0,0:0:0:70:drum-hitwhistle2.wav
402,192,12210,1,0,0:0:0:70:drum-hitwhistle2.wav
109,192,12210,1,0,0:0:0:70:drum-hitwhistle2.wav
36,192,12402,1,0,0:0:0:70:drum-hitwhistle2.wav
182,192,12402,1,0,0:0:0:70:drum-hitwhistle2.wav
256,192,12595,1,0,0:0:0:70:drum-hitwhistle2.wav
329,192,12595,1,0,0:0:0:70:drum-hitwhistle2.wav
109,192,12595,1,0,0:0:0:70:drum-hitwhistle2.wav
402,192,12787,1,0,0:0:0:70:drum-hitwhistle2.wav
475,192,12787,1,0,0:0:0:70:drum-hitwhistle2.wav
182,192,12979,1,0,0:0:0:70:drum-hitwhistle2.wav
256,192,12979,1,0,0:0:0:70:drum-hitwhistle2.wav
402,192,12979,1,0,0:0:0:70:drum-hitwhistle2.wav
36,192,13172,1,0,0:0:0:70:drum-hitwhistle2.wav
475,192,13172,1,0,0:0:0:70:drum-hitwhistle2.wav
109,192,13364,1,0,0:0:0:70:drum-slidertick4.wav
402,192,13364,1,0,0:0:0:70:drum-slidertick4.wav
256,192,13556,1,0,0:0:0:70:drum-hitwhistle2.wav
182,192,13748,1,0,0:0:0:70:drum-slidertick4.wav
329,192,13748,1,0,0:0:0:70:drum-slidertick4.wav
109,192,13941,1,0,0:0:0:70:drum-slidertick4.wav
402,192,13941,1,0,0:0:0:70:drum-slidertick4.wav
182,192,14133,1,0,0:0:0:70:drum-slidertick4.wav
329,192,14133,1,0,0:0:0:70:drum-slidertick4.wav
36,192,14325,1,0,0:0:0:70:drum-hitwhistle2.wav
475,192,14325,1,0,0:0:0:70:drum-hitwhistle2.wav
109,192,14518,1,0,0:0:0:70:drum-hitwhistle2.wav
402,192,14518,1,0,0:0:0:70:drum-hitwhistle2.wav
256,192,14518,128,0,16056:0:0:0:70:drum-hitwhistle2.wav
36,192,16056,128,0,17595:0:0:0:70:drum-hitwhistle2.wav
475,192,17595,128,0,19133:0:0:0:70:drum-hitwhistle2.wav
109,192,19133,128,0,20672:0:0:0:70:drum-hitwhistle2.wav
256,192,19133,128,0,25287:0:0:0:70:drum-hitwhistle2.wav
402,192,20672,128,0,22210:0:0:0:70:drum-hitwhistle2.wav
182,192,22210,128,0,23748:0:0:0:70:drum-hitwhistle2.wav
329,192,23748,128,0,25287:0:0:0:70:drum-hitwhistle2.wav
182,192,26825,1,0,0:0:0:70:drum-hitwhistle2.wav
329,192,26825,1,0,0:0:0:70:drum-hitwhistle2.wav
109,192,27018,1,0,0:0:0:70:drum-hitwhistle2.wav
402,192,27018,1,0,0:0:0:70:drum-hitwhistle2.wav
329,192,27210,1,0,0:0:0:70:drum-hitclap.wav
475,192,27402,1,0,0:0:0:70:drum-hitwhistle2.wav
256,192,27402,1,0,0:0:0:70:drum-hitwhistle2.wav
402,192,27595,1,0,0:0:0:70:drum-hitwhistle2.wav
475,192,27691,1,0,0:0:0:70:drum-hitwhistle2.wav
109,192,27787,1,0,0:0:0:70:drum-hitwhistle2.wav
402,192,27883,1,0,0:0:0:70:drum-hitwhistle2.wav
256,192,27979,1,0,0:0:0:70:drum-hitclap.wav
36,192,28172,1,0,0:0:0:70:drum-hitwhistle2.wav
402,192,28172,1,0,0:0:0:70:drum-hitwhistle2.wav
109,192,28364,1,0,0:0:0:70:drum-hitwhistle2.wav
256,192,28556,1,0,0:0:0:70:drum-hitwhistle2.wav
109,192,28748,1,0,0:0:0:70:drum-hitclap.wav
329,192,28748,1,0,0:0:0:70:drum-hitclap.wav
256,192,28941,1,0,0:0:0:70:drum-hitwhistle2.wav
36,192,29133,1,0,0:0:0:70:drum-hitwhistle2.wav
182,192,29133,1,0,0:0:0:70:drum-hitwhistle2.wav
109,192,29325,1,0,0:0:0:70:drum-hitwhistle2.wav
475,192,29518,1,0,0:0:0:70:drum-hitclap.wav
182,192,29518,1,0,0:0:0:70:drum-hitclap.wav
329,192,29614,1,0,0:0:0:70:drum-hitwhistle2.wav
402,192,29710,1,0,0:0:0:70:drum-hitwhistle2.wav
109,192,29902,1,0,0:0:0:70:drum-hitwhistle2.wav
329,192,29902,1,0,0:0:0:70:drum-hitwhistle2.wav
182,192,30095,1,0,0:0:0:70:drum-hitwhistle2.wav
36,192,30287,1,0,0:0:0:70:drum-hitclap.wav
256,192,30287,1,0,0:0:0:70:drum-hitclap.wav
109,192,30479,1,0,0:0:0:70:drum-hitwhistle2.wav
475,192,30672,1,0,0:0:0:70:drum-hitwhistle2.wav
182,192,30672,1,0,0:0:0:70:drum-hitwhistle2.wav
402,192,30672,1,0,0:0:0:70:drum-hitwhistle2.wav
256,192,30864,1,0,0:0:0:70:drum-hitwhistle2.wav
36,192,30960,1,0,0:0:0:70:drum-hitwhistle2.wav
182,192,31056,1,0,0:0:0:70:drum-hitclap.wav
329,192,31056,1,0,0:0:0:70:drum-hitclap.wav
475,192,31152,1,0,0:0:0:70:drum-hitwhistle2.wav
109,192,31248,1,0,0:0:0:70:drum-hitwhistle2.wav
402,192,31248,1,0,0:0:0:70:drum-hitwhistle2.wav
329,192,31441,1,0,0:0:0:70:drum-hitwhistle2.wav
475,192,31441,1,0,0:0:0:70:drum-hitwhistle2.wav
36,192,31633,1,0,0:0:0:70:drum-hitwhistle2.wav
182,192,31633,1,0,0:0:0:70:drum-hitwhistle2.wav
109,192,31825,1,0,0:0:0:70:drum-hitclap.wav
329,192,31825,1,0,0:0:0:70:drum-hitclap.wav
256,192,32018,1,0,0:0:0:70:drum-hitwhistle2.wav
475,192,32018,1,0,0:0:0:70:drum-hitwhistle2.wav
36,192,32210,1,0,0:0:0:70:drum-hitwhistle2.wav
475,192,32210,1,0,0:0:0:70:drum-hitwhistle2.wav
109,192,32402,1,0,0:0:0:70:drum-hitwhistle2.wav
256,192,32402,1,0,0:0:0:70:drum-hitwhistle2.wav
182,192,32595,1,0,0:0:0:70:drum-hitclap.wav
402,192,32595,1,0,0:0:0:70:drum-hitclap.wav
329,192,32787,1,0,0:0:0:70:drum-hitwhistle2.wav
109,192,32787,1,0,0:0:0:70:drum-hitwhistle2.wav
36,192,32979,1,0,0:0:0:70:drum-hitwhistle2.wav
475,192,32979,1,0,0:0:0:70:drum-hitwhistle2.wav
256,192,33172,1,0,0:0:0:70:drum-hitwhistle2.wav
402,192,33172,1,0,0:0:0:70:drum-hitwhistle2.wav
109,192,33364,1,0,0:0:0:70:drum-hitclap.wav
329,192,33556,1,0,0:0:0:70:drum-hitwhistle2.wav
36,192,33748,1,0,0:0:0:70:drum-hitwhistle2.wav
402,192,33748,1,0,0:0:0:70:drum-hitwhistle2.wav
182,192,33941,1,0,0:0:0:70:drum-hitwhistle2.wav
475,192,34037,1,0,0:0:0:70:drum-hitwhistle2.wav
109,192,34133,1,0,0:0:0:70:drum-hitclap.wav
329,192,34133,1,0,0:0:0:70:drum-hitclap.wav
256,192,34229,1,0,0:0:0:70:drum-hitwhistle2.wav
182,192,34325,1,0,0:0:0:70:drum-hitwhistle2.wav
402,192,34325,1,0,0:0:0:70:drum-hitwhistle2.wav
256,192,34518,1,0,0:0:0:70:drum-hitwhistle2.wav
475,192,34518,1,0,0:0:0:70:drum-hitwhistle2.wav
109,192,34710,1,0,0:0:0:70:drum-hitwhistle2.wav
329,192,34710,1,0,0:0:0:70:drum-hitwhistle2.wav
182,192,34902,1,0,0:0:0:70:drum-hitclap.wav
402,192,34902,1,0,0:0:0:70:drum-hitclap.wav
475,192,35095,1,0,0:0:0:70:drum-hitwhistle2.wav
402,192,35095,1,0,0:0:0:70:drum-hitwhistle2.wav
109,192,35287,1,0,0:0:0:70:drum-hitwhistle2.wav
475,192,35287,1,0,0:0:0:70:drum-hitwhistle2.wav
402,192,35479,1,0,0:0:0:70:drum-hitwhistle2.wav
256,192,35479,1,0,0:0:0:70:drum-hitwhistle2.wav
109,192,35672,1,0,0:0:0:70:drum-hitclap.wav
329,192,35672,1,0,0:0:0:70:drum-hitclap.wav
182,192,35864,1,0,0:0:0:70:drum-hitwhistle2.wav
475,192,35864,1,0,0:0:0:70:drum-hitwhistle2.wav
36,192,36056,1,0,0:0:0:70:drum-hitwhistle2.wav
402,192,36056,1,0,0:0:0:70:drum-hitwhistle2.wav
109,192,36248,1,0,0:0:0:70:drum-hitwhistle2.wav
329,192,36248,1,0,0:0:0:70:drum-hitwhistle2.wav
182,192,36441,1,0,0:0:0:70:drum-hitclap.wav
475,192,36441,1,0,0:0:0:70:drum-hitclap.wav
402,192,36633,1,0,0:0:0:70:drum-hitwhistle2.wav
109,192,36633,1,0,0:0:0:70:drum-hitwhistle2.wav
329,192,36825,1,0,0:0:0:70:drum-hitwhistle2.wav
36,192,36825,1,0,0:0:0:70:drum-hitwhistle2.wav
475,192,37018,1,0,0:0:0:70:drum-hitwhistle2.wav
182,192,37018,1,0,0:0:0:70:drum-hitwhistle2.wav
402,192,37210,1,0,0:0:0:70:drum-hitclap.wav
109,192,37210,1,0,0:0:0:70:drum-hitclap.wav
329,192,37306,1,0,0:0:0:70:drum-hitwhistle2.wav
36,192,37402,1,0,0:0:0:70:drum-hitwhistle2.wav
256,192,37402,1,0,0:0:0:70:drum-hitwhistle2.wav
475,192,37498,1,0,0:0:0:70:drum-hitwhistle2.wav
109,192,37595,1,0,0:0:0:70:drum-hitwhistle2.wav
329,192,37595,1,0,0:0:0:70:drum-hitwhistle2.wav
256,192,37787,1,0,0:0:0:70:drum-hitwhistle2.wav
402,192,37787,1,0,0:0:0:70:drum-hitwhistle2.wav
109,192,37979,1,0,0:0:0:70:drum-slidertick4.wav
329,192,37979,1,0,0:0:0:70:drum-slidertick4.wav
36,192,38172,1,0,0:0:0:70:drum-hitwhistle2.wav
475,192,38172,1,0,0:0:0:70:drum-hitwhistle2.wav
109,192,38364,1,0,0:0:0:70:drum-hitwhistle2.wav
402,192,38364,1,0,0:0:0:70:drum-hitwhistle2.wav
256,192,38364,1,0,0:0:0:70:drum-hitwhistle2.wav
182,192,38556,1,0,0:0:0:70:drum-hitwhistle2.wav
36,192,38748,1,0,0:0:0:70:drum-hitwhistle2.wav
329,192,38748,1,0,0:0:0:70:drum-slidertick4.wav
475,192,38748,1,0,0:0:0:70:drum-slidertick4.wav
109,192,38941,1,0,0:0:0:70:drum-hitwhistle2.wav
256,192,39133,1,0,0:0:0:70:drum-hitwhistle2.wav
36,192,39133,1,0,0:0:0:70:drum-hitwhistle2.wav
475,192,39133,1,0,0:0:0:70:drum-hitwhistle2.wav
329,192,39325,1,0,0:0:0:70:drum-hitwhistle2.wav
182,192,39325,1,0,0:0:0:70:drum-hitwhistle2.wav
36,192,39518,1,0,0:0:0:70:drum-hitwhistle2.wav
402,192,39518,1,0,0:0:0:70:drum-hitwhistle2.wav
256,192,39710,1,0,0:0:0:70:drum-hitwhistle2.wav
475,192,39710,1,0,0:0:0:70:drum-hitwhistle2.wav
109,192,39902,1,0,0:0:0:70:drum-hitclap.wav
256,192,39902,1,0,0:0:0:70:drum-hitclap.wav
402,192,39902,1,0,0:0:0:70:drum-hitclap.wav
109,192,40095,1,0,0:0:0:70:drum-hitclap.wav
256,192,40095,1,0,0:0:0:70:drum-hitclap.wav
402,192,40095,1,0,0:0:0:70:drum-hitclap.wav
109,192,40287,1,0,0:0:0:70:drum-hitclap.wav
256,192,40287,1,0,0:0:0:70:drum-hitclap.wav
402,192,40287,1,0,0:0:0:70:drum-hitclap.wav
109,192,40672,1,0,0:0:0:70:drum-hitwhistle2.wav
402,192,40672,1,0,0:0:0:70:drum-hitwhistle2.wav
256,192,40864,1,0,0:0:0:70:drum-hitwhistle2.wav
475,192,40864,1,0,0:0:0:70:drum-hitwhistle2.wav
36,192,41056,1,0,0:0:0:70:drum-hitwhistle2.wav
402,192,41056,1,0,0:0:0:70:drum-hitwhistle2.wav
109,192,41248,1,0,0:0:0:70:drum-hitwhistle2.wav
182,192,41441,1,0,0:0:0:70:drum-hitwhistle2.wav
402,192,41441,1,0,0:0:0:70:drum-hitwhistle2.wav
109,192,41633,1,0,0:0:0:70:drum-hitwhistle2.wav
475,192,41633,1,0,0:0:0:70:drum-hitwhistle2.wav
402,192,41825,1,0,0:0:0:70:drum-hitwhistle2.wav
109,192,42018,1,0,0:0:0:70:drum-hitwhistle2.wav
475,192,42018,1,0,0:0:0:70:drum-hitwhistle2.wav
402,192,42210,1,0,0:0:0:70:drum-hitwhistle2.wav
182,192,42402,1,0,0:0:0:70:drum-hitwhistle2.wav
329,192,42402,1,0,0:0:0:70:drum-hitwhistle2.wav
109,192,42595,1,0,0:0:0:70:drum-hitclap.wav
182,192,42595,1,0,0:0:0:70:drum-hitclap.wav
36,192,42595,128,0,42787:0:0:0:70:drum-hitclap.wav
109,192,42979,1,0,0:0:0:70:drum-hitwhistle2.wav
475,192,42979,1,0,0:0:0:70:drum-hitwhistle2.wav
36,192,43075,1,0,0:0:0:70:drum-hitwhistle2.wav
329,192,43075,1,0,0:0:0:70:drum-hitwhistle2.wav
402,192,43172,1,0,0:0:0:70:drum-hitwhistle2.wav
182,192,43172,1,0,0:0:0:70:drum-hitwhistle2.wav
475,192,43268,1,0,0:0:0:70:drum-hitwhistle2.wav
109,192,43268,1,0,0:0:0:70:drum-hitwhistle2.wav
36,192,43364,1,0,0:0:0:70:drum-hitwhistle2.wav
329,192,43364,1,0,0:0:0:70:drum-hitwhistle2.wav
109,192,43556,1,0,0:0:0:70:drum-hitwhistle2.wav
109,192,43748,1,0,0:0:0:70:drum-hitwhistle2.wav
329,192,43748,1,0,0:0:0:70:drum-hitwhistle2.wav
182,192,43941,1,0,0:0:0:70:drum-hitwhistle2.wav
475,192,43941,1,0,0:0:0:70:drum-hitwhistle2.wav
402,192,44133,1,0,0:0:0:70:drum-hitwhistle2.wav
109,192,44133,1,0,0:0:0:70:drum-hitwhistle2.wav
329,192,44325,1,0,0:0:0:70:drum-hitwhistle2.wav
36,192,44325,1,0,0:0:0:70:drum-hitwhistle2.wav
109,192,44518,1,0,0:0:0:70:drum-hitwhistle2.wav
475,192,44518,1,0,0:0:0:70:drum-hitwhistle2.wav
329,192,44710,1,0,0:0:0:70:drum-hitwhistle2.wav
256,192,44710,1,0,0:0:0:70:drum-hitwhistle2.wav
36,192,44902,1,0,0:0:0:70:drum-hitwhistle2.wav
109,192,44902,1,0,0:0:0:70:drum-hitwhistle2.wav
182,192,45095,1,0,0:0:0:70:drum-hitwhistle2.wav
109,192,45191,1,0,0:0:0:70:drum-hitwhistle2.wav
475,192,45287,1,0,0:0:0:70:drum-hitwhistle2.wav
182,192,45287,1,0,0:0:0:70:drum-hitwhistle2.wav
329,192,45287,1,0,0:0:0:70:drum-hitwhistle2.wav
36,192,45479,1,0,0:0:0:70:drum-hitwhistle2.wav
329,192,45479,1,0,0:0:0:70:drum-hitwhistle2.wav
402,192,45672,1,0,0:0:0:70:drum-hitwhistle2.wav
256,192,45864,1,0,0:0:0:70:drum-hitwhistle2.wav
475,192,46056,128,0,46248:0:0:0:70:drum-hitwhistle2.wav
182,192,46056,128,0,46248:0:0:0:70:drum-hitwhistle2.wav
109,192,46441,128,0,46633:0:0:0:70:drum-hitwhistle2.wav
329,192,46441,128,0,46633:0:0:0:70:drum-hitwhistle2.wav
109,192,46825,1,0,0:0:0:70:drum-hitwhistle2.wav
402,192,46922,1,0,0:0:0:70:drum-hitwhistle2.wav
256,192,47018,1,0,0:0:0:70:drum-hitwhistle2.wav
475,192,47114,1,0,0:0:0:70:drum-hitwhistle2.wav
109,192,47210,1,0,0:0:0:70:drum-hitwhistle2.wav
402,192,47402,1,0,0:0:0:70:drum-hitwhistle2.wav
182,192,47595,1,0,0:0:0:70:drum-hitwhistle2.wav
109,192,47691,1,0,0:0:0:70:drum-hitwhistle2.wav
36,192,47691,1,0,0:0:0:70:drum-hitwhistle2.wav
329,192,47787,1,0,0:0:0:70:drum-hitwhistle2.wav
182,192,47979,1,0,0:0:0:70:drum-hitwhistle2.wav
402,192,48172,1,0,0:0:0:70:drum-hitwhistle2.wav
256,192,48364,128,0,49902:0:0:0:70:drum-hitwhistle2.wav
109,192,49902,1,0,0:0:0:70:drum-hitwhistle2.wav
402,192,49902,1,0,0:0:0:70:drum-hitwhistle2.wav
182,192,50095,1,0,0:0:0:70:drum-hitwhistle2.wav
329,192,50095,1,0,0:0:0:70:drum-hitwhistle2.wav
109,192,50287,1,0,0:0:0:70:drum-hitwhistle2.wav
402,192,50287,1,0,0:0:0:70:drum-hitwhistle2.wav
182,192,50479,1,0,0:0:0:70:drum-hitwhistle2.wav
329,192,50479,1,0,0:0:0:70:drum-hitwhistle2.wav
256,192,50672,1,0,0:0:0:70:drum-hitwhistle2.wav
36,192,50672,1,0,0:0:0:70:drum-hitwhistle2.wav
475,192,50672,1,0,0:0:0:70:drum-hitwhistle2.wav
109,192,50864,1,0,0:0:0:70:drum-hitwhistle2.wav
329,192,50864,1,0,0:0:0:70:drum-hitwhistle2.wav
182,192,51056,1,0,0:0:0:70:drum-hitwhistle2.wav
402,192,51056,1,0,0:0:0:70:drum-hitwhistle2.wav
109,192,51248,1,0,0:0:0:70:drum-hitwhistle2.wav
402,192,51248,1,0,0:0:0:70:drum-hitwhistle2.wav
256,192,51441,1,0,0:0:0:70:drum-hitwhistle2.wav
36,192,51441,1,0,0:0:0:70:drum-hitwhistle2.wav
475,192,51441,1,0,0:0:0:70:drum-hitwhistle2.wav
182,192,51633,1,0,0:0:0:70:drum-hitwhistle2.wav
109,192,51825,1,0,0:0:0:70:drum-hitwhistle2.wav
256,192,51825,1,0,0:0:0:70:drum-hitwhistle2.wav
402,192,51825,1,0,0:0:0:70:drum-hitwhistle2.wav
329,192,52018,1,0,0:0:0:70:drum-hitwhistle2.wav
109,192,52210,1,0,0:0:0:70:drum-hitwhistle2.wav
256,192,52210,1,0,0:0:0:70:drum-hitwhistle2.wav
402,192,52210,1,0,0:0:0:70:drum-hitwhistle2.wav
475,192,52402,1,0,0:0:0:70:drum-hitwhistle2.wav
109,192,52595,1,0,0:0:0:70:drum-hitwhistle2.wav
256,192,52595,1,0,0:0:0:70:drum-hitwhistle2.wav
402,192,52595,1,0,0:0:0:70:drum-hitwhistle2.wav
329,192,52787,1,0,0:0:0:70:drum-hitwhistle2.wav
109,192,52979,1,0,0:0:0:70:drum-hitwhistle2.wav
402,192,52979,1,0,0:0:0:70:drum-hitwhistle2.wav
256,192,52979,1,0,0:0:0:70:drum-hitwhistle2.wav
36,192,53172,1,0,0:0:0:70:drum-hitwhistle2.wav
475,192,53364,1,0,0:0:0:70:drum-hitwhistle2.wav
109,192,53556,1,0,0:0:0:70:drum-hitwhistle2.wav
402,192,53748,1,0,0:0:0:70:drum-hitwhistle2.wav
36,192,53941,1,0,0:0:0:70:drum-hitwhistle2.wav
329,192,54133,1,0,0:0:0:70:drum-hitwhistle2.wav
36,192,54325,1,0,0:0:0:70:drum-hitwhistle2.wav
36,192,54518,1,0,0:0:0:70:drum-hitwhistle2.wav
182,192,54518,1,0,0:0:0:70:drum-hitwhistle2.wav
475,192,54710,1,0,0:0:0:70:drum-hitwhistle2.wav
109,192,54902,1,0,0:0:0:70:drum-hitwhistle2.wav
256,192,54902,1,0,0:0:0:70:drum-hitwhistle2.wav
402,192,55095,1,0,0:0:0:70:drum-hitwhistle2.wav
182,192,55287,1,0,0:0:0:70:drum-hitwhistle2.wav
329,192,55287,1,0,0:0:0:70:drum-hitwhistle2.wav
256,192,55479,1,0,0:0:0:70:drum-hitwhistle2.wav
329,192,55672,1,0,0:0:0:70:drum-hitwhistle2.wav
475,192,55672,1,0,0:0:0:70:drum-hitwhistle2.wav
109,192,55864,1,0,0:0:0:70:drum-hitwhistle2.wav
256,192,56056,1,0,0:0:0:70:drum-hitwhistle2.wav
402,192,56056,1,0,0:0:0:70:drum-hitwhistle2.wav
109,192,56248,1,0,0:0:0:70:drum-hitwhistle2.wav
329,192,56248,1,0,0:0:0:70:drum-hitwhistle2.wav
182,192,56441,1,0,0:0:0:70:drum-hitwhistle2.wav
329,192,56441,1,0,0:0:0:70:drum-hitwhistle2.wav
36,192,56441,1,0,0:0:0:70:drum-hitwhistle2.wav
475,192,56633,1,0,0:0:0:70:drum-hitwhistle2.wav
329,192,56633,1,0,0:0:0:70:drum-hitwhistle2.wav
36,192,56825,1,0,0:0:0:70:drum-hitwhistle2.wav
109,192,56825,1,0,0:0:0:70:drum-hitwhistle2.wav
475,192,56825,1,0,0:0:0:70:drum-hitwhistle2.wav
182,192,57018,1,0,0:0:0:70:drum-hitwhistle2.wav
329,192,57018,1,0,0:0:0:70:drum-hitwhistle2.wav
36,192,57210,1,0,0:0:0:70:drum-hitwhistle2.wav
109,192,57210,1,0,0:0:0:70:drum-hitwhistle2.wav
402,192,57210,1,0,0:0:0:70:drum-hitwhistle2.wav
475,192,57402,1,0,0:0:0:70:drum-hitwhistle2.wav
256,192,57402,1,0,0:0:0:70:drum-hitwhistle2.wav
182,192,57595,1,0,0:0:0:70:drum-hitwhistle2.wav
402,192,57595,1,0,0:0:0:70:drum-hitwhistle2.wav
36,192,57595,1,0,0:0:0:70:drum-hitwhistle2.wav
109,192,57787,1,0,0:0:0:70:drum-hitwhistle2.wav
475,192,57787,1,0,0:0:0:70:drum-hitwhistle2.wav
402,192,57979,1,0,0:0:0:70:drum-hitwhistle2.wav
329,192,57979,1,0,0:0:0:70:drum-hitwhistle2.wav
182,192,58172,1,0,0:0:0:70:drum-hitwhistle2.wav
475,192,58172,1,0,0:0:0:70:drum-hitwhistle2.wav
475,192,58364,1,0,0:0:0:70:drum-hitwhistle2.wav
329,192,58364,1,0,0:0:0:70:drum-hitwhistle2.wav
36,192,58556,1,0,0:0:0:70:drum-hitwhistle2.wav
182,192,58556,1,0,0:0:0:70:drum-hitwhistle2.wav
402,192,58748,1,0,0:0:0:70:drum-hitwhistle2.wav
256,192,58748,1,0,0:0:0:70:drum-hitwhistle2.wav
109,192,58941,1,0,0:0:0:70:drum-hitwhistle2.wav
329,192,58941,1,0,0:0:0:70:drum-hitwhistle2.wav
475,192,59133,1,0,0:0:0:70:drum-hitwhistle2.wav
109,192,59133,1,0,0:0:0:70:drum-hitwhistle2.wav
182,192,59325,1,0,0:0:0:70:drum-hitwhistle2.wav
329,192,59518,1,0,0:0:0:70:drum-hitwhistle2.wav
256,192,59710,1,0,0:0:0:70:drum-hitwhistle2.wav
402,192,59902,1,0,0:0:0:70:drum-hitwhistle2.wav
329,192,60095,1,0,0:0:0:70:drum-hitwhistle2.wav
182,192,60287,1,0,0:0:0:70:drum-hitwhistle2.wav
402,192,60479,1,0,0:0:0:70:drum-hitwhistle2.wav
36,192,60672,1,0,0:0:0:70:drum-hitwhistle2.wav
109,192,60672,1,0,0:0:0:70:drum-hitwhistle2.wav
475,192,60672,1,0,0:0:0:70:drum-hitwhistle2.wav
109,192,60864,1,0,0:0:0:70:drum-hitwhistle2.wav
256,192,60864,1,0,0:0:0:70:drum-hitwhistle2.wav
402,192,60864,1,0,0:0:0:70:drum-hitwhistle2.wav
36,192,61056,1,0,0:0:0:70:drum-hitwhistle2.wav
256,192,61056,1,0,0:0:0:70:drum-hitwhistle2.wav
329,192,61248,1,0,0:0:0:70:drum-hitwhistle2.wav
182,192,61248,1,0,0:0:0:70:drum-hitwhistle2.wav
475,192,61248,1,0,0:0:0:70:drum-hitwhistle2.wav
36,192,61441,1,0,0:0:0:70:drum-hitwhistle2.wav
475,192,61441,1,0,0:0:0:70:drum-hitwhistle2.wav
109,192,61633,1,0,0:0:0:70:drum-hitwhistle2.wav
182,192,61633,1,0,0:0:0:70:drum-hitwhistle2.wav
329,192,61633,1,0,0:0:0:70:drum-hitwhistle2.wav
182,192,61825,1,0,0:0:0:70:drum-hitwhistle2.wav
475,192,61825,1,0,0:0:0:70:drum-hitwhistle2.wav
329,192,62018,1,0,0:0:0:70:drum-hitwhistle2.wav
109,192,62018,1,0,0:0:0:70:drum-hitwhistle2.wav
475,192,62018,1,0,0:0:0:70:drum-hitwhistle2.wav
402,192,62210,1,0,0:0:0:70:drum-hitwhistle2.wav
36,192,62210,1,0,0:0:0:70:drum-hitwhistle2.wav
256,192,63556,1,0,0:0:0:70:drum-hitwhistle2.wav
402,192,63652,1,0,0:0:0:70:drum-hitwhistle2.wav
109,192,63652,1,0,0:0:0:70:drum-hitwhistle2.wav
256,192,63748,1,0,0:0:0:70:drum-hitwhistle2.wav
475,192,63748,1,0,0:0:0:70:drum-hitwhistle2.wav
36,192,63748,1,0,0:0:0:70:drum-hitwhistle2.wav
402,192,63941,1,0,0:0:0:70:drum-hitwhistle2.wav
109,192,64133,1,0,0:0:0:70:drum-hitwhistle2.wav
329,192,64133,1,0,0:0:0:70:drum-hitwhistle2.wav
475,192,64133,1,0,0:0:0:70:drum-hitwhistle2.wav
402,192,64325,1,0,0:0:0:70:drum-hitwhistle2.wav
36,192,64518,1,0,0:0:0:70:drum-hitwhistle2.wav
256,192,64518,1,0,0:0:0:70:drum-hitwhistle2.wav
475,192,64518,1,0,0:0:0:70:drum-hitwhistle2.wav
402,192,64710,1,0,0:0:0:70:drum-hitwhistle2.wav
256,192,64902,1,0,0:0:0:70:drum-hitwhistle2.wav
109,192,64902,1,0,0:0:0:70:drum-hitwhistle2.wav
402,192,64902,1,0,0:0:0:70:drum-hitwhistle2.wav
36,192,64998,1,0,0:0:0:70:drum-hitwhistle2.wav
182,192,64998,1,0,0:0:0:70:drum-hitwhistle2.wav
475,192,65095,1,0,0:0:0:70:drum-hitwhistle2.wav
36,192,65287,1,0,0:0:0:70:drum-hitwhistle2.wav
182,192,65287,1,0,0:0:0:70:drum-hitwhistle2.wav
402,192,65287,1,0,0:0:0:70:drum-hitwhistle2.wav
329,192,65479,1,0,0:0:0:70:drum-hitwhistle2.wav
475,192,65672,1,0,0:0:0:70:drum-hitwhistle2.wav
256,192,65672,1,0,0:0:0:70:drum-hitwhistle2.wav
36,192,65672,1,0,0:0:0:70:drum-hitwhistle2.wav
109,192,65864,1,0,0:0:0:70:drum-hitwhistle2.wav
256,192,66056,1,0,0:0:0:70:drum-hitwhistle2.wav
329,192,66056,1,0,0:0:0:70:drum-hitwhistle2.wav
402,192,66056,1,0,0:0:0:70:drum-hitwhistle2.wav
329,192,66248,1,0,0:0:0:70:drum-hitwhistle2.wav
402,192,66248,1,0,0:0:0:70:drum-hitwhistle2.wav
475,192,66248,1,0,0:0:0:70:drum-hitwhistle2.wav
36,192,66441,1,0,0:0:0:70:drum-hitwhistle2.wav
109,192,66441,1,0,0:0:0:70:drum-hitwhistle2.wav
182,192,66441,1,0,0:0:0:70:drum-hitwhistle2.wav
329,192,66537,1,0,0:0:0:70:drum-hitwhistle2.wav
402,192,66633,1,0,0:0:0:70:drum-hitwhistle2.wav
475,192,66729,1,0,0:0:0:70:drum-hitwhistle2.wav
109,192,66825,1,0,0:0:0:70:drum-hitwhistle2.wav
182,192,66825,1,0,0:0:0:70:drum-hitwhistle2.wav
402,192,66825,1,0,0:0:0:70:drum-hitwhistle2.wav
256,192,67018,1,0,0:0:0:70:drum-hitwhistle2.wav
329,192,67018,1,0,0:0:0:70:drum-hitwhistle2.wav
475,192,67210,1,0,0:0:0:70:drum-hitwhistle2.wav
402,192,67210,1,0,0:0:0:70:drum-hitwhistle2.wav
182,192,67210,1,0,0:0:0:70:drum-hitwhistle2.wav
182,192,67402,1,0,0:0:0:70:drum-hitwhistle2.wav
36,192,67402,1,0,0:0:0:70:drum-hitwhistle2.wav
329,192,67595,1,0,0:0:0:70:drum-hitwhistle2.wav
402,192,67595,1,0,0:0:0:70:drum-hitwhistle2.wav
475,192,67595,1,0,0:0:0:70:drum-hitwhistle2.wav
109,192,67787,1,0,0:0:0:70:drum-hitwhistle2.wav
329,192,67787,1,0,0:0:0:70:drum-hitwhistle2.wav
402,192,67979,1,0,0:0:0:70:drum-hitwhistle2.wav
256,192,67979,1,0,0:0:0:70:drum-hitwhistle2.wav
36,192,67979,1,0,0:0:0:70:drum-hitwhistle2.wav
329,192,68075,1,0,0:0:0:70:drum-hitwhistle2.wav
475,192,68075,1,0,0:0:0:70:drum-hitwhistle2.wav
109,192,68172,1,0,0:0:0:70:drum-hitwhistle2.wav
182,192,68172,1,0,0:0:0:70:drum-hitwhistle2.wav
256,192,68364,1,0,0:0:0:70:drum-hitwhistle2.wav
475,192,68364,1,0,0:0:0:70:drum-hitwhistle2.wav
402,192,68364,1,0,0:0:0:70:drum-hitwhistle2.wav
182,192,68460,1,0,0:0:0:70:drum-hitwhistle2.wav
402,192,68556,1,0,0:0:0:70:drum-hitwhistle2.wav
109,192,68652,1,0,0:0:0:70:drum-hitwhistle2.wav
475,192,68748,1,0,0:0:0:70:drum-hitwhistle2.wav
256,192,68748,1,0,0:0:0:70:drum-hitwhistle2.wav
402,192,68748,1,0,0:0:0:70:drum-hitwhistle2.wav
36,192,68845,1,0,0:0:0:70:drum-hitwhistle2.wav
402,192,68941,1,0,0:0:0:70:drum-hitwhistle2.wav
109,192,69037,1,0,0:0:0:70:drum-hitwhistle2.wav
475,192,69133,1,0,0:0:0:70:drum-hitwhistle2.wav
36,192,69133,1,0,0:0:0:70:drum-hitwhistle2.wav
402,192,69133,1,0,0:0:0:70:drum-hitwhistle2.wav
182,192,69229,1,0,0:0:0:70:drum-hitwhistle2.wav
402,192,69325,1,0,0:0:0:70:drum-hitwhistle2.wav
36,192,69422,1,0,0:0:0:70:drum-hitwhistle2.wav
475,192,69518,1,0,0:0:0:70:drum-hitwhistle2.wav
256,192,69518,1,0,0:0:0:70:drum-hitwhistle2.wav
402,192,69518,1,0,0:0:0:70:drum-hitwhistle2.wav
109,192,69614,1,0,0:0:0:70:drum-hitwhistle2.wav
402,192,69710,1,0,0:0:0:70:drum-hitwhistle2.wav
182,192,69806,1,0,0:0:0:70:drum-hitwhistle2.wav
256,192,69902,1,0,0:0:0:70:drum-hitwhistle2.wav
109,192,69902,128,0,70287:0:0:0:70:drum-hitwhistle2.wav
475,192,70287,128,0,70672:0:0:0:70:drum-hitwhistle2.wav
256,192,70672,128,0,71056:0:0:0:70:drum-hitwhistle2.wav
36,192,71056,128,0,71441:0:0:0:70:drum-hitwhistle2.wav
109,192,71056,128,0,71248:0:0:0:70:drum-hitwhistle2.wav
182,192,71248,128,0,71441:0:0:0:70:drum-hitwhistle2.wav
329,192,71441,128,0,71825:0:0:0:70:drum-hitwhistle2.wav
475,192,71825,128,0,72210:0:0:0:70:drum-hitwhistle2.wav
182,192,72210,128,0,72595:0:0:0:70:drum-hitwhistle2.wav
402,192,72595,128,0,72979:0:0:0:70:drum-hitwhistle2.wav
109,192,72979,128,0,73364:0:0:0:70:drum-hitwhistle2.wav
182,192,73364,128,0,73748:0:0:0:70:drum-hitwhistle2.wav
256,192,73748,128,0,74133:0:0:0:70:drum-hitwhistle2.wav
329,192,74133,128,0,74518:0:0:0:70:drum-hitwhistle2.wav
402,192,74133,128,0,74325:0:0:0:70:drum-hitwhistle2.wav
182,192,74325,128,0,74518:0:0:0:70:drum-hitwhistle2.wav
256,192,74518,1,0,0:0:0:70:drum-hitwhistle2.wav
475,192,74518,1,0,0:0:0:70:drum-hitwhistle2.wav
36,192,74518,1,0,0:0:0:70:drum-hitwhistle2.wav
256,192,74710,1,0,0:0:0:70:drum-hitwhistle2.wav
475,192,74710,1,0,0:0:0:70:drum-hitwhistle2.wav
36,192,74710,1,0,0:0:0:70:drum-hitwhistle2.wav
256,192,74902,1,0,0:0:0:70:drum-hitwhistle2.wav
475,192,74902,1,0,0:0:0:70:drum-hitwhistle2.wav
36,192,74902,1,0,0:0:0:70:drum-hitwhistle2.wav
182,192,75095,1,0,0:0:0:70:drum-hitwhistle2.wav
402,192,75095,1,0,0:0:0:70:drum-hitwhistle2.wav
475,192,75095,128,0,75287:0:0:0:70:drum-hitwhistle2.wav
109,192,75287,1,0,0:0:0:70:drum-hitwhistle2.wav
329,192,75287,1,0,0:0:0:70:drum-hitwhistle2.wav
256,192,75287,128,0,75479:0:0:0:70:drum-hitwhistle2.wav
109,192,75479,1,0,0:0:0:70:drum-hitwhistle2.wav
402,192,75479,1,0,0:0:0:70:drum-hitwhistle2.wav
475,192,75479,128,0,75672:0:0:0:70:drum-hitwhistle2.wav
182,192,75672,1,0,0:0:0:70:drum-hitwhistle2.wav
329,192,75672,1,0,0:0:0:70:drum-hitwhistle2.wav
109,192,75672,1,0,0:0:0:70:drum-hitwhistle2.wav
36,192,75672,128,0,75864:0:0:0:70:drum-hitwhistle2.wav
109,192,75864,128,0,76056:0:0:0:70:drum-hitwhistle2.wav
182,192,76056,1,0,0:0:0:70:drum-hitwhistle2.wav
329,192,76056,1,0,0:0:0:70:drum-hitwhistle2.wav
402,192,76056,1,0,0:0:0:70:drum-hitwhistle2.wav
36,192,76441,1,0,0:0:0:70:drum-hitwhistle2.wav
402,192,76441,1,0,0:0:0:70:drum-hitwhistle2.wav
475,192,76441,1,0,0:0:0:70:drum-hitwhistle2.wav
36,192,76825,1,0,0:0:0:70:drum-hitwhistle2.wav
182,192,76825,1,0,0:0:0:70:drum-hitwhistle2.wav
475,192,76825,1,0,0:0:0:70:drum-hitwhistle2.wav
256,192,77210,1,0,0:0:0:70:drum-hitwhistle2.wav
475,192,77210,1,0,0:0:0:70:drum-hitwhistle2.wav
109,192,77210,1,0,0:0:0:70:drum-hitwhistle2.wav
329,192,77402,1,0,0:0:0:70:drum-hitwhistle2.wav
402,192,77402,1,0,0:0:0:70:drum-hitwhistle2.wav
36,192,77498,1,0,0:0:0:70:drum-hitwhistle2.wav
182,192,77595,1,0,0:0:0:70:drum-hitwhistle2.wav
475,192,77595,1,0,0:0:0:70:drum-hitwhistle2.wav
109,192,77979,1,0,0:0:0:70:drum-hitwhistle2.wav
329,192,77979,1,0,0:0:0:70:drum-hitwhistle2.wav
475,192,77979,1,0,0:0:0:70:drum-hitwhistle2.wav
329,192,78364,1,0,0:0:0:70:drum-hitwhistle2.wav
475,192,78364,1,0,0:0:0:70:drum-hitwhistle2.wav
182,192,78364,1,0,0:0:0:70:drum-hitwhistle2.wav
36,192,78364,1,0,0:0:0:70:drum-hitwhistle2.wav
36,192,78748,1,0,0:0:0:70:drum-hitwhistle2.wav
182,192,78748,1,0,0:0:0:70:drum-hitwhistle2.wav
329,192,78748,1,0,0:0:0:70:drum-hitwhistle2.wav
329,192,79133,1,0,0:0:0:70:drum-hitwhistle2.wav
182,192,79133,1,0,0:0:0:70:drum-hitwhistle2.wav
475,192,79133,1,0,0:0:0:70:drum-hitwhistle2.wav
329,192,79518,1,0,0:0:0:70:drum-hitwhistle2.wav
182,192,79518,1,0,0:0:0:70:drum-hitwhistle2.wav
402,192,79902,128,0,80287:0:0:0:70:drum-hitwhistle2.wav
182,192,79902,1,0,0:0:0:70:drum-hitwhistle2.wav
329,192,79902,1,0,0:0:0:70:drum-hitwhistle2.wav
182,192,80095,1,0,0:0:0:70:drum-hitwhistle2.wav
329,192,80191,1,0,0:0:0:70:drum-hitwhistle2.wav
36,192,80191,1,0,0:0:0:70:drum-hitwhistle2.wav
182,192,80287,128,0,80672:0:0:0:70:drum-hitwhistle2.wav
109,192,80672,128,0,81056:0:0:0:70:drum-hitwhistle2.wav
475,192,80768,1,0,0:0:0:70:drum-hitwhistle2.wav
329,192,80768,1,0,0:0:0:70:drum-hitwhistle2.wav
36,192,80864,1,0,0:0:0:70:drum-hitwhistle2.wav
402,192,81056,128,0,81441:0:0:0:70:drum-hitwhistle2.wav
256,192,81152,1,0,0:0:0:70:drum-hitwhistle2.wav
109,192,81248,1,0,0:0:0:70:drum-hitwhistle2.wav
256,192,81441,128,0,81633:0:0:0:70:drum-hitwhistle2.wav
36,192,81441,128,0,81633:0:0:0:70:drum-hitwhistle2.wav
182,192,81441,1,0,0:0:0:70:drum-hitwhistle2.wav
109,192,81537,1,0,0:0:0:70:drum-hitwhistle2.wav
475,192,81633,128,0,81825:0:0:0:70:drum-hitwhistle2.wav
329,192,81633,1,0,0:0:0:70:drum-hitwhistle2.wav
182,192,81633,1,0,0:0:0:70:drum-hitwhistle2.wav
402,192,81729,1,0,0:0:0:70:drum-hitwhistle2.wav
109,192,81729,1,0,0:0:0:70:drum-hitwhistle2.wav
256,192,81825,1,0,0:0:0:70:drum-hitwhistle2.wav
109,192,81922,1,0,0:0:0:70:drum-hitwhistle2.wav
402,192,81922,1,0,0:0:0:0:
475,192,82018,128,0,82210:0:0:0:70:drum-hitwhistle2.wav
182,192,82018,128,0,82210:0:0:0:70:drum-hitwhistle2.wav
36,192,82018,128,0,82114:0:0:0:70:drum-hitwhistle2.wav
329,192,82114,128,0,82210:0:0:0:70:drum-hitwhistle2.wav
256,192,82210,1,0,0:0:0:70:drum-hitwhistle2.wav
109,192,82306,1,0,0:0:0:70:drum-hitclap.wav
402,192,82306,1,0,0:0:0:70:drum-hitclap.wav
109,192,82595,1,0,0:0:0:70:drum-hitclap.wav
402,192,82595,1,0,0:0:0:70:drum-hitclap.wav
256,192,82595,1,0,0:0:0:70:drum-hitclap.wav
109,192,82787,1,0,0:0:0:70:drum-hitclap.wav
402,192,82787,1,0,0:0:0:70:drum-hitclap.wav
256,192,82787,1,0,0:0:0:70:drum-hitclap.wav
109,192,83075,1,0,0:0:0:70:drum-hitclap.wav
402,192,83075,1,0,0:0:0:70:drum-hitclap.wav
256,192,83075,1,0,0:0:0:70:drum-hitclap.wav
109,192,83748,1,0,0:0:0:70:drum-hitclap.wav
402,192,83748,1,0,0:0:0:70:drum-hitclap.wav
256,192,83748,1,0,0:0:0:70:drum-hitclap.wav
109,192,84037,1,0,0:0:0:70:drum-hitclap.wav
402,192,84037,1,0,0:0:0:70:drum-hitclap.wav
256,192,84037,1,0,0:0:0:70:drum-hitclap.wav
109,192,84229,1,0,0:0:0:70:drum-hitclap.wav
402,192,84229,1,0,0:0:0:70:drum-hitclap.wav
256,192,84229,1,0,0:0:0:70:drum-hitclap.wav
109,192,84518,1,0,0:0:0:70:drum-hitclap.wav
402,192,84518,1,0,0:0:0:70:drum-hitclap.wav
256,192,84518,1,0,0:0:0:70:drum-hitclap.wav
36,192,85287,1,0,0:0:0:70:drum-hitclap.wav
109,192,85383,1,0,0:0:0:70:drum-hitclap.wav
182,192,85479,1,0,0:0:0:70:drum-hitclap.wav
256,192,85575,1,0,0:0:0:70:drum-hitclap.wav
329,192,85672,1,0,0:0:0:70:drum-hitclap.wav
402,192,85768,1,0,0:0:0:70:drum-hitclap.wav
475,192,85864,1,0,0:0:0:70:drum-hitclap.wav
402,192,85960,1,0,0:0:0:70:drum-hitclap.wav
329,192,86056,1,0,0:0:0:70:drum-hitclap.wav
256,192,86152,1,0,0:0:0:70:drum-hitclap.wav
182,192,86248,1,0,0:0:0:70:drum-hitclap.wav
256,192,86345,1,0,0:0:0:70:drum-hitclap.wav
329,192,86441,1,0,0:0:0:70:drum-hitclap.wav
402,192,86537,1,0,0:0:0:70:drum-hitclap.wav
475,192,86633,1,0,0:0:0:70:drum-hitclap.wav
256,192,86729,1,0,0:0:0:70:drum-hitclap.wav
109,192,86825,1,0,0:0:0:70:drum-hitclap.wav
256,192,86922,128,0,87210:0:0:0:70:drum-hitclap.wav
329,192,87210,1,0,0:0:0:70:drum-hitclap.wav
402,192,87306,1,0,0:0:0:70:drum-hitclap.wav
256,192,87595,1,0,0:0:0:70:drum-hitclap.wav
182,192,87691,1,0,0:0:0:70:drum-hitclap.wav
256,192,87979,1,0,0:0:0:70:drum-hitclap.wav
329,192,88075,1,0,0:0:0:70:drum-hitclap.wav
36,192,88364,128,0,92979:0:0:0:70:drum-hitwhistle2.wav
109,192,88364,1,0,0:0:0:70:drum-hitwhistle2.wav
182,192,88364,1,0,0:0:0:70:drum-hitwhistle2.wav
402,192,88556,1,0,0:0:0:70:drum-hitwhistle2.wav
475,192,88556,1,0,0:0:0:70:drum-hitwhistle2.wav
256,192,88748,1,0,0:0:0:70:drum-hitwhistle2.wav
329,192,88748,1,0,0:0:0:70:drum-hitwhistle2.wav
402,192,88941,1,0,0:0:0:70:drum-hitwhistle2.wav
475,192,88941,1,0,0:0:0:70:drum-hitwhistle2.wav
182,192,89133,1,0,0:0:0:70:drum-hitwhistle2.wav
256,192,89133,1,0,0:0:0:70:drum-hitwhistle2.wav
402,192,89325,1,0,0:0:0:70:drum-hitwhistle2.wav
475,192,89325,1,0,0:0:0:70:drum-hitwhistle2.wav
109,192,89518,1,0,0:0:0:70:drum-hitwhistle2.wav
182,192,89518,1,0,0:0:0:70:drum-hitwhistle2.wav
256,192,89710,1,0,0:0:0:70:drum-hitwhistle2.wav
329,192,89710,1,0,0:0:0:70:drum-hitwhistle2.wav
475,192,89902,128,0,92979:0:0:0:70:drum-hitwhistle2.wav
109,192,89902,1,0,0:0:0:70:drum-hitwhistle2.wav
256,192,89902,1,0,0:0:0:70:drum-hitwhistle2.wav
402,192,89902,1,0,0:0:0:70:drum-hitwhistle2.wav
329,192,90095,1,0,0:0:0:70:drum-hitwhistle2.wav
402,192,90095,1,0,0:0:0:70:drum-hitwhistle2.wav
109,192,90287,1,0,0:0:0:70:drum-hitwhistle2.wav
182,192,90287,1,0,0:0:0:70:drum-hitwhistle2.wav
256,192,90479,1,0,0:0:0:70:drum-hitwhistle2.wav
402,192,90479,1,0,0:0:0:70:drum-hitwhistle2.wav
329,192,90672,1,0,0:0:0:70:drum-hitwhistle2.wav
182,192,90672,1,0,0:0:0:70:drum-hitwhistle2.wav
109,192,90864,1,0,0:0:0:70:drum-hitwhistle2.wav
402,192,90864,1,0,0:0:0:70:drum-hitwhistle2.wav
182,192,91056,1,0,0:0:0:70:drum-hitwhistle2.wav
329,192,91056,1,0,0:0:0:70:drum-hitwhistle2.wav
109,192,91248,1,0,0:0:0:70:drum-hitwhistle2.wav
329,192,91248,1,0,0:0:0:70:drum-hitwhistle2.wav
109,192,91441,1,0,0:0:0:70:drum-hitwhistle2.wav
182,192,91489,1,0,0:0:0:70:drum-hitwhistle2.wav
256,192,91537,1,0,0:0:0:70:drum-hitwhistle2.wav
329,192,91585,1,0,0:0:0:70:drum-hitwhistle2.wav
402,192,91633,1,0,0:0:0:70:drum-hitwhistle2.wav
109,192,91681,1,0,0:0:0:70:drum-hitwhistle2.wav
182,192,91729,1,0,0:0:0:70:drum-hitwhistle2.wav
256,192,91777,1,0,0:0:0:70:drum-hitwhistle2.wav
329,192,91825,1,0,0:0:0:70:drum-hitwhistle2.wav
402,192,91873,1,0,0:0:0:70:drum-hitwhistle2.wav
109,192,91922,1,0,0:0:0:70:drum-hitwhistle2.wav
182,192,91970,1,0,0:0:0:70:drum-hitwhistle2.wav
256,192,92018,1,0,0:0:0:70:drum-hitwhistle2.wav
329,192,92066,1,0,0:0:0:70:drum-hitwhistle2.wav
402,192,92114,1,0,0:0:0:70:drum-hitwhistle2.wav
329,192,92162,1,0,0:0:0:70:drum-hitwhistle2.wav
256,192,92210,1,0,0:0:0:70:drum-hitwhistle2.wav
182,192,92258,1,0,0:0:0:70:drum-hitwhistle2.wav
109,192,92306,1,0,0:0:0:70:drum-hitwhistle2.wav
402,192,92354,1,0,0:0:0:70:drum-hitwhistle2.wav
329,192,92402,1,0,0:0:0:70:drum-hitwhistle2.wav
256,192,92450,1,0,0:0:0:70:drum-hitwhistle2.wav
182,192,92498,1,0,0:0:0:70:drum-hitwhistle2.wav
109,192,92547,1,0,0:0:0:70:drum-hitwhistle2.wav
402,192,92595,1,0,0:0:0:70:drum-hitwhistle2.wav
329,192,92643,1,0,0:0:0:70:drum-hitwhistle2.wav
256,192,92691,1,0,0:0:0:70:drum-hitwhistle2.wav
182,192,92739,1,0,0:0:0:70:drum-hitwhistle2.wav
109,192,92787,1,0,0:0:0:70:drum-hitwhistle2.wav
402,192,92835,1,0,0:0:0:70:drum-hitwhistle2.wav
329,192,92883,1,0,0:0:0:70:drum-hitwhistle2.wav
256,192,92931,1,0,0:0:0:70:drum-hitwhistle2.wav
402,192,92979,128,0,94422:0:0:0:70:drum-hitwhistle2.wav
256,192,94518,1,0,0:0:0:70:drum-hitwhistle2.wav
109,192,94710,1,0,0:0:0:70:drum-hitwhistle2.wav
402,192,94902,1,0,0:0:0:70:drum-hitwhistle2.wav
182,192,95095,1,0,0:0:0:70:drum-hitwhistle2.wav
402,192,95287,1,0,0:0:0:70:drum-hitwhistle2.wav
36,192,95479,1,0,0:0:0:70:drum-hitwhistle2.wav
182,192,95575,1,0,0:0:0:70:drum-hitwhistle2.wav
402,192,95672,1,0,0:0:0:70:drum-hitwhistle2.wav
182,192,95864,1,0,0:0:0:70:drum-hitwhistle2.wav
256,192,96056,1,0,0:0:0:70:drum-hitwhistle2.wav
402,192,96248,1,0,0:0:0:70:drum-hitwhistle2.wav
256,192,96441,1,0,0:0:0:70:drum-hitwhistle2.wav
109,192,96633,1,0,0:0:0:70:drum-hitwhistle2.wav
402,192,96825,1,0,0:0:0:70:drum-hitwhistle2.wav
256,192,97018,1,0,0:0:0:70:drum-hitwhistle2.wav
475,192,97210,1,0,0:0:0:70:drum-hitwhistle2.wav
402,192,97402,1,0,0:0:0:70:drum-hitwhistle2.wav
329,192,97595,1,0,0:0:0:70:drum-hitwhistle2.wav
256,192,97787,1,0,0:0:0:70:drum-hitwhistle2.wav
182,192,97979,1,0,0:0:0:70:drum-hitwhistle2.wav
109,192,98172,1,0,0:0:0:70:drum-hitwhistle2.wav
36,192,98364,1,0,0:0:0:70:drum-hitwhistle2.wav
402,192,98364,1,0,0:0:0:70:drum-hitwhistle2.wav
109,192,98556,1,0,0:0:0:70:drum-hitwhistle2.wav
256,192,98652,1,0,0:0:0:70:drum-hitwhistle2.wav
402,192,98748,1,0,0:0:0:70:drum-hitwhistle2.wav
256,192,98941,1,0,0:0:0:70:drum-hitwhistle2.wav
402,192,99133,1,0,0:0:0:70:drum-hitwhistle2.wav
475,192,99325,1,0,0:0:0:70:drum-hitwhistle2.wav
329,192,99518,1,0,0:0:0:70:drum-hitwhistle2.wav
256,192,99710,1,0,0:0:0:70:drum-hitwhistle2.wav
182,192,99902,1,0,0:0:0:70:drum-hitwhistle2.wav
109,192,100095,1,0,0:0:0:70:drum-hitwhistle2.wav
402,192,100287,1,0,0:0:0:70:drum-hitwhistle2.wav
182,192,100479,1,0,0:0:0:70:drum-hitwhistle2.wav
329,192,100672,1,0,0:0:0:70:drum-hitwhistle2.wav
109,192,100864,1,0,0:0:0:70:drum-hitwhistle2.wav
329,192,101056,1,0,0:0:0:70:drum-hitwhistle2.wav
256,192,101248,1,0,0:0:0:70:drum-hitwhistle2.wav
109,192,101441,1,0,0:0:0:70:drum-hitwhistle2.wav
475,192,101537,1,0,0:0:0:70:drum-hitwhistle2.wav
402,192,101633,1,0,0:0:0:70:drum-hitwhistle2.wav
182,192,101825,1,0,0:0:0:70:drum-hitwhistle2.wav
402,192,102018,1,0,0:0:0:70:drum-hitwhistle2.wav
109,192,102210,1,0,0:0:0:70:drum-hitwhistle2.wav
329,192,102402,1,0,0:0:0:70:drum-hitwhistle2.wav
109,192,102595,1,0,0:0:0:70:drum-hitwhistle2.wav
402,192,102787,1,0,0:0:0:70:drum-hitwhistle2.wav
182,192,102979,1,0,0:0:0:70:drum-hitwhistle2.wav
36,192,103172,1,0,0:0:0:70:drum-hitwhistle2.wav
329,192,103364,1,0,0:0:0:70:drum-hitwhistle2.wav
182,192,103556,1,0,0:0:0:70:drum-hitwhistle2.wav
475,192,103748,1,0,0:0:0:70:drum-hitwhistle2.wav
402,192,103941,1,0,0:0:0:70:drum-hitwhistle2.wav
329,192,104133,1,0,0:0:0:70:drum-hitwhistle2.wav
182,192,104325,1,0,0:0:0:70:drum-hitwhistle2.wav
109,192,104518,1,0,0:0:0:70:drum-hitwhistle2.wav
36,192,104710,1,0,0:0:0:70:drum-hitwhistle2.wav
109,192,104902,1,0,0:0:0:70:drum-hitwhistle2.wav
182,192,104998,1,0,0:0:0:70:drum-hitwhistle2.wav
402,192,105095,1,0,0:0:0:70:drum-hitwhistle2.wav
256,192,105287,128,0,106825:0:0:0:70:drum-hitwhistle2.wav
109,192,105287,1,0,0:0:0:70:drum-hitwhistle2.wav
402,192,105479,1,0,0:0:0:70:drum-hitwhistle2.wav
109,192,105672,1,0,0:0:0:70:drum-hitwhistle2.wav
402,192,105864,1,0,0:0:0:70:drum-hitwhistle2.wav
109,192,106056,1,0,0:0:0:70:drum-hitwhistle2.wav
402,192,106248,1,0,0:0:0:70:drum-hitwhistle2.wav
109,192,106441,1,0,0:0:0:70:drum-hitwhistle2.wav
402,192,106633,1,0,0:0:0:70:drum-hitwhistle2.wav
109,192,106825,128,0,108364:0:0:0:70:drum-hitwhistle2.wav
475,192,108364,128,0,109902:0:0:0:70:drum-hitwhistle2.wav
36,192,109902,128,0,111441:0:0:0:70:drum-hitwhistle2.wav
182,192,111441,128,0,112979:0:0:0:70:drum-hitwhistle2.wav
256,192,112979,128,0,114518:0:0:0:70:drum-hitwhistle2.wav
402,192,114518,128,0,116056:0:0:0:70:drum-hitwhistle2.wav
329,192,116056,128,0,117595:0:0:0:70:drum-hitwhistle2.wav
256,192,119133,128,0,120672:0:0:0:70:drum-hitwhistle2.wav
109,192,119133,1,0,0:0:0:70:drum-hitwhistle2.wav
402,192,119133,1,0,0:0:0:70:drum-hitwhistle2.wav
329,192,119325,1,0,0:0:0:70:drum-hitwhistle2.wav
182,192,119518,1,0,0:0:0:70:drum-hitclap.wav
475,192,119518,1,0,0:0:0:70:drum-hitclap.wav
109,192,119710,1,0,0:0:0:70:drum-hitwhistle2.wav
36,192,119902,1,0,0:0:0:70:drum-hitwhistle2.wav
182,192,119902,1,0,0:0:0:70:drum-hitwhistle2.wav
109,192,120095,1,0,0:0:0:70:drum-hitwhistle2.wav
182,192,120191,1,0,0:0:0:70:drum-hitwhistle2.wav
475,192,120287,1,0,0:0:0:70:drum-hitclap.wav
329,192,120287,1,0,0:0:0:70:drum-hitclap.wav
182,192,120479,1,0,0:0:0:70:drum-hitwhistle2.wav
109,192,120672,1,0,0:0:0:70:drum-hitwhistle2.wav
329,192,120672,1,0,0:0:0:70:drum-hitwhistle2.wav
182,192,120864,1,0,0:0:0:70:drum-hitwhistle2.wav
329,192,121056,1,0,0:0:0:70:drum-hitclap.wav
109,192,121248,1,0,0:0:0:70:drum-hitwhistle2.wav
475,192,121441,1,0,0:0:0:70:drum-hitwhistle2.wav
182,192,121633,1,0,0:0:0:70:drum-hitwhistle2.wav
402,192,121825,1,0,0:0:0:70:drum-hitclap.wav
256,192,122018,1,0,0:0:0:70:drum-hitwhistle2.wav
109,192,122210,1,0,0:0:0:70:drum-hitwhistle2.wav
402,192,122210,1,0,0:0:0:70:drum-hitwhistle2.wav
329,192,122402,1,0,0:0:0:70:drum-hitwhistle2.wav
182,192,122595,1,0,0:0:0:70:drum-hitclap.wav
36,192,122595,1,0,0:0:0:70:drum-hitclap.wav
109,192,122787,1,0,0:0:0:70:drum-hitwhistle2.wav
329,192,122979,1,0,0:0:0:70:drum-hitwhistle2.wav
402,192,123075,1,0,0:0:0:70:drum-hitwhistle2.wav
475,192,123172,1,0,0:0:0:70:drum-hitwhistle2.wav
256,192,123172,1,0,0:0:0:70:drum-hitwhistle2.wav
402,192,123364,1,0,0:0:0:70:drum-hitclap.wav
109,192,123556,1,0,0:0:0:70:drum-hitwhistle2.wav
329,192,123556,1,0,0:0:0:70:drum-hitwhistle2.wav
182,192,123748,1,0,0:0:0:70:drum-hitwhistle2.wav
182,192,123941,1,0,0:0:0:70:drum-hitwhistle2.wav
402,192,123941,1,0,0:0:0:70:drum-hitwhistle2.wav
329,192,124133,1,0,0:0:0:70:drum-hitclap.wav
475,192,124133,1,0,0:0:0:70:drum-hitclap.wav
402,192,124325,1,0,0:0:0:70:drum-hitwhistle2.wav
256,192,124325,1,0,0:0:0:70:drum-hitwhistle2.wav
109,192,124518,1,0,0:0:0:70:drum-hitwhistle2.wav
329,192,124518,1,0,0:0:0:70:drum-hitwhistle2.wav
182,192,124710,1,0,0:0:0:70:drum-hitwhistle2.wav
475,192,124710,1,0,0:0:0:70:drum-hitwhistle2.wav
475,192,124902,1,0,0:0:0:70:drum-hitclap.wav
36,192,124902,1,0,0:0:0:70:drum-hitclap.wav
109,192,125095,1,0,0:0:0:70:drum-hitwhistle2.wav
402,192,125095,1,0,0:0:0:70:drum-hitwhistle2.wav
109,192,125287,128,0,126825:0:0:0:70:drum-hitwhistle2.wav
256,192,125287,1,0,0:0:0:70:drum-hitwhistle2.wav
402,192,125479,1,0,0:0:0:70:drum-hitwhistle2.wav
329,192,125479,1,0,0:0:0:70:drum-hitwhistle2.wav
182,192,125672,1,0,0:0:0:70:drum-hitclap.wav
256,192,125672,1,0,0:0:0:70:drum-hitclap.wav
329,192,125864,1,0,0:0:0:70:drum-hitwhistle2.wav
402,192,125864,1,0,0:0:0:70:drum-hitwhistle2.wav
402,192,126056,1,0,0:0:0:70:drum-hitwhistle2.wav
475,192,126056,1,0,0:0:0:70:drum-hitwhistle2.wav
329,192,126248,1,0,0:0:0:70:drum-hitwhistle2.wav
402,192,126345,1,0,0:0:0:70:drum-hitwhistle2.wav
182,192,126441,1,0,0:0:0:70:drum-hitclap.wav
36,192,126441,1,0,0:0:0:70:drum-hitclap.wav
329,192,126633,1,0,0:0:0:70:drum-hitwhistle2.wav
475,192,126633,1,0,0:0:0:70:drum-hitwhistle2.wav
182,192,126825,1,0,0:0:0:70:drum-hitwhistle2.wav
256,192,126825,1,0,0:0:0:70:drum-hitwhistle2.wav
329,192,127018,1,0,0:0:0:0:
182,192,127210,1,0,0:0:0:70:drum-hitclap.wav
402,192,127402,1,0,0:0:0:70:drum-hitwhistle2.wav
109,192,127595,1,0,0:0:0:70:drum-hitwhistle2.wav
329,192,127787,1,0,0:0:0:70:drum-hitwhistle2.wav
36,192,127979,1,0,0:0:0:70:drum-hitwhistle2.wav
182,192,128172,1,0,0:0:0:70:drum-hitwhistle2.wav
36,192,128364,1,0,0:0:0:70:drum-hitclap.wav
329,192,128556,1,0,0:0:0:70:drum-hitwhistle2.wav
182,192,128748,1,0,0:0:0:70:drum-hitclap.wav
402,192,128748,1,0,0:0:0:70:drum-hitclap.wav
329,192,128941,1,0,0:0:0:70:drum-hitwhistle2.wav
109,192,129133,1,0,0:0:0:70:drum-hitwhistle2.wav
475,192,129133,1,0,0:0:0:70:drum-hitwhistle2.wav
402,192,129325,1,0,0:0:0:70:drum-hitwhistle2.wav
329,192,129518,1,0,0:0:0:70:drum-hitclap.wav
475,192,129518,1,0,0:0:0:70:drum-hitclap.wav
182,192,129614,1,0,0:0:0:70:drum-hitwhistle2.wav
402,192,129710,1,0,0:0:0:70:drum-hitwhistle2.wav
402,192,129902,1,0,0:0:0:70:drum-hitwhistle2.wav
109,192,129902,1,0,0:0:0:70:drum-hitwhistle2.wav
256,192,129902,1,0,0:0:0:70:drum-hitwhistle2.wav
182,192,130095,1,0,0:0:0:70:drum-hitwhistle2.wav
256,192,130287,1,0,0:0:0:70:drum-hitwhistle2.wav
329,192,130479,1,0,0:0:0:70:drum-hitwhistle2.wav
256,192,130672,1,0,0:0:0:70:drum-hitwhistle2.wav
182,192,130864,1,0,0:0:0:70:drum-hitwhistle2.wav
256,192,131056,1,0,0:0:0:70:drum-hitwhistle2.wav
329,192,131248,1,0,0:0:0:70:drum-hitwhistle2.wav
402,192,131441,1,0,0:0:0:70:drum-hitwhistle2.wav
36,192,131441,128,0,132979:0:0:0:70:drum-hitwhistle2.wav
256,192,131441,1,0,0:0:0:70:drum-hitwhistle2.wav
329,192,131633,1,0,0:0:0:70:drum-hitwhistle2.wav
182,192,131825,1,0,0:0:0:70:drum-hitwhistle2.wav
475,192,131825,1,0,0:0:0:70:drum-hitwhistle2.wav
402,192,132018,1,0,0:0:0:70:drum-hitwhistle2.wav
256,192,132210,1,0,0:0:0:70:drum-hitwhistle2.wav
475,192,132210,1,0,0:0:0:70:drum-hitwhistle2.wav
402,192,132402,1,0,0:0:0:70:drum-hitwhistle2.wav
182,192,132595,1,0,0:0:0:70:drum-hitwhistle2.wav
475,192,132595,1,0,0:0:0:70:drum-hitwhistle2.wav
329,192,132691,1,0,0:0:0:70:drum-hitwhistle2.wav
402,192,132691,1,0,0:0:0:70:drum-hitwhistle2.wav
109,192,132883,1,0,0:0:0:70:drum-hitwhistle2.wav
475,192,132883,1,0,0:0:0:70:drum-hitwhistle2.wav
402,192,132979,128,0,134518:0:0:0:70:drum-hitwhistle2.wav
182,192,132979,1,0,0:0:0:70:drum-hitwhistle2.wav
329,192,132979,1,0,0:0:0:70:drum-hitwhistle2.wav
182,192,133172,1,0,0:0:0:70:drum-hitwhistle2.wav
329,192,133172,1,0,0:0:0:70:drum-hitwhistle2.wav
36,192,133268,1,0,0:0:0:70:drum-hitwhistle2.wav
256,192,133268,1,0,0:0:0:70:drum-hitwhistle2.wav
256,192,133460,1,0,0:0:0:70:drum-hitwhistle2.wav
36,192,133460,1,0,0:0:0:70:drum-hitwhistle2.wav
109,192,133556,1,0,0:0:0:70:drum-hitwhistle2.wav
329,192,133556,1,0,0:0:0:70:drum-hitwhistle2.wav
182,192,133748,1,0,0:0:0:70:drum-hitwhistle2.wav
109,192,133941,1,0,0:0:0:70:drum-hitwhistle2.wav
256,192,133941,1,0,0:0:0:70:drum-hitwhistle2.wav
182,192,134133,1,0,0:0:0:70:drum-hitwhistle2.wav
36,192,134325,1,0,0:0:0:70:drum-hitwhistle2.wav
256,192,134422,1,0,0:0:0:70:drum-hitwhistle2.wav
182,192,134518,128,0,136056:0:0:0:70:drum-hitwhistle2.wav
329,192,134518,1,0,0:0:0:70:drum-hitwhistle2.wav
475,192,134518,1,0,0:0:0:70:drum-hitwhistle2.wav
402,192,134710,1,0,0:0:0:70:drum-hitwhistle2.wav
256,192,134902,1,0,0:0:0:70:drum-hitwhistle2.wav
475,192,134902,1,0,0:0:0:70:drum-hitwhistle2.wav
402,192,135095,1,0,0:0:0:70:drum-hitwhistle2.wav
329,192,135287,1,0,0:0:0:70:drum-hitwhistle2.wav
475,192,135287,1,0,0:0:0:70:drum-hitwhistle2.wav
402,192,135479,1,0,0:0:0:70:drum-hitwhistle2.wav
475,192,135672,1,0,0:0:0:70:drum-hitwhistle2.wav
402,192,135768,1,0,0:0:0:70:drum-hitwhistle2.wav
329,192,135768,1,0,0:0:0:70:drum-hitwhistle2.wav
109,192,135960,1,0,0:0:0:70:drum-hitwhistle2.wav
36,192,135960,1,0,0:0:0:70:drum-hitwhistle2.wav
475,192,136056,128,0,137595:0:0:0:70:drum-hitwhistle2.wav
329,192,136056,1,0,0:0:0:70:drum-hitwhistle2.wav
109,192,136248,1,0,0:0:0:70:drum-hitwhistle2.wav
402,192,136441,1,0,0:0:0:70:drum-hitwhistle2.wav
182,192,136633,1,0,0:0:0:70:drum-hitwhistle2.wav
329,192,136825,1,0,0:0:0:70:drum-hitwhistle2.wav
109,192,137018,1,0,0:0:0:70:drum-hitwhistle2.wav
256,192,137210,1,0,0:0:0:70:drum-hitwhistle2.wav
36,192,137402,1,0,0:0:0:70:drum-hitwhistle2.wav
182,192,137595,128,0,139133:0:0:0:70:drum-hitwhistle2.wav
256,192,137595,1,0,0:0:0:70:drum-hitwhistle2.wav
402,192,137595,1,0,0:0:0:70:drum-hitwhistle2.wav
475,192,137787,1,0,0:0:0:70:drum-hitwhistle2.wav
329,192,137979,1,0,0:0:0:70:drum-hitwhistle2.wav
402,192,137979,1,0,0:0:0:70:drum-hitwhistle2.wav
256,192,138172,1,0,0:0:0:70:drum-hitwhistle2.wav
109,192,138364,1,0,0:0:0:70:drum-hitwhistle2.wav
402,192,138364,1,0,0:0:0:70:drum-hitwhistle2.wav
36,192,138556,1,0,0:0:0:70:drum-hitwhistle2.wav
109,192,138652,1,0,0:0:0:70:drum-hitwhistle2.wav
256,192,138845,1,0,0:0:0:70:drum-hitwhistle2.wav
329,192,138941,1,0,0:0:0:70:drum-hitwhistle2.wav
36,192,139133,128,0,140672:0:0:0:70:drum-hitwhistle2.wav
109,192,139133,1,0,0:0:0:70:drum-hitwhistle2.wav
402,192,139133,1,0,0:0:0:70:drum-hitwhistle2.wav
329,192,139325,1,0,0:0:0:70:drum-hitwhistle2.wav
475,192,139518,1,0,0:0:0:70:drum-hitwhistle2.wav
182,192,139518,1,0,0:0:0:70:drum-hitwhistle2.wav
402,192,139710,1,0,0:0:0:70:drum-hitwhistle2.wav
182,192,139902,1,0,0:0:0:70:drum-hitwhistle2.wav
256,192,139998,1,0,0:0:0:70:drum-hitwhistle2.wav
475,192,140287,1,0,0:0:0:70:drum-hitwhistle2.wav
109,192,140479,128,0,140672:0:0:0:70:drum-hitwhistle2.wav
256,192,140479,1,0,0:0:0:70:drum-hitwhistle2.wav
402,192,140479,1,0,0:0:0:70:drum-hitwhistle2.wav
329,192,140672,128,0,142210:0:0:0:70:drum-hitwhistle2.wav
256,192,140672,1,0,0:0:0:70:drum-hitwhistle2.wav
182,192,140864,1,0,0:0:0:70:drum-hitwhistle2.wav
36,192,141056,1,0,0:0:0:70:drum-hitwhistle2.wav
475,192,141056,1,0,0:0:0:70:drum-hitwhistle2.wav
256,192,141248,1,0,0:0:0:70:drum-hitwhistle2.wav
109,192,141441,1,0,0:0:0:70:drum-hitwhistle2.wav
402,192,141441,1,0,0:0:0:70:drum-hitwhistle2.wav
182,192,141633,1,0,0:0:0:70:drum-hitwhistle2.wav
109,192,141729,1,0,0:0:0:70:drum-hitwhistle2.wav
475,192,141825,1,0,0:0:0:70:drum-hitwhistle2.wav
36,192,141825,1,0,0:0:0:70:drum-hitwhistle2.wav
182,192,142018,1,0,0:0:0:70:drum-hitwhistle2.wav
36,192,142210,1,0,0:0:0:70:drum-hitwhistle2.wav
256,192,142210,1,0,0:0:0:70:drum-hitwhistle2.wav
402,192,142402,1,0,0:0:0:70:drum-hitwhistle2.wav
182,192,142595,1,0,0:0:0:70:drum-hitwhistle2.wav
402,192,142787,1,0,0:0:0:70:drum-hitwhistle2.wav
109,192,142979,1,0,0:0:0:70:drum-hitwhistle2.wav
402,192,143172,1,0,0:0:0:70:drum-hitwhistle2.wav
109,192,143364,1,0,0:0:0:70:drum-hitwhistle2.wav
36,192,143556,1,0,0:0:0:70:drum-hitwhistle2.wav
402,192,143748,1,0,0:0:0:70:drum-hitwhistle2.wav
329,192,143748,1,0,0:0:0:70:drum-hitwhistle2.wav
