osu file format v14

[General]
AudioFilename: Ryu feat.Mayumi Morinaga - Din Don Dan.MP3
AudioLeadIn: 0
PreviewTime: 73311
Countdown: 0
SampleSet: Soft
StackLeniency: 0.7
Mode: 3
LetterboxInBreaks: 0
SpecialStyle: 0
WidescreenStoryboard: 0

[Editor]
DistanceSpacing: 1.2
BeatDivisor: 4
GridSize: 4
TimelineZoom: 1.3

[Metadata]
Title:Din Don Dan
TitleUnicode:Din Don Dan
Artist:Ryu feat.Mayumi Morinaga
ArtistUnicode:Ryu☆ feat.Mayumi Morinaga
Creator:victorica_db
Version:8K Lv.6
Source:DanceDanceRevolution
Tags:moimoi 森永真由美 Seventh Heaven DanceDanceRevolution(2014) ミライダガッキ FutureTomTom Ver.2
BeatmapID:807587
BeatmapSetID:368331

[Difficulty]
HPDrainRate:7
CircleSize:8
OverallDifficulty:7
ApproachRate:5
SliderMultiplier:1.4
SliderTickRate:1

[Events]
//Background and Video events
0,0,"maxresdefault.jpg",0,0
//Break Periods
//Storyboard Layer 0 (Background)
//Storyboard Layer 1 (Fail)
//Storyboard Layer 2 (Pass)
//Storyboard Layer 3 (Foreground)
//Storyboard Sound Samples

[TimingPoints]
1740,428.571428571429,4,2,1,30,1,0
73311,-100,4,2,1,30,0,1
101168,-100,4,2,1,30,0,0

[HitObjects]
32,192,1740,5,4,0:0:0:0:
96,192,1740,1,0,0:0:0:0:
480,192,1740,1,0,0:0:0:0:
480,192,2061,1,0,0:0:0:0:
480,192,2382,1,0,0:0:0:0:
96,192,2597,1,0,0:0:0:0:
288,192,2811,1,0,0:0:0:0:
96,192,2918,1,0,0:0:0:0:
352,192,3025,1,8,0:0:0:0:
96,192,3240,1,0,0:0:0:0:
416,192,3240,1,0,0:0:0:0:
480,192,3454,1,0,0:0:0:0:
224,192,3454,1,0,0:0:0:0:
480,192,3775,1,0,0:0:0:0:
480,192,4097,1,0,0:0:0:0:
32,192,4740,1,0,0:0:0:0:
96,192,4740,1,8,0:0:0:0:
480,192,4740,1,0,0:0:0:0:
96,192,5168,1,0,0:0:0:0:
96,192,5490,1,0,0:0:0:0:
96,192,5811,1,0,0:0:0:0:
416,192,6025,1,0,0:0:0:0:
288,192,6240,1,0,0:0:0:0:
416,192,6347,1,0,0:0:0:0:
224,192,6454,1,8,0:0:0:0:
416,192,6668,1,0,0:0:0:0:
160,192,6668,1,0,0:0:0:0:
96,192,6882,1,0,0:0:0:0:
480,192,6882,1,0,0:0:0:0:
96,192,7204,1,0,0:0:0:0:
96,192,7525,1,0,0:0:0:0:
288,192,7954,1,0,0:0:0:0:
96,192,8168,1,8,0:0:0:0:
480,192,8168,1,0,0:0:0:0:
288,192,8382,1,0,0:0:0:0:
32,192,8597,1,4,0:0:0:0:
96,192,8597,1,0,0:0:0:0:
96,192,8918,1,0,0:0:0:0:
96,192,9240,1,0,0:0:0:0:
480,192,9454,1,0,0:0:0:0:
288,192,9668,1,0,0:0:0:0:
480,192,9775,1,0,0:0:0:0:
224,192,9882,1,8,0:0:0:0:
480,192,10097,1,0,0:0:0:0:
160,192,10097,1,0,0:0:0:0:
96,192,10311,1,0,0:0:0:0:
352,192,10311,1,0,0:0:0:0:
96,192,10632,1,0,0:0:0:0:
96,192,10954,1,0,0:0:0:0:
352,192,11168,1,0,0:0:0:0:
352,192,11490,1,0,0:0:0:0:
352,192,11811,1,0,0:0:0:0:
96,192,12025,1,0,0:0:0:0:
96,192,12347,1,0,0:0:0:0:
96,192,12668,1,0,0:0:0:0:
160,192,12882,1,0,0:0:0:0:
352,192,13097,1,0,0:0:0:0:
160,192,13204,1,0,0:0:0:0:
416,192,13311,1,8,0:0:0:0:
480,192,13525,1,0,0:0:0:0:
160,192,13525,1,0,0:0:0:0:
96,192,13740,1,0,0:0:0:0:
416,192,13740,1,0,0:0:0:0:
96,192,14061,1,0,0:0:0:0:
96,192,14382,1,0,0:0:0:0:
288,192,14597,1,0,0:0:0:0:
288,192,14918,1,0,0:0:0:0:
288,192,15240,1,0,0:0:0:0:
96,192,15454,1,2,0:0:0:0:
480,192,15454,1,2,0:0:0:0:
32,192,15882,1,0,0:0:0:0:
32,192,16311,1,0,0:0:0:0:
32,192,16740,1,0,0:0:0:0:
288,192,16740,1,0,0:0:0:0:
32,192,16954,1,0,0:0:0:0:
288,192,16954,1,0,0:0:0:0:
32,192,17168,1,4,0:0:0:0:
96,192,17168,1,2,0:0:0:0:
480,192,17168,1,0,0:0:0:0:
352,192,17597,1,2,0:0:0:0:
224,192,18025,1,2,0:0:0:0:
352,192,18240,1,0,0:0:0:0:
224,192,18454,1,2,0:0:0:0:
480,192,18882,1,2,0:0:0:0:
288,192,19097,1,0,0:0:0:0:
416,192,19311,1,2,0:0:0:0:
224,192,19525,1,0,0:0:0:0:
352,192,19740,1,2,0:0:0:0:
224,192,19954,1,0,0:0:0:0:
480,192,20168,1,10,0:0:0:0:
96,192,20168,1,0,0:0:0:0:
224,192,20382,1,0,0:0:0:0:
352,192,20597,1,2,0:0:0:0:
480,192,21025,1,2,0:0:0:0:
96,192,21454,1,2,0:0:0:0:
352,192,21668,1,0,0:0:0:0:
96,192,21882,1,2,0:0:0:0:
96,192,22311,1,2,0:0:0:0:
480,192,22740,1,2,0:0:0:0:
288,192,22954,1,0,0:0:0:0:
480,192,23168,1,2,0:0:0:0:
96,192,23597,1,10,0:0:0:0:
480,192,23597,1,0,0:0:0:0:
224,192,23811,1,2,0:0:0:0:
32,192,24025,1,4,0:0:0:0:
96,192,24025,1,2,0:0:0:0:
352,192,24454,1,2,0:0:0:0:
96,192,24882,1,2,0:0:0:0:
352,192,25097,1,0,0:0:0:0:
96,192,25311,1,2,0:0:0:0:
416,192,25740,1,2,0:0:0:0:
288,192,25954,1,0,0:0:0:0:
160,192,26168,1,2,0:0:0:0:
480,192,26597,1,2,0:0:0:0:
96,192,27025,1,10,0:0:0:0:
224,192,27025,1,0,0:0:0:0:
352,192,27240,1,0,0:0:0:0:
224,192,27454,1,2,0:0:0:0:
416,192,27882,1,2,0:0:0:0:
96,192,28311,1,2,0:0:0:0:
224,192,28525,1,0,0:0:0:0:
352,192,28740,1,2,0:0:0:0:
288,192,29168,1,2,0:0:0:0:
160,192,29490,1,0,0:0:0:0:
416,192,29597,1,8,0:0:0:0:
224,192,29811,1,0,0:0:0:0:
352,192,30025,1,0,0:0:0:0:
288,192,30347,1,0,0:0:0:0:
480,192,30454,1,0,0:0:0:0:
96,192,30454,1,8,0:0:0:0:
96,192,30668,1,0,0:0:0:0:
480,192,30668,1,0,0:0:0:0:
288,192,30882,1,2,0:0:0:0:
32,192,30882,1,4,0:0:0:0:
416,192,31311,1,2,0:0:0:0:
96,192,31740,1,2,0:0:0:0:
352,192,31954,1,0,0:0:0:0:
96,192,32168,1,2,0:0:0:0:
96,192,32597,1,2,0:0:0:0:
288,192,32811,1,0,0:0:0:0:
160,192,33025,1,2,0:0:0:0:
352,192,33240,1,0,0:0:0:0:
224,192,33454,1,2,0:0:0:0:
96,192,33882,1,10,0:0:0:0:
480,192,33882,1,0,0:0:0:0:
288,192,34097,1,0,0:0:0:0:
96,192,34311,1,2,0:0:0:0:
288,192,34740,1,2,0:0:0:0:
224,192,35168,1,0,0:0:0:0:
352,192,35382,1,0,0:0:0:0:
224,192,35597,1,2,0:0:0:0:
96,192,36025,1,2,0:0:0:0:
416,192,36240,1,0,0:0:0:0:
160,192,36668,1,0,0:0:0:0:
352,192,36882,1,2,0:0:0:0:
96,192,37311,1,10,0:0:0:0:
480,192,37311,1,0,0:0:0:0:
96,192,37525,1,0,0:0:0:0:
480,192,37525,1,0,0:0:0:0:
96,192,37740,1,2,0:0:0:0:
32,192,37740,1,4,0:0:0:0:
480,192,37740,1,0,0:0:0:0:
352,192,38168,1,2,0:0:0:0:
352,192,38382,1,0,0:0:0:0:
160,192,38597,1,2,0:0:0:0:
416,192,38811,1,0,0:0:0:0:
160,192,39025,1,2,0:0:0:0:
480,192,39454,1,2,0:0:0:0:
352,192,39668,1,0,0:0:0:0:
416,192,39882,1,2,0:0:0:0:
288,192,40097,1,0,0:0:0:0:
480,192,40311,1,2,0:0:0:0:
160,192,40525,1,0,0:0:0:0:
96,192,40740,1,10,0:0:0:0:
352,192,40740,1,0,0:0:0:0:
96,192,41168,1,2,0:0:0:0:
288,192,41597,1,2,0:0:0:0:
160,192,42025,1,2,0:0:0:0:
288,192,42240,1,0,0:0:0:0:
416,192,42454,1,2,0:0:0:0:
224,192,42882,1,2,0:0:0:0:
416,192,43097,1,0,0:0:0:0:
416,192,43311,1,0,0:0:0:0:
416,192,43525,1,0,0:0:0:0:
416,192,43740,1,0,0:0:0:0:
224,192,44168,1,8,0:0:0:0:
416,192,44168,1,0,0:0:0:0:
160,192,44382,1,0,0:0:0:0:
96,192,44597,1,2,0:0:0:0:
32,192,44597,1,4,0:0:0:0:
288,192,44918,1,0,0:0:0:0:
96,192,45025,1,10,0:0:0:0:
480,192,45025,1,0,0:0:0:0:
224,192,45240,1,0,0:0:0:0:
96,192,45454,1,2,0:0:0:0:
96,192,45775,1,0,0:0:0:0:
352,192,45882,1,10,0:0:0:0:
480,192,45882,1,0,0:0:0:0:
160,192,46097,1,0,0:0:0:0:
288,192,46311,1,2,0:0:0:0:
96,192,46632,1,0,0:0:0:0:
352,192,46740,1,0,0:0:0:0:
480,192,46740,1,10,0:0:0:0:
224,192,46954,1,0,0:0:0:0:
96,192,47168,1,2,0:0:0:0:
96,192,47490,1,0,0:0:0:0:
352,192,47597,1,0,0:0:0:0:
480,192,47597,1,10,0:0:0:0:
224,192,47811,1,0,0:0:0:0:
96,192,48025,1,2,0:0:0:0:
224,192,48347,1,0,0:0:0:0:
352,192,48454,1,10,0:0:0:0:
480,192,48454,1,0,0:0:0:0:
224,192,48668,1,0,0:0:0:0:
96,192,48882,1,2,0:0:0:0:
224,192,49204,1,0,0:0:0:0:
352,192,49311,1,10,0:0:0:0:
480,192,49311,1,0,0:0:0:0:
96,192,49525,1,0,0:0:0:0:
288,192,49740,1,2,0:0:0:0:
416,192,49740,1,0,0:0:0:0:
352,192,50168,1,0,0:0:0:0:
224,192,50168,1,10,0:0:0:0:
160,192,50597,1,2,0:0:0:0:
288,192,50597,1,0,0:0:0:0:
352,192,50811,1,0,0:0:0:0:
96,192,51025,1,10,0:0:0:0:
480,192,51025,1,0,0:0:0:0:
352,192,51240,1,2,0:0:0:0:
224,192,51454,1,2,0:0:0:0:
32,192,51454,1,4,0:0:0:0:
160,192,51775,1,0,0:0:0:0:
352,192,51882,1,10,0:0:0:0:
480,192,51882,1,0,0:0:0:0:
96,192,52311,1,2,0:0:0:0:
224,192,52632,1,0,0:0:0:0:
352,192,52740,1,10,0:0:0:0:
480,192,52740,1,0,0:0:0:0:
160,192,52954,1,0,0:0:0:0:
96,192,53168,1,2,0:0:0:0:
160,192,53490,1,0,0:0:0:0:
352,192,53597,1,10,0:0:0:0:
480,192,53597,1,0,0:0:0:0:
96,192,53811,1,0,0:0:0:0:
96,192,54025,1,2,0:0:0:0:
224,192,54347,1,0,0:0:0:0:
352,192,54454,1,10,0:0:0:0:
480,192,54454,1,0,0:0:0:0:
96,192,54668,1,0,0:0:0:0:
96,192,54882,1,2,0:0:0:0:
224,192,55204,1,0,0:0:0:0:
352,192,55311,1,10,0:0:0:0:
480,192,55311,1,0,0:0:0:0:
96,192,55525,1,0,0:0:0:0:
96,192,55740,1,2,0:0:0:0:
96,192,56061,1,0,0:0:0:0:
352,192,56168,1,10,0:0:0:0:
480,192,56168,1,0,0:0:0:0:
96,192,56382,1,0,0:0:0:0:
96,192,56597,1,4,0:0:0:0:
32,192,56597,1,0,0:0:0:0:
224,192,56918,1,0,0:0:0:0:
480,192,57025,1,8,0:0:0:0:
224,192,57240,1,0,0:0:0:0:
480,192,57454,1,0,0:0:0:0:
96,192,57882,1,10,0:0:0:0:
480,192,57882,1,0,0:0:0:0:
96,192,58097,1,10,0:0:0:0:
480,192,58097,1,0,0:0:0:0:
96,192,58311,1,2,0:0:0:0:
32,192,58311,1,4,0:0:0:0:
480,192,58311,1,0,0:0:0:0:
352,192,58740,1,10,0:0:0:0:
96,192,58740,1,0,0:0:0:0:
480,192,59168,1,2,0:0:0:0:
352,192,59382,1,0,0:0:0:0:
224,192,59597,1,10,0:0:0:0:
96,192,59597,1,0,0:0:0:0:
352,192,59811,1,0,0:0:0:0:
224,192,60025,1,2,0:0:0:0:
160,192,60347,1,0,0:0:0:0:
352,192,60454,1,0,0:0:0:0:
480,192,60454,1,10,0:0:0:0:
96,192,60668,1,0,0:0:0:0:
224,192,60882,1,2,0:0:0:0:
224,192,61204,1,0,0:0:0:0:
352,192,61311,1,0,0:0:0:0:
480,192,61311,1,10,0:0:0:0:
96,192,61525,1,2,0:0:0:0:
96,192,61740,1,2,0:0:0:0:
224,192,62168,1,10,0:0:0:0:
480,192,62168,1,0,0:0:0:0:
352,192,62597,1,2,0:0:0:0:
224,192,62811,1,0,0:0:0:0:
96,192,63025,1,10,0:0:0:0:
416,192,63025,1,0,0:0:0:0:
288,192,63240,1,0,0:0:0:0:
160,192,63454,1,2,0:0:0:0:
96,192,63775,1,0,0:0:0:0:
352,192,63882,1,10,0:0:0:0:
480,192,63882,1,0,0:0:0:0:
96,192,64097,1,0,0:0:0:0:
96,192,64311,1,2,0:0:0:0:
224,192,64632,1,0,0:0:0:0:
352,192,64740,1,10,0:0:0:0:
480,192,64740,1,0,0:0:0:0:
224,192,64954,1,2,0:0:0:0:
96,192,65168,1,2,0:0:0:0:
32,192,65168,1,4,0:0:0:0:
352,192,65597,1,10,0:0:0:0:
224,192,65597,1,0,0:0:0:0:
96,192,66025,1,2,0:0:0:0:
224,192,66240,1,0,0:0:0:0:
352,192,66454,1,10,0:0:0:0:
480,192,66454,1,0,0:0:0:0:
224,192,66668,1,0,0:0:0:0:
96,192,66882,1,2,0:0:0:0:
224,192,67204,1,0,0:0:0:0:
352,192,67311,1,0,0:0:0:0:
480,192,67311,1,10,0:0:0:0:
96,192,67525,1,0,0:0:0:0:
96,192,67740,1,2,0:0:0:0:
224,192,68061,1,0,0:0:0:0:
352,192,68168,1,0,0:0:0:0:
480,192,68168,1,10,0:0:0:0:
224,192,68382,1,2,0:0:0:0:
96,192,68597,1,2,0:0:0:0:
352,192,69025,1,10,0:0:0:0:
480,192,69025,1,0,0:0:0:0:
224,192,69454,1,2,0:0:0:0:
352,192,69668,1,0,0:0:0:0:
224,192,69882,1,10,0:0:0:0:
96,192,69882,1,0,0:0:0:0:
352,192,70097,1,0,0:0:0:0:
96,192,70311,1,2,0:0:0:0:
32,192,70311,1,4,0:0:0:0:
352,192,70632,1,0,0:0:0:0:
480,192,70740,1,0,0:0:0:0:
96,192,70954,1,0,0:0:0:0:
224,192,70954,1,0,0:0:0:0:
288,192,71168,1,0,0:0:0:0:
288,192,71490,1,0,0:0:0:0:
160,192,71597,1,2,0:0:0:0:
416,192,71597,1,0,0:0:0:0:
160,192,71811,1,2,0:0:0:0:
416,192,71811,1,0,0:0:0:0:
96,192,72025,1,2,0:0:0:0:
32,192,72025,1,4,0:0:0:0:
480,192,72025,1,0,0:0:0:0:
96,192,72454,1,2,0:0:0:0:
480,192,72668,1,0,0:0:0:0:
352,192,72775,1,2,0:0:0:0:
224,192,72882,1,2,0:0:0:0:
480,192,73097,1,2,0:0:0:0:
32,192,73311,1,0,0:0:0:0:
288,192,73311,1,0,0:0:0:0:
32,192,73525,1,0,0:0:0:0:
288,192,73525,1,0,0:0:0:0:
32,192,73740,1,4,0:0:0:0:
96,192,73740,1,2,0:0:0:0:
416,192,74168,1,2,0:0:0:0:
96,192,74597,1,2,0:0:0:0:
224,192,74811,1,0,0:0:0:0:
352,192,75025,1,2,0:0:0:0:
96,192,75454,1,2,0:0:0:0:
288,192,75668,1,0,0:0:0:0:
160,192,75882,1,2,0:0:0:0:
352,192,76097,1,0,0:0:0:0:
224,192,76311,1,2,0:0:0:0:
416,192,76525,1,0,0:0:0:0:
96,192,76740,1,10,0:0:0:0:
224,192,76740,1,0,0:0:0:0:
352,192,76954,1,0,0:0:0:0:
480,192,77168,1,2,0:0:0:0:
288,192,77597,1,2,0:0:0:0:
96,192,78025,1,2,0:0:0:0:
288,192,78240,1,0,0:0:0:0:
96,192,78454,1,2,0:0:0:0:
96,192,78882,1,2,0:0:0:0:
224,192,79204,1,0,0:0:0:0:
480,192,79311,1,2,0:0:0:0:
352,192,79525,1,0,0:0:0:0:
224,192,79740,1,2,0:0:0:0:
96,192,79954,1,0,0:0:0:0:
352,192,80168,1,10,0:0:0:0:
480,192,80168,1,0,0:0:0:0:
224,192,80382,1,0,0:0:0:0:
96,192,80597,1,2,0:0:0:0:
32,192,80597,1,4,0:0:0:0:
352,192,81025,1,2,0:0:0:0:
96,192,81454,1,2,0:0:0:0:
288,192,81668,1,0,0:0:0:0:
480,192,81882,1,2,0:0:0:0:
96,192,82311,1,2,0:0:0:0:
224,192,82525,1,0,0:0:0:0:
352,192,82740,1,2,0:0:0:0:
224,192,83168,1,2,0:0:0:0:
352,192,83597,1,10,0:0:0:0:
480,192,83597,1,0,0:0:0:0:
224,192,83811,1,0,0:0:0:0:
96,192,84025,1,2,0:0:0:0:
224,192,84454,1,2,0:0:0:0:
160,192,84882,1,2,0:0:0:0:
288,192,85097,1,0,0:0:0:0:
416,192,85311,1,2,0:0:0:0:
96,192,85740,1,0,0:0:0:0:
224,192,86061,1,0,0:0:0:0:
480,192,86168,1,0,0:0:0:0:
352,192,86382,1,0,0:0:0:0:
224,192,86597,1,0,0:0:0:0:
32,192,87025,1,0,0:0:0:0:
288,192,87025,1,0,0:0:0:0:
32,192,87240,1,0,0:0:0:0:
288,192,87240,1,0,0:0:0:0:
32,192,87454,1,4,0:0:0:0:
480,192,87454,1,2,0:0:0:0:
160,192,87882,1,2,0:0:0:0:
416,192,88311,1,2,0:0:0:0:
224,192,88525,1,0,0:0:0:0:
416,192,88740,1,2,0:0:0:0:
96,192,89168,1,2,0:0:0:0:
160,192,89382,1,0,0:0:0:0:
224,192,89597,1,2,0:0:0:0:
288,192,89811,1,0,0:0:0:0:
352,192,90025,1,2,0:0:0:0:
96,192,90454,1,10,0:0:0:0:
480,192,90454,1,0,0:0:0:0:
96,192,90668,1,0,0:0:0:0:
96,192,90882,1,2,0:0:0:0:
352,192,91311,1,2,0:0:0:0:
416,192,91740,1,2,0:0:0:0:
288,192,91954,1,0,0:0:0:0:
160,192,92168,1,2,0:0:0:0:
96,192,92597,1,2,0:0:0:0:
416,192,92811,1,0,0:0:0:0:
96,192,93240,1,0,0:0:0:0:
416,192,93454,1,2,0:0:0:0:
96,192,93882,1,10,0:0:0:0:
224,192,93882,1,0,0:0:0:0:
96,192,94097,1,2,0:0:0:0:
96,192,94311,1,2,0:0:0:0:
32,192,94311,1,4,0:0:0:0:
288,192,94740,1,2,0:0:0:0:
160,192,95168,1,2,0:0:0:0:
416,192,95382,1,0,0:0:0:0:
160,192,95597,1,2,0:0:0:0:
96,192,96025,1,2,0:0:0:0:
224,192,96240,1,0,0:0:0:0:
352,192,96454,1,2,0:0:0:0:
160,192,96668,1,0,0:0:0:0:
288,192,96882,1,2,0:0:0:0:
416,192,97097,1,0,0:0:0:0:
96,192,97311,1,10,0:0:0:0:
224,192,97311,1,0,0:0:0:0:
96,192,97525,1,2,0:0:0:0:
96,192,97740,1,2,0:0:0:0:
352,192,98168,1,2,0:0:0:0:
160,192,98597,1,2,0:0:0:0:
352,192,98811,1,0,0:0:0:0:
160,192,99025,1,2,0:0:0:0:
32,192,99454,1,4,0:0:0:0:
480,192,99454,1,0,0:0:0:0:
224,192,99775,1,0,0:0:0:0:
352,192,99882,1,2,0:0:0:0:
96,192,100097,1,0,0:0:0:0:
224,192,100204,1,2,0:0:0:0:
352,192,100311,1,2,0:0:0:0:
224,192,100525,1,2,0:0:0:0:
96,192,100740,1,8,0:0:0:0:
480,192,100954,1,8,0:0:0:0:
96,192,101168,1,2,0:0:0:0:
32,192,101168,1,4,0:0:0:0:
288,192,101168,1,0,0:0:0:0:
