osu file format v14

[General]
AudioFilename: Ryu feat.Mayumi Morinaga - Din Don Dan.mp3
AudioLeadIn: 500
PreviewTime: 15922
Countdown: 0
SampleSet: Normal
StackLeniency: 0.7
Mode: 1
LetterboxInBreaks: 0
WidescreenStoryboard: 0

[Editor]
DistanceSpacing: 1.2
BeatDivisor: 4
GridSize: 32
TimelineZoom: 2.6

[Metadata]
Title:Din Don Dan
TitleUnicode:Din Don Dan
Artist:Ryu* feat.Mayumi Morinaga
ArtistUnicode:Ryu☆ feat.Mayumi Morinaga
Creator:aabc271
Version:Futsuu
Source:DanceDanceRevolution
Tags:Taiko Ryu* 森永真由美 Mayumi moimoi MM Prim senya ddr
BeatmapID:1004401
BeatmapSetID:467975

[Difficulty]
HPDrainRate:6
CircleSize:5
OverallDifficulty:4
ApproachRate:7
SliderMultiplier:1.4
SliderTickRate:1

[Events]
//Background and Video events
0,0,"BG.png",0,14
//Break Periods
//Storyboard Layer 0 (Background)
//Storyboard Layer 1 (Fail)
//Storyboard Layer 2 (Pass)
//Storyboard Layer 3 (Foreground)
//Storyboard Sound Samples

[TimingPoints]
1030,428.571428571429,4,1,0,90,1,0
11315,-100,4,1,0,92,0,0
12387,-100,4,1,0,93,0,0
13030,-100,4,1,0,94,0,0
14101,-100,4,1,0,95,0,0
14744,-100,4,1,0,70,0,0
16458,-100,4,1,0,100,0,1
30172,-100,4,1,0,98,0,0
43887,-100,4,1,0,96,0,0
57601,-100,4,1,0,98,0,0
73030,-100,4,1,0,100,0,1
100458,-100,4,1,0,100,0,0

[HitObjects]
256,192,1030,5,4,0:0:0:0:
256,192,1351,1,0,0:0:0:0:
256,192,1672,1,0,0:0:0:0:
256,192,2744,5,8,0:0:0:0:
256,192,3065,1,8,0:0:0:0:
256,192,3387,1,8,0:0:0:0:
256,192,4030,1,8,0:0:0:0:
256,192,4458,1,8,0:0:0:0:
256,192,4780,1,8,0:0:0:0:
256,192,5101,1,8,0:0:0:0:
256,192,6172,5,0,0:0:0:0:
256,192,6494,1,0,0:0:0:0:
256,192,6815,1,0,0:0:0:0:
256,192,7458,5,8,0:0:0:0:
256,192,7887,1,12,0:0:0:0:
256,192,8208,1,8,0:0:0:0:
256,192,8530,1,8,0:0:0:0:
256,192,9172,1,8,0:0:0:0:
256,192,9601,5,0,0:0:0:0:
256,192,9922,1,0,0:0:0:0:
256,192,10244,1,0,0:0:0:0:
256,192,10887,5,8,0:0:0:0:
256,192,11315,1,8,0:0:0:0:
256,192,11637,1,8,0:0:0:0:
256,192,11958,1,8,0:0:0:0:
256,192,12387,5,0,0:0:0:0:
256,192,12601,5,8,0:0:0:0:
256,192,13030,1,8,0:0:0:0:
256,192,13351,1,8,0:0:0:0:
256,192,13672,1,8,0:0:0:0:
256,192,14101,1,8,0:0:0:0:
256,192,14315,1,8,0:0:0:0:
256,192,14530,1,8,0:0:0:0:
256,192,14744,12,0,16030,0:0:0:0:
256,192,16458,5,4,0:0:0:0:
256,192,16887,5,8,0:0:0:0:
256,192,17315,5,0,0:0:0:0:
256,192,17530,5,8,0:0:0:0:
256,192,17744,5,0,0:0:0:0:
256,192,18172,5,8,0:0:0:0:
256,192,18601,1,8,0:0:0:0:
256,192,19030,1,8,0:0:0:0:
256,192,19887,5,0,0:0:0:0:
256,192,20315,5,8,0:0:0:0:
256,192,20744,5,0,0:0:0:0:
256,192,20958,5,8,0:0:0:0:
256,192,21172,5,0,0:0:0:0:
256,192,21815,1,0,0:0:0:0:
256,192,22244,1,0,0:0:0:0:
256,192,22458,5,8,0:0:0:0:
256,192,22887,1,8,0:0:0:0:
256,192,23315,5,4,0:0:0:0:
256,192,23744,5,8,0:0:0:0:
256,192,24172,5,0,0:0:0:0:
256,192,24387,5,8,0:0:0:0:
256,192,24601,5,0,0:0:0:0:
256,192,25030,5,8,0:0:0:0:
256,192,25458,1,8,0:0:0:0:
256,192,25887,1,8,0:0:0:0:
256,192,26744,5,0,0:0:0:0:
256,192,27172,5,8,0:0:0:0:
256,192,27601,5,0,0:0:0:0:
256,192,27815,5,8,0:0:0:0:
256,192,28030,5,0,0:0:0:0:
256,192,28672,1,0,0:0:0:0:
256,192,29101,1,0,0:0:0:0:
256,192,29315,5,8,0:0:0:0:
256,192,30172,5,4,0:0:0:0:
256,192,30601,5,8,0:0:0:0:
256,192,31030,5,0,0:0:0:0:
256,192,31244,5,8,0:0:0:0:
256,192,31458,5,0,0:0:0:0:
256,192,31887,5,8,0:0:0:0:
256,192,32315,1,8,0:0:0:0:
256,192,32744,1,8,0:0:0:0:
256,192,33601,5,0,0:0:0:0:
256,192,34030,5,8,0:0:0:0:
256,192,34458,5,0,0:0:0:0:
256,192,34672,5,8,0:0:0:0:
256,192,34887,5,0,0:0:0:0:
256,192,35530,1,0,0:0:0:0:
256,192,35958,1,0,0:0:0:0:
256,192,36172,5,8,0:0:0:0:
256,192,36601,1,8,0:0:0:0:
256,192,37030,5,4,0:0:0:0:
256,192,37458,5,8,0:0:0:0:
256,192,37887,5,0,0:0:0:0:
256,192,38101,5,8,0:0:0:0:
256,192,38315,5,0,0:0:0:0:
256,192,38744,5,8,0:0:0:0:
256,192,39172,1,8,0:0:0:0:
256,192,39601,1,8,0:0:0:0:
256,192,40458,5,0,0:0:0:0:
256,192,40887,5,8,0:0:0:0:
256,192,41315,5,0,0:0:0:0:
256,192,41530,5,8,0:0:0:0:
256,192,41744,5,0,0:0:0:0:
256,192,42387,1,0,0:0:0:0:
256,192,42601,1,0,0:0:0:0:
256,192,42815,1,0,0:0:0:0:
256,192,43030,5,8,0:0:0:0:
256,192,43887,5,4,0:0:0:0:
256,192,44315,5,8,0:0:0:0:
256,192,44744,1,8,0:0:0:0:
256,192,45172,5,0,0:0:0:0:
256,192,45601,5,8,0:0:0:0:
256,192,46458,1,8,0:0:0:0:
256,192,46887,1,8,0:0:0:0:
256,192,47315,5,0,0:0:0:0:
256,192,47744,5,8,0:0:0:0:
256,192,48387,5,0,0:0:0:0:
256,192,48601,5,8,0:0:0:0:
256,192,49030,1,8,0:0:0:0:
256,192,49458,5,0,0:0:0:0:
256,192,50101,1,0,0:0:0:0:
256,192,50315,5,8,0:0:0:0:
256,192,50744,5,4,0:0:0:0:
256,192,51172,5,8,0:0:0:0:
256,192,51601,1,8,0:0:0:0:
256,192,52030,5,0,0:0:0:0:
256,192,52458,5,8,0:0:0:0:
256,192,53315,1,8,0:0:0:0:
256,192,53744,1,8,0:0:0:0:
256,192,54172,5,0,0:0:0:0:
256,192,54601,5,8,0:0:0:0:
256,192,55244,5,0,0:0:0:0:
256,192,55458,5,8,0:0:0:0:
256,192,55887,1,12,0:0:0:0:
256,192,56315,1,8,0:0:0:0:
256,192,57172,1,8,0:0:0:0:
256,192,57387,1,8,0:0:0:0:
256,192,57601,1,12,0:0:0:0:
256,192,58030,5,0,0:0:0:0:
256,192,58458,1,0,0:0:0:0:
256,192,58887,5,8,0:0:0:0:
256,192,59315,5,0,0:0:0:0:
256,192,59637,5,8,0:0:0:0:
256,192,59958,1,8,0:0:0:0:
256,192,61030,1,8,0:0:0:0:
256,192,61458,5,0,0:0:0:0:
256,192,61887,1,0,0:0:0:0:
256,192,62315,5,8,0:0:0:0:
256,192,62744,5,0,0:0:0:0:
256,192,63065,5,8,0:0:0:0:
256,192,63387,5,0,0:0:0:0:
256,192,64458,5,12,0:0:0:0:
256,192,64887,5,0,0:0:0:0:
256,192,65315,1,0,0:0:0:0:
256,192,65744,5,8,0:0:0:0:
256,192,66172,5,0,0:0:0:0:
256,192,66494,5,8,0:0:0:0:
256,192,66815,1,8,0:0:0:0:
256,192,67887,1,8,0:0:0:0:
256,192,68315,5,0,0:0:0:0:
256,192,68744,1,0,0:0:0:0:
256,192,69172,5,8,0:0:0:0:
256,192,69601,5,0,0:0:0:0:
256,192,70244,1,0,0:0:0:0:
256,192,70458,5,8,0:0:0:0:
256,192,71315,5,0,0:0:0:0:
256,192,71744,1,0,0:0:0:0:
256,192,72172,1,0,0:0:0:0:
256,192,72601,5,8,0:0:0:0:
256,192,72815,5,0,0:0:0:0:
256,192,73030,1,4,0:0:0:0:
256,192,73458,5,12,0:0:0:0:
256,192,73887,5,0,0:0:0:0:
256,192,74101,5,8,0:0:0:0:
256,192,74315,5,0,0:0:0:0:
256,192,74744,5,8,0:0:0:0:
256,192,75172,1,8,0:0:0:0:
256,192,75601,1,8,0:0:0:0:
256,192,76458,5,0,0:0:0:0:
256,192,76887,5,8,0:0:0:0:
256,192,77315,5,0,0:0:0:0:
256,192,77530,5,8,0:0:0:0:
256,192,77744,5,0,0:0:0:0:
256,192,78387,1,0,0:0:0:0:
256,192,78815,1,0,0:0:0:0:
256,192,79030,5,8,0:0:0:0:
256,192,79458,1,8,0:0:0:0:
256,192,79887,5,4,0:0:0:0:
256,192,80315,5,12,0:0:0:0:
256,192,80744,5,0,0:0:0:0:
256,192,80958,5,8,0:0:0:0:
256,192,81172,5,0,0:0:0:0:
256,192,81601,5,8,0:0:0:0:
256,192,82030,1,8,0:0:0:0:
256,192,82458,1,8,0:0:0:0:
256,192,83315,5,0,0:0:0:0:
256,192,83744,5,8,0:0:0:0:
256,192,84172,5,0,0:0:0:0:
256,192,84387,5,8,0:0:0:0:
256,192,84601,5,0,0:0:0:0:
256,192,85244,1,0,0:0:0:0:
256,192,85672,1,0,0:0:0:0:
256,192,85887,5,8,0:0:0:0:
256,192,86744,5,4,0:0:0:0:
256,192,87172,5,12,0:0:0:0:
256,192,87601,5,0,0:0:0:0:
256,192,87815,5,8,0:0:0:0:
256,192,88030,5,0,0:0:0:0:
256,192,88458,5,8,0:0:0:0:
256,192,88887,1,8,0:0:0:0:
256,192,89101,5,0,0:0:0:0:
256,192,89315,5,8,0:0:0:0:
256,192,90172,5,0,0:0:0:0:
256,192,90601,5,8,0:0:0:0:
256,192,91030,5,0,0:0:0:0:
256,192,91244,5,8,0:0:0:0:
256,192,91458,5,0,0:0:0:0:
256,192,92101,1,0,0:0:0:0:
256,192,92530,1,0,0:0:0:0:
256,192,92744,5,8,0:0:0:0:
256,192,93172,1,8,0:0:0:0:
256,192,93601,5,4,0:0:0:0:
256,192,94030,5,12,0:0:0:0:
256,192,94458,5,0,0:0:0:0:
256,192,94672,5,8,0:0:0:0:
256,192,94887,5,0,0:0:0:0:
256,192,95315,5,8,0:0:0:0:
256,192,95744,1,8,0:0:0:0:
256,192,95958,5,0,0:0:0:0:
256,192,96172,5,8,0:0:0:0:
256,192,97030,5,0,0:0:0:0:
256,192,97458,5,8,0:0:0:0:
256,192,97887,5,0,0:0:0:0:
256,192,98101,5,8,0:0:0:0:
256,192,98315,5,0,0:0:0:0:
256,192,98958,1,0,0:0:0:0:
256,192,99387,1,0,0:0:0:0:
256,192,99601,5,8,0:0:0:0:
256,192,100030,1,8,0:0:0:0:
256,192,100244,1,8,0:0:0:0:
256,192,100458,5,4,0:0:0:0:
