osu file format v6

[General]
AudioFilename: 06. Ryu feat. - (_).mp3
AudioLeadIn: 0
PreviewTime: 76336
Countdown: 1
SampleSet: Normal
StackLeniency: 0.7
Mode: 0
LetterboxInBreaks: 1

[Editor]
DistanceSpacing: 0.800000011920929
BeatDivisor: 4
GridSize: 8

[Metadata]
Title:Ponyo on the Cliff by the Sea
Artist:Ryu* feat. Maki
Creator:Yes
Version:Normal
Source:
Tags:Hayao Miyazaki

[Difficulty]
HPDrainRate:3
CircleSize:3
OverallDifficulty:3
SliderMultiplier:1.3
SliderTickRate:1

[Events]
//Background and Video events
0,0,"00000000.jpg"
//Break Periods
2,6857,18550
//Storyboard Layer 0 (Background)
//Storyboard Layer 1 (Fail)
//Storyboard Layer 2 (Pass)
//Storyboard Layer 3 (Foreground)
//Storyboard Sound Samples
//Background Colour Transformations
3,100,163,162,255

[TimingPoints]
3324,416.666666666667,4,1,0,69,1,0
6654,-100,4,1,0,69,0,1
6933,-100,4,1,0,69,0,0
33131,-100,4,1,0,31,0,0
33964,-100,4,1,0,50,0,0
34797,-100,4,1,0,30,0,0
35630,-100,4,1,0,51,0,0
36463,-100,4,1,0,31,0,0
37296,-100,4,1,0,50,0,0
38129,-100,4,1,0,31,0,0
39380,-100,4,1,0,13,0,0
39797,-100,4,1,0,69,0,0
61150,-100,4,2,0,49,0,0
61566,-100,4,1,0,69,0,0
62816,-100,4,2,0,49,0,0
63232,-100,4,1,0,69,0,0
73315,-100,4,1,0,69,0,1
83730,-100,4,1,0,69,0,0

[Colours]
Combo1 : 255,164,164
Combo2 : 116,224,224
Combo3 : 223,159,225
Combo4 : 255,255,255
Combo5 : 91,174,219

[HitObjects]
80,240,3323,2,0,B|136:296|208:240,1,130
248,248,3948,1,0
352,248,4365,2,0,B|352:344,7,65
456,312,6240,5,0
456,260,6449,1,0
456,207,6657,1,4
88,112,19990,6,2,B|144:192|216:120,1,130,6|0
248,136,20615,2,2,B|304:120|376:128|384:240,1,195,2|8
304,296,21657,1,2
384,360,22074,1,2
464,296,22490,2,2,B|504:232|448:160,1,130,2|8
392,96,23324,5,0
288,96,23740,1,2
184,96,24157,2,0,B|184:240,1,130,0|2
104,160,24990,1,0
16,96,25407,1,2
104,40,25824,1,8
152,40,26032,1,8
200,40,26240,1,8
304,40,26657,6,0,B|368:24|432:80,1,130
448,120,27282,2,0,B|472:240|392:208|408:176|520:160|448:280,1,195
352,256,28324,1,0
248,256,28740,1,2
248,312,28949,1,2
248,360,29157,1,0
352,360,29574,1,4
352,256,29990,6,0,B|408:288|456:200,1,130,0|2
392,120,30824,2,0,B|328:48|256:112,1,130,0|2
184,144,31657,1,2
136,144,31865,1,4
32,144,32282,1,4
224,320,33324,6,0,B|304:368|368:296,1,130
416,240,34157,6,0,B|424:168|344:104,1,130
280,72,34990,6,0,B|216:128|320:152|264:216,1,130
184,152,35824,6,0,B|152:192|48:208,1,130
104,304,36657,6,0,B|144:384|224:328,1,130
288,264,37490,6,0,B|368:264|408:328|376:344,1,130
256,192,38324,12,0,39573
256,192,39990,6,0,B|320:256|384:184,1,130,4|0
464,144,40823,2,0,B|544:208|472:264,1,130,0|2
408,320,41657,1,0
304,320,42073,1,8
256,320,42282,1,0
208,320,42490,2,2,B|88:296|96:240,1,130
64,160,43323,5,0
136,88,43740,1,8
216,160,44157,2,0,B|248:64|208:32,1,130,0|8
312,56,44990,2,2,B|472:48,1,130
440,152,45823,1,2
440,200,46032,1,8
440,248,46240,1,8
376,328,46657,6,0,B|304:256|344:192,1,130,4|8
240,160,47490,1,0
152,208,47907,1,8
128,312,48323,2,0,B|16:320|40:248,1,130,0|8
40,152,49157,1,2
40,48,49573,1,2
144,56,49990,6,0,B|144:144,2,65,0|0|8
240,96,50823,2,0,B|240:176,2,65,0|0|8
336,136,51657,5,2
440,136,52073,1,2
384,224,52490,1,0
360,320,52907,6,0,B|200:320,1,130,0|4
128,288,53740,5,0
208,224,54157,2,0,B|232:128|120:128,1,130,0|8
224,56,54990,2,0,B|240:144|320:128,1,130,0|8
416,128,55823,1,0
416,232,56240,1,8
360,232,56448,1,8
304,232,56657,1,4
232,296,57073,5,0
128,296,57490,1,0
64,216,57907,2,0,B|40:144|40:144|104:96,1,130,8|0
184,136,58740,2,2,B|312:120|344:48|312:16|264:0|232:32|240:64|264:88,1,260,2|4
147,69,59990,5,6
42,69,60407,1,8
42,173,60823,1,0
116,247,61240,6,2,B|164:311,1,65
207,299,61657,5,2
311,299,62073,1,8
401,247,62490,1,0
401,143,62907,6,2,B|441:71,1,65,2|2
277,86,63740,5,0
173,86,64157,1,0
69,86,64573,1,0
69,190,64990,1,0
173,190,65407,5,2
173,294,65823,1,8
277,294,66240,1,2
330,205,66657,2,2,B|378:293|442:301|490:269|506:245|514:205|498:181|474:149|442:125|362:141,1,390
285,79,68323,5,0
181,79,68740,1,0
233,169,69157,1,0
129,169,69573,1,0
88,264,69990,6,2,B|240:272,1,130,6|0
272,272,70615,1,2
376,264,71032,2,0,B|368:360,7,65
384,176,73115,5,0
432,160,73323,2,0,B|496:112|480:40,1,130,0|2
376,48,74157,2,0,B|288:0|248:88,1,130,0|2
160,32,74990,1,2
104,120,75407,1,8
104,168,75615,1,0
104,224,75824,2,0,B|104:328|184:280,1,130,0|8
272,232,76657,6,2,B|296:336|368:312,1,130,6|0
408,304,77282,2,2,B|472:216|432:104,1,195,2|0
352,56,78323,1,0
248,56,78740,1,2
144,56,79157,2,2,B|72:56,2,65
176,160,79990,6,0,B|176:240|176:240|232:240,1,130,0|2
328,248,80824,2,0,B|328:320|328:320|264:320,1,130,0|2
256,192,81657,12,4,83324
