osu file format v6

[General]
AudioFilename: 06. Ryu feat. - (_).mp3
AudioLeadIn: 0
PreviewTime: 76336
Countdown: 1
SampleSet: Normal
StackLeniency: 0.7
Mode: 0
LetterboxInBreaks: 1

[Editor]
DistanceSpacing: 1.29999995231628
BeatDivisor: 4
GridSize: 8

[Metadata]
Title:Ponyo on the Cliff by the Sea
Artist:Ryu* feat. Maki
Creator:Yes
Version:Insane
Source:
Tags:Hayao Miyazaki

[Difficulty]
HPDrainRate:8
CircleSize:4
OverallDifficulty:7
SliderMultiplier:1.8
SliderTickRate:1

[Events]
//Background and Video events
0,0,"00000000.jpg"
//Break Periods
2,6857,19090
2,95815,102424
//Storyboard Layer 0 (Background)
//Storyboard Layer 1 (Fail)
//Storyboard Layer 2 (Pass)
//Storyboard Layer 3 (Foreground)
//Storyboard Sound Samples
//Background Colour Transformations
3,100,163,162,255

[TimingPoints]
3324,416.666666666667,4,1,0,69,1,0
6658,-100,4,1,0,69,0,1
6938,-100,4,1,0,69,0,0
33136,-100,4,1,0,31,0,0
33969,-100,4,1,0,50,0,0
34802,-100,4,1,0,30,0,0
35635,-100,4,1,0,51,0,0
36468,-100,4,1,0,31,0,0
37301,-100,4,1,0,50,0,0
38134,-100,4,1,0,31,0,0
39385,-100,4,1,0,13,0,0
39802,-100,4,1,0,69,0,0
61155,-100,4,2,0,48,0,0
61571,-100,4,1,0,69,0,0
62821,-100,4,2,0,50,0,0
63237,-100,4,1,0,69,0,0
72403,-50,4,1,0,69,0,0
73027,-100,4,1,0,69,0,0
81151,-100,4,1,0,5,0,0
82380,-100,4,1,0,68,0,0
93631,-100,4,2,0,52,0,0
93839,-100,4,1,0,69,0,0
94464,-100,4,2,0,66,0,0
94672,-100,4,1,0,69,0,0
103029,-100,4,1,0,52,0,0
106442,-100,4,1,0,61,0,0
107275,-100,4,1,0,47,0,0
108108,-100,4,1,0,27,0,0
108941,-100,4,1,0,14,0,0
109776,-100,4,1,0,5,0,0
111129,-100,4,1,0,26,0,0
111443,-100,4,1,0,69,0,0
124053,-100,4,2,0,69,0,0
124990,-100,4,1,0,69,0,0
132796,-100,4,2,0,40,0,0
133212,-100,4,1,0,69,0,0
134461,-100,4,2,0,42,0,0
134877,-100,4,1,0,69,0,0
141647,-100,4,1,0,69,0,1
154875,-100,4,1,0,69,0,0
154980,-100,4,1,0,69,0,1
155328,-100,4,1,0,69,0,0

[Colours]
Combo1 : 255,164,164
Combo2 : 116,224,224
Combo3 : 223,159,225
Combo4 : 255,255,255
Combo5 : 91,174,219

[HitObjects]
256,72,3324,1,0
256,304,3740,1,0
256,304,3948,1,0
184,32,4365,1,0
304,32,4573,1,0
208,96,4782,1,0
328,96,4990,1,0
232,160,5199,1,0
352,160,5407,1,0
248,216,5615,1,0
368,216,5824,1,0
256,320,6032,5,0
112,192,6240,1,0
256,64,6449,1,0
400,192,6657,1,4
48,224,19990,6,2,B|136:288|192:168,1,180,6|0
280,96,20615,2,2,B|336:80|408:88|416:200,1,180,2|0
408,296,21240,1,2
288,296,21449,1,2
288,176,21657,1,0
440,176,21865,1,0
440,360,22074,1,2
224,360,22282,1,2
224,184,22490,2,2,B|136:88|256:16,1,180,2|8
352,40,23115,5,0
408,144,23324,1,0
352,248,23532,1,0
232,248,23740,1,2
176,144,23949,1,2
240,40,24157,1,0
296,144,24365,2,0,B|376:184|360:320,1,180
256,344,24990,5,8
144,304,25199,1,0
104,192,25407,1,2
104,72,25615,1,2
208,24,25824,1,0
320,56,26032,5,8
376,80,26136,1,0
432,56,26240,1,8
504,152,26449,1,4
464,264,26657,5,4
232,264,27074,1,0
344,232,27282,1,0
144,344,27699,1,2
88,336,27803,1,0
40,304,27907,1,2
40,184,28115,2,0,B|32:128|88:80,1,90,2|0
144,8,28532,1,0
200,8,28636,1,0
256,8,28740,1,2
368,40,28949,1,2
472,96,29157,5,0
472,152,29261,1,0
472,208,29365,1,0
472,264,29469,1,0
472,320,29574,1,4
360,288,29782,5,0
248,320,29990,2,0,B|192:352|152:288,1,90,0|2
144,192,30407,1,8
120,80,30615,1,0
24,152,30824,2,0,B|-8:192|16:256,1,90,2|2
232,304,31449,5,2
264,192,31657,1,2
336,288,31865,2,4,B|416:232|536:312,1,180
96,80,33324,6,0,B|176:48|208:144|304:112,1,180
168,344,34157,6,0,B|80:248|104:160,1,180
432,40,34990,6,0,B|432:160|384:216|432:216,1,180
64,64,35824,6,0,B|96:104|240:120,1,180
376,320,36657,6,0,B|336:240|208:312|216:336,1,180
96,48,37490,6,0,B|16:88|48:208,1,180
256,192,38324,12,0,39573
112,64,39990,6,0,B|208:128|280:24,1,180,4|0
368,96,40615,1,0
480,72,40823,2,0,B|536:168|448:240,1,180,0|2
232,312,41657,6,2,B|144:320|144:200,1,135
104,192,42073,1,8
96,72,42282,1,0
208,56,42490,2,0,B|328:80|312:208,1,180
120,312,43323,6,0,B|280:312,1,135
312,312,43740,1,8
400,240,43948,1,8
512,256,44157,2,0,B|520:328|480:360,2,90,0|0|2
488,144,44782,1,0
400,64,44990,2,2,B|240:56,1,135
88,40,45615,5,2
72,152,45823,1,2
56,208,45928,1,2
72,264,46032,1,2
80,320,46136,1,0
128,352,46240,1,2
352,256,46657,6,0,B|280:184|352:88,1,180,0|8
464,56,47282,1,0
464,176,47490,2,0,B|456:272,1,90,0|2
424,312,47803,1,0
368,336,47907,1,2
152,240,48323,6,0,B|40:248|48:112,1,180,0|8
128,40,48948,1,0
248,32,49157,1,2
304,48,49261,1,0
360,40,49365,1,2
456,112,49573,1,2
224,136,49990,6,0,B|88:136,1,90,0|0
32,200,50407,2,0,B|72:296,1,90,8|0
176,312,50823,2,0,B|296:304,1,90
384,296,51240,1,0
328,72,51657,5,2
152,72,51969,1,2
240,216,52282,1,2
240,216,52490,1,0
64,328,52698,6,0,B|192:328,1,90
272,328,53115,2,0,B|384:344,1,90,0|4
440,256,53532,5,0
448,136,53740,1,0
352,72,53948,1,0
232,56,54157,2,0,B|216:152|96:160,1,180,0|8
0,96,54782,1,0
24,208,54990,2,0,B|88:288|232:248,1,180,0|8
256,160,55615,1,0
360,112,55823,2,0,B|392:16|520:64,1,180,0|8
496,176,56448,1,8
496,232,56553,1,0
496,288,56657,1,4
384,320,56865,5,0
328,304,56969,1,0
272,312,57073,1,0
152,296,57282,1,0
64,216,57490,2,0,B|64:104,1,90
144,40,57907,1,2
192,144,58115,1,2
304,160,58323,6,0,B|392:200|456:80,1,180
456,208,58948,1,2
456,264,59053,1,0
456,320,59157,1,2
344,360,59365,1,2
232,320,59573,1,4
256,80,59990,5,4
120,192,60303,2,0,B|192:192,1,45,0|8
208,304,60615,1,0
328,304,60823,1,0
368,192,61032,1,0
392,80,61240,5,2
104,288,61448,1,2
368,192,61657,5,4
256,56,61969,2,0,B|256:128,1,45,0|8
144,144,62282,1,0
144,264,62490,1,0
256,304,62698,1,0
424,192,62907,5,2
88,192,63115,1,2
256,16,63740,5,0
256,352,64157,1,0
352,56,64573,1,0
152,312,64990,1,0
392,152,65407,1,2
112,232,65719,5,0
56,208,65823,1,2
56,88,66032,1,2
160,32,66240,1,8
264,88,66448,1,0
280,200,66657,6,0,B|272:256|352:288,1,90
424,336,67073,1,8
480,232,67282,1,8
456,176,67386,1,0
416,136,67490,2,0,B|464:104|416:32,1,90
312,48,67907,2,2,B|264:80|312:152,1,90
96,32,68323,6,0,B|208:32,1,90
408,136,68740,2,0,B|296:136,1,90
96,240,69157,2,0,B|208:240,1,90,0|0
408,344,69573,2,0,B|304:344,1,90
256,184,69990,5,6
32,184,70407,1,0
144,184,70615,1,2
352,72,71032,1,0
432,160,71240,1,2
352,240,71448,1,2
272,160,71657,1,0
352,8,71865,1,0
496,160,72073,1,2
352,304,72282,1,2
208,160,72490,2,0,B|104:288|32:232|32:168|64:136|136:144|160:208|160:208|200:248,1,360
192,360,73115,5,0
312,344,73323,1,0
432,328,73532,1,0
432,272,73636,1,0
432,216,73740,1,2
312,208,73948,1,2
208,144,74157,1,0
96,176,74365,2,0,B|24:64|152:24,1,180,0|2
248,32,74990,5,2
368,40,75198,1,0
416,80,75303,1,0
464,112,75407,1,8
400,208,75615,1,2
320,296,75823,5,2
272,328,75928,1,0
224,296,76032,1,8
176,328,76136,1,0
128,296,76240,1,8
72,192,76448,1,4
112,80,76657,6,2,B|136:184|256:176,1,180,6|0
344,112,77282,2,2,B|480:128|424:280,1,180,2|0
424,288,77803,1,0
384,328,77907,1,2
264,336,78115,1,2
152,320,78323,1,0
80,232,78532,1,0
64,176,78636,1,0
80,120,78740,1,2
168,40,78949,5,2
280,80,79157,1,0
336,80,79261,1,0
392,80,79365,1,0
448,80,79469,1,0
504,80,79574,1,4
432,176,79782,5,0
392,288,79990,2,0,B|272:328,1,90,0|2
192,296,80407,1,8
72,304,80615,1,0
48,248,80719,1,0
40,192,80824,2,0,B|112:104,1,90,0|2
256,192,81449,12,0,82282
24,296,82490,6,0,B|88:224,1,90
112,112,82907,1,0
104,56,83011,1,0
144,16,83115,1,0
200,16,83219,2,0,B|272:24,1,45,4|0
296,40,83428,2,0,B|360:80,1,45
472,176,83844,6,0,B|400:168,1,45
384,208,84053,1,0
336,240,84157,2,2,B|328:312,1,45
280,312,84365,2,2,B|184:320,1,90,2|8
128,320,84678,5,0
80,288,84782,1,0
48,240,84886,1,0
96,208,84990,2,2,B|80:136,1,45
48,120,85199,2,0,B|64:40,1,45
176,64,85511,5,0
232,64,85615,1,0
288,64,85719,1,0
344,40,85824,5,0
424,184,86032,5,0
344,320,86240,5,8
272,192,86449,5,0
216,208,86553,1,0
160,200,86657,1,2
64,128,86865,2,0,B|-8:144,1,45,0|2
48,256,87178,2,0,B|64:304,1,45,0|2
176,320,87490,1,0
232,328,87594,2,2,B|352:336,1,90,2|8
432,296,88011,5,0
456,184,88219,1,0
464,128,88324,1,2
392,32,88532,1,0
336,16,88636,1,0
288,40,88740,1,2
176,56,88949,1,8
24,192,89157,5,0
104,336,89365,5,0
304,336,89574,5,8
208,192,89782,5,0
328,192,89990,6,0,B|376:232,1,45,2|0
416,248,90199,2,0,B|472:272,1,45,0|2
504,160,90511,2,0,B|488:96,1,45
432,104,90719,2,0,B|384:64,1,45,0|2
352,40,90928,1,0
304,8,91032,2,0,B|272:112,1,90,2|4
136,40,91657,5,2
136,160,91865,1,2
136,216,91969,1,0
192,216,92074,2,0,B|304:216,1,90,2|8
280,336,92490,6,0,B|392:336,1,90,2|2
448,248,92907,5,8
416,136,93115,1,8
376,96,93219,1,8
328,64,93324,2,0,B|224:80,1,90
256,352,93740,5,4
88,184,94157,5,0
416,184,94365,1,0
256,88,94574,5,4
112,320,94990,5,0
416,64,95199,1,0
256,192,95615,5,4
56,128,103324,6,0,B|128:56|240:96,1,180
456,112,104157,2,0,B|504:224|416:296,1,180
200,264,104990,2,0,B|112:328|40:232,1,180
248,120,105824,2,0,B|248:24|368:48,1,135
392,48,106240,1,0
472,184,106657,6,0,B|520:288|456:384,1,180
264,248,107490,2,0,B|208:320|88:352,1,180
184,120,108324,2,0,B|80:168|-8:112,1,180
160,304,109157,2,0,B|264:352|352:296,1,180
256,192,109990,12,4,111240
448,176,111657,6,0,B|352:240|280:136,1,180,4|0
256,40,112282,1,0
144,72,112490,2,0,B|224:168|112:240,1,180,0|2
336,336,113324,6,2,B|248:344|248:224,1,135
200,216,113740,1,8
88,176,113949,1,0
144,72,114157,2,0,B|232:96|360:24,1,180
72,360,114990,6,2,B|232:360,1,135
264,336,115407,1,8
368,272,115615,1,0
464,208,115824,2,0,B|520:176|472:112,1,90
392,56,116240,1,2
296,120,116449,1,0
192,72,116657,2,2,B|32:72,1,135
32,248,117282,5,2
120,320,117490,1,2
168,288,117594,1,2
216,320,117699,1,2
264,288,117803,1,0
312,320,117907,1,2
384,232,118115,1,0
288,160,118324,6,0,B|336:96|472:144,1,180,4|0
384,232,118949,1,0
464,312,119157,2,0,B|360:392|280:296,1,180,0|8
216,88,119990,6,0,B|176:8|64:56,1,135
56,80,120407,1,8
56,200,120615,1,0
176,200,120824,1,2
232,200,120928,1,0
288,200,121032,1,2
376,128,121240,1,2
232,312,121657,6,0,B|280:368|376:296,1,135
400,280,122074,2,0,B|456:176,1,90,8|0
480,88,122490,2,0,B|368:32,2,90
256,80,123324,5,2
112,320,123636,1,2
384,320,123949,1,2
248,104,124157,5,2
480,176,124365,1,2
256,288,124574,1,2
488,336,124782,1,2
448,104,125199,6,2,B|344:80,1,90,2|8
248,48,125615,1,0
128,48,125824,2,0,B|80:112|104:176,1,135
96,232,126240,1,8
144,336,126449,1,0
256,312,126657,1,2
256,256,126761,1,0
256,200,126865,1,0
256,80,127074,1,2
304,48,127178,1,0
360,32,127282,1,0
456,96,127490,6,2,B|496:152|432:216,1,90
440,296,127907,1,4
336,352,128115,1,8
280,352,128219,1,8
224,352,128324,1,4
112,320,128532,5,0
64,216,128740,1,8
112,112,128949,1,0
216,56,129157,2,0,B|320:64,1,90
256,168,129574,1,8
360,216,129782,1,0
424,120,129990,2,0,B|528:160|480:288,1,180,0|2
320,328,130719,5,2
264,328,130824,1,8
144,328,131032,1,2
72,232,131240,1,2
232,264,131657,5,4
376,208,131969,2,0,B|328:184,1,45,0|8
328,72,132282,1,0
208,64,132490,1,0
136,160,132699,1,0
256,48,132907,5,2
256,328,133115,1,2
176,240,133324,5,0
352,248,133636,2,0,B|296:248,1,45,0|8
368,152,133949,1,0
256,112,134157,1,0
152,160,134365,1,0
416,192,134574,5,2
96,192,134782,1,2
448,32,135407,5,0
448,336,135824,1,0
88,336,136240,1,0
88,32,136657,1,0
256,192,137074,5,2
432,176,137386,1,0
440,232,137490,1,8
400,344,137699,1,0
288,320,137907,1,8
168,336,138115,1,0
72,272,138324,1,2
56,216,138428,1,0
56,160,138532,1,2
72,104,138636,1,0
112,56,138740,1,8
224,24,138949,5,0
344,32,139157,1,2
400,56,139261,1,2
440,96,139365,1,2
456,152,139469,1,0
464,208,139574,1,8
376,288,139782,1,8
112,328,139990,6,0,B|0:328,1,90
272,224,140407,2,0,B|368:224,1,90,0|0
112,136,140824,2,0,B|8:136,1,90
272,48,141240,2,0,B|400:48,1,90
368,184,141657,5,4
248,192,141865,1,0
192,208,141969,1,0
184,264,142074,2,0,B|216:320|272:328,1,90,8|0
368,328,142490,1,0
440,240,142699,1,0
440,120,142907,1,2
376,24,143115,1,2
256,32,143324,2,0,B|176:112,1,90
136,88,143636,1,0
80,112,143740,2,10,B|80:216,1,90,2|2
80,320,144157,5,8
136,328,144261,1,0
192,320,144365,1,8
240,288,144469,1,0
272,240,144574,1,8
304,128,144782,5,0
392,48,144990,2,0,B|464:128,1,90,0|2
456,232,145407,1,8
392,328,145615,1,0
296,264,145824,2,0,B|168:232,1,90,0|2
128,160,146240,1,2
96,48,146449,1,0
216,32,146657,1,0
320,80,146865,1,2
352,128,146969,1,0
360,184,147074,1,8
304,288,147282,1,2
200,344,147490,5,2
144,328,147594,1,0
96,296,147699,1,2
54,254,147803,1,0
36,199,147907,1,6
40,80,148115,1,0
144,32,148324,6,0,B|280:24|256:144,1,180,4|8
344,48,148949,2,0,B|312:168|416:208,1,180,0|8
440,248,149469,1,0
432,304,149574,2,0,B|320:352,1,90,2|2
232,312,149990,2,2,B|128:296,1,90,2|2
80,200,150407,2,2,B|48:96,1,90
160,56,150824,1,4
216,40,150928,1,0
272,56,151032,1,4
392,56,151240,1,4
408,168,151449,5,0
296,184,151657,1,0
280,304,151865,2,0,B|160:280,1,90,2|2
120,192,152282,1,0
16,248,152490,2,0,B|-16:288|8:360,1,90,2|2
232,112,153115,5,0
352,112,153324,1,8
472,112,153532,1,2
296,272,153949,2,2,B|344:328|448:304|520:176,1,270,6|0
296,272,154990,5,4
