osu file format v6

[General]
AudioFilename: 06. Ryu feat. - (_).mp3
AudioLeadIn: 0
PreviewTime: 76336
Countdown: 1
SampleSet: Normal
StackLeniency: 0.7
Mode: 0
LetterboxInBreaks: 1

[Editor]
DistanceSpacing: 1
BeatDivisor: 4
GridSize: 8

[Metadata]
Title:Ponyo on the Cliff by the Sea
Artist:Ryu* feat. Maki
Creator:Yes
Version:Hard
Source:
Tags:Hayao Miyazaki

[Difficulty]
HPDrainRate:5
CircleSize:4
OverallDifficulty:5
SliderMultiplier:1.6
SliderTickRate:1

[Events]
//Background and Video events
0,0,"00000000.jpg"
//Break Periods
2,6857,18790
2,83524,90457
2,95815,102124
//Storyboard Layer 0 (Background)
//Storyboard Layer 1 (Fail)
//Storyboard Layer 2 (Pass)
//Storyboard Layer 3 (Foreground)
//Storyboard Sound Samples
//Background Colour Transformations
3,100,163,162,255

[TimingPoints]
3324,416.666666666667,4,1,0,69,1,0
6653,-100,4,1,0,69,0,1
6933,-100,4,1,0,69,0,0
33131,-100,4,1,0,31,0,0
33964,-100,4,1,0,50,0,0
34797,-100,4,1,0,30,0,0
35630,-100,4,1,0,51,0,0
36463,-100,4,1,0,31,0,0
37296,-100,4,1,0,50,0,0
38129,-100,4,1,0,31,0,0
39380,-100,4,1,0,13,0,0
39797,-100,4,1,0,69,0,0
61150,-100,4,2,0,32,0,0
61566,-100,4,1,0,69,0,0
62816,-100,4,2,0,31,0,0
63232,-100,4,1,0,69,0,0
93626,-100,4,2,0,52,0,0
93834,-100,4,1,0,69,0,0
94459,-100,4,2,0,66,0,0
94667,-100,4,1,0,69,0,0
103024,-100,4,1,0,52,0,0
106437,-100,4,1,0,61,0,0
107270,-100,4,1,0,47,0,0
108103,-100,4,1,0,27,0,0
108936,-100,4,1,0,14,0,0
109771,-100,4,1,0,3,0,0
111124,-100,4,1,0,24,0,0
111438,-100,4,1,0,69,0,0
124039,-100,4,2,0,69,0,0
124976,-100,4,1,0,69,0,0
132791,-100,4,2,0,40,0,0
133207,-100,4,1,0,69,0,0
134456,-100,4,2,0,42,0,0
134872,-100,4,1,0,69,0,0
141644,-100,4,1,0,69,0,1
154907,-100,4,1,0,69,0,0
154976,-100,4,1,0,69,0,1
155323,-100,4,1,0,69,0,0

[Colours]
Combo1 : 255,164,164
Combo2 : 116,224,224
Combo3 : 223,159,225
Combo4 : 255,255,255
Combo5 : 91,174,219

[HitObjects]
256,72,3323,1,0
216,224,3740,1,0
296,224,3948,1,0
176,328,4365,6,0,B|280:328,1,80
336,328,4782,2,0,B|448:304,1,80
424,232,5199,2,0,B|488:136,1,80
416,104,5615,2,0,B|344:16,1,80
296,80,6032,5,0
256,152,6240,1,0
256,232,6449,1,0
208,296,6657,1,4
72,128,19990,6,2,B|160:192|232:112,1,160,6|0
280,72,20615,2,2,B|392:48|408:152,1,160,2|0
408,216,21240,1,2
368,280,21449,1,2
296,320,21657,5,0
216,336,21865,1,0
136,328,22074,1,2
80,272,22282,1,2
72,192,22490,2,2,B|-16:96|80:32,1,160,2|8
136,56,23115,5,0
216,56,23324,2,0,B|256:144,1,80
280,200,23740,1,2
360,200,23949,1,2
360,120,24157,1,0
424,64,24365,2,2,B|528:104|496:216,1,160,2|2
472,264,24990,5,8
392,264,25199,1,0
368,296,25303,1,0
344,328,25407,1,2
264,328,25615,1,2
192,296,25824,2,2,B|112:360|72:328|128:224,1,160,2|4
112,96,26657,5,4
272,96,27074,1,0
352,96,27282,1,0
256,224,27699,1,2
272,304,27907,1,2
200,336,28115,2,0,B|120:360,1,80,2|0
72,304,28532,5,0
48,224,28740,1,2
72,152,28949,1,2
128,96,29157,2,0,B|128:0,2,80
208,112,29782,5,0
272,64,29990,2,0,B|328:96|368:32,1,80,0|2
456,176,30615,1,0
376,184,30824,2,0,B|320:224|376:272,1,80,0|2
200,288,31449,5,2
120,288,31657,1,2
64,232,31865,2,6,B|32:152|104:64,1,160,2|4
120,288,33324,6,0,B|216:240|296:288,1,160
424,216,34157,6,0,B|472:136|384:72,1,160
256,160,34990,6,0,B|160:224|224:320,1,160
360,240,35824,6,0,B|408:328|536:296,1,160
488,144,36657,6,0,B|408:48|328:160,1,160
208,64,37490,6,0,B|96:80|144:208,1,160
256,192,38324,12,0,39573
152,280,39990,6,0,B|248:216|320:320,1,160,4|0
360,240,40615,1,0
416,184,40823,2,0,B|488:280|384:352,1,160,0|2
256,360,41657,6,2,B|152:352|168:216,1,160,2|8
104,200,42282,1,0
40,152,42490,2,0,B|64:32|168:48,1,160
288,104,43323,6,0,B|384:112,1,80
448,128,43740,1,8
472,200,43948,1,8
408,248,44157,2,0,B|376:352,2,80,0|0|2
288,144,44990,6,2,B|256:72|160:104,1,120
72,56,45615,1,2
72,136,45823,2,2,B|48:240|136:288,1,160
232,160,46657,6,0,B|304:232|400:160,1,160,0|8
440,128,47282,1,0
480,200,47490,2,0,B|520:320|432:360,1,160,0|8
152,240,48323,6,0,B|40:248|48:112,1,160,0|8
112,104,48948,2,0,B|208:64,1,80
264,80,49365,2,0,B|368:104,1,80,0|8
288,248,49990,5,0
128,248,50407,1,8
80,96,50823,2,2,B|144:56|232:176|232:72,1,160
368,32,51657,6,2,B|520:40,2,120
304,80,52490,1,4
248,232,52907,6,0,B|272:336|400:320,1,160,0|4
448,184,53740,5,0
384,144,53948,1,0
320,104,54157,2,0,B|304:200|192:160,1,160,0|8
56,240,54990,2,0,B|112:328|216:256,1,160,0|8
264,304,55615,1,0
320,248,55823,2,0,B|352:152|480:200,1,160,0|8
248,48,56865,6,0,B|136:48,1,80,0|8
88,72,57282,1,0
40,136,57490,2,0,B|40:248,1,80
88,280,57907,1,2
168,280,58115,1,2
248,280,58323,2,0,B|352:328|400:216,1,160,0|2
416,88,59157,5,2
360,144,59365,1,2
304,200,59573,1,6
176,104,59990,5,4
80,176,60303,2,0,B|128:216,1,40,0|8
136,280,60615,1,0
200,328,60823,1,0
264,280,61032,1,0
320,224,61240,6,2,B|416:224,1,80
448,160,61657,5,0
448,40,61969,2,0,B|376:24,1,40,0|8
344,72,62282,1,0
272,112,62490,1,0
192,96,62698,1,0
112,120,62907,6,2,B|112:208,1,80,2|2
336,312,63740,5,0
176,312,64157,1,0
176,152,64573,1,0
336,152,64990,1,0
336,312,65407,6,2,B|160:312,1,160
176,152,66240,1,8
336,152,66657,2,2,B|432:264|496:288|536:256|536:192|536:168|512:144|488:144|448:152|440:160|392:192|376:200|328:264,1,480,2|0
392,360,68323,6,0,B|296:360,1,80,0|0
240,328,68740,2,0,B|128:328,1,80
104,272,69157,2,0,B|104:160,1,80,0|0
184,192,69573,2,0,B|288:192,1,80
344,192,69990,5,6
464,80,70407,1,0
408,136,70615,1,2
272,48,71032,5,0
192,48,71240,1,2
112,48,71448,1,2
64,112,71657,2,0,B|64:224,3,80
64,272,72490,1,4
256,120,73115,5,0
232,192,73323,1,0
272,264,73532,2,0,B|288:320|360:272,1,80,2|2
392,232,73948,1,0
464,200,74157,1,0
472,120,74365,2,2,B|448:16|328:32,1,160,2|2
280,32,74990,5,2
200,56,75198,1,0
168,128,75407,1,8
144,200,75615,1,2
120,280,75823,2,2,B|0:264,2,80
264,208,76657,6,2,B|272:320|408:304,1,160,6|0
424,248,77282,2,2,B|512:208|464:80,1,160,2|0
440,88,77803,1,0
408,72,77907,1,2
328,72,78115,1,2
248,88,78323,2,8,B|160:96,1,80,2|0
96,128,78740,2,0,B|64:216,1,80,2|0
40,280,79157,2,2,B|88:368|200:336,1,160,2|8
240,288,79782,5,0
320,288,79990,2,0,B|288:192,2,80,0|0|2
392,328,80615,1,0
424,256,80824,2,0,B|512:216,1,80,0|2
408,88,81449,5,0
336,48,81657,1,0
264,88,81865,2,0,B|208:192|128:88,1,160
256,192,82490,12,4,83324
136,40,91657,5,2
136,120,91865,1,2
136,160,91969,1,0
136,200,92074,2,0,B|248:200,1,80,2|8
256,272,92490,6,0,B|368:272,1,80,2|2
408,304,92907,5,8
408,224,93115,1,8
408,184,93219,1,0
408,144,93324,2,0,B|304:144,1,80
256,104,93740,5,4
216,256,94157,5,0
296,256,94365,1,0
256,328,94574,5,4
96,328,94990,5,0
96,248,95199,1,0
96,88,95615,5,4
32,104,103324,6,0,B|72:16|168:72,1,160
328,80,104157,2,0,B|384:160|296:216,1,160
136,232,104990,2,0,B|152:336|272:312,1,160
296,160,105824,2,0,B|304:48|424:72,1,160
472,216,106657,6,0,B|520:320|416:344,1,160
312,224,107490,2,0,B|208:280|168:152,1,160
272,56,108324,2,0,B|168:8|80:64,1,160
48,192,109157,2,0,B|48:304|160:336,1,160
256,192,109990,12,0,111240
256,184,111657,6,0,B|152:216|128:104,1,160,4|0
208,112,112282,1,0
160,48,112490,2,0,B|264:16|296:120,1,160,0|2
344,256,113324,6,2,B|352:136|480:168,1,160,2|8
432,240,113949,1,0
512,224,114157,2,0,B|512:320|408:320,1,160,0|8
248,304,114990,6,2,B|104:304,1,120
88,304,115407,1,8
88,224,115615,1,0
88,144,115824,2,2,B|88:40,2,80,2|2|2
232,104,116657,6,0,B|272:32|368:88,2,120,2|2|2
232,184,117490,1,2
232,344,117907,1,8
328,216,118324,6,0,B|352:112|472:176,1,160,4|8
440,248,118949,1,0
376,304,119157,2,0,B|272:344|208:256,1,160,0|8
240,120,119990,6,0,B|200:40|112:80,1,120,0|0
104,88,120407,1,8
80,168,120615,1,0
104,248,120824,2,0,B|264:328,1,160,0|8
304,160,121657,6,0,B|328:224|392:216,1,80
432,240,122074,2,0,B|488:136,1,80,8|0
488,88,122490,2,0,B|328:0,1,160,0|8
224,112,123324,6,2,B|64:112,2,120
232,192,124157,6,2,B|336:192,1,80
312,272,124574,2,2,B|224:272,1,80
360,176,125199,6,2,B|352:80,1,80,2|8
280,56,125615,1,0
200,40,125824,2,0,B|112:104|192:176,1,160,0|2
176,248,126449,1,2
192,328,126657,2,2,B|296:304,1,80,2|0
344,272,127074,2,2,B|376:184,1,80,2|0
448,200,127490,2,2,B|496:88|368:56,1,160,2|8
240,72,128324,1,4
160,72,128532,5,0
120,144,128740,1,8
160,216,128949,1,0
240,240,129157,2,0,B|208:344|328:368,1,160,0|2
312,288,129782,1,2
376,344,129990,2,2,B|424:240|304:200,1,160,2|4
248,72,130824,5,8
168,72,131032,1,2
208,144,131240,1,2
224,304,131657,5,4
344,304,131969,2,0,B|344:256,1,40,0|8
344,184,132282,1,0
416,144,132490,1,0
344,104,132699,1,0
272,144,132907,6,2,B|168:144,1,80
120,184,133324,5,0
120,304,133636,2,0,B|64:304,1,40,0|8
24,248,133949,1,0
24,168,134157,1,0
24,88,134365,1,0
104,72,134574,6,2,B|216:48,1,80
312,256,135407,5,0
416,136,135824,1,0
312,16,136240,1,0
208,136,136657,1,0
312,256,137074,6,2,B|424:128,1,160
312,16,137907,1,8
208,136,138324,2,2,B|96:256,1,160
96,336,138949,1,0
176,328,139157,2,2,B|288:360|344:272,1,160
464,216,139990,6,0,B|352:216,1,80
344,144,140407,2,0,B|248:144,1,80,0|0
224,80,140824,2,0,B|120:80,1,80
104,16,141240,2,0,B|8:16,1,80
24,96,141657,5,4
32,176,141865,1,0
48,208,141969,1,0
80,240,142074,2,0,B|112:296|168:304,1,80,8|0
216,312,142490,1,0
296,312,142699,1,0
368,280,142907,5,2
392,200,143115,1,2
368,168,143219,1,0
344,136,143324,2,0,B|320:88|280:64,1,80,0|0
216,48,143740,2,2,B|152:24|120:64,1,80,2|2
144,128,144157,1,8
96,192,144365,1,8
144,256,144574,1,8
96,320,144782,5,0
168,344,144990,2,0,B|264:312,1,80,0|2
400,312,145615,1,0
432,240,145824,2,0,B|456:136,1,80,0|2
392,104,146240,1,2
328,56,146449,5,0
248,56,146657,1,0
184,96,146865,2,0,B|96:40,2,80,2|8|2
136,160,147490,2,2,B|160:272|272:256,1,160
352,144,148324,6,0,B|424:152|464:272,1,160,4|0
384,288,148949,2,0,B|280:312|208:240,1,160,0|8
168,208,149574,5,8
160,128,149782,1,0
128,56,149990,2,2,B|24:40,1,80,2|2
32,120,150407,2,2,B|40:224,1,80
64,272,150824,2,0,B|136:360|224:336,1,160,4|0
280,328,151449,5,0
304,256,151657,1,0
272,184,151865,2,0,B|184:152,1,80,2|2
216,80,152282,1,0
288,40,152490,2,0,B|344:16|392:32,1,80
416,176,153115,5,2
416,256,153324,1,8
416,336,153532,1,2
256,320,153949,2,2,B|296:216|160:224|120:288|200:336,1,240
256,184,154990,5,4
