osu file format v14

[General]
AudioFilename: Go Beyond!!.mp3
AudioLeadIn: 0
PreviewTime: -1
Countdown: 0
SampleSet: Normal
StackLeniency: 0.2
Mode: 0
LetterboxInBreaks: 1
WidescreenStoryboard: 0

[Editor]
Bookmarks: 19224,30024,49224,63624,72024,73149,81699,82899,102024
DistanceSpacing: 1
BeatDivisor: 4
GridSize: 4
TimelineZoom: 1

[Metadata]
Title:Go Beyond!!
TitleUnicode:Go Beyond!!
Artist:Ryu Vs. Sota
ArtistUnicode:Ryu☆ Vs. Sota
Creator:encryptik
Version:Easy
Source:
Tags:
BeatmapID:720131
BeatmapSetID:324075

[Difficulty]
HPDrainRate:5
CircleSize:4.4
OverallDifficulty:9
ApproachRate:9
SliderMultiplier:1.4
SliderTickRate:1

[Events]
//Background and Video events
//Break Periods
//Storyboard Layer 0 (Background)
//Storyboard Layer 1 (Fail)
//Storyboard Layer 2 (Pass)
//Storyboard Layer 3 (Foreground)
//Storyboard Sound Samples

[TimingPoints]
24,300,4,1,0,100,1,0

[HitObjects]
405,137,62724,5,0,0:0:0:0:
305,90,63024,1,0,0:0:0:0:
201,47,63324,1,0,0:0:0:0:
102,35,63549,5,0,0:0:0:0:
100,64,63624,1,0,0:0:0:0:
97,98,63699,1,0,0:0:0:0:
94,133,63774,1,0,0:0:0:0:
91,168,63849,1,0,0:0:0:0:
89,203,63924,1,0,0:0:0:0:
86,238,63999,1,0,0:0:0:0:
83,273,64074,1,0,0:0:0:0:
81,308,64149,1,0,0:0:0:0:
63,288,64224,5,0,0:0:0:0:
46,273,64299,1,0,0:0:0:0:
79,262,64374,1,0,0:0:0:0:
112,252,64449,1,0,0:0:0:0:
146,241,64524,1,0,0:0:0:0:
171,222,64599,1,0,0:0:0:0:
194,196,64674,1,0,0:0:0:0:
225,182,64749,1,0,0:0:0:0:
260,180,64824,1,0,0:0:0:0:
294,189,64899,1,0,0:0:0:0:
323,209,64974,1,0,0:0:0:0:
342,238,65049,1,0,0:0:0:0:
344,272,65124,1,0,0:0:0:0:
327,302,65199,1,0,0:0:0:0:
298,322,65274,1,0,0:0:0:0:
265,333,65349,1,0,0:0:0:0:
231,329,65424,1,0,0:0:0:0:
201,311,65499,1,0,0:0:0:0:
178,284,65574,1,0,0:0:0:0:
162,253,65649,1,0,0:0:0:0:
149,221,65724,1,0,0:0:0:0:
147,186,65799,5,0,0:0:0:0:
162,155,65874,1,0,0:0:0:0:
188,132,65949,1,0,0:0:0:0:
219,118,66024,1,0,0:0:0:0:
254,113,66099,1,0,0:0:0:0:
289,117,66174,1,0,0:0:0:0:
322,129,66249,1,0,0:0:0:0:
352,146,66324,1,0,0:0:0:0:
379,168,66399,1,0,0:0:0:0:
402,195,66474,1,0,0:0:0:0:
417,226,66549,1,0,0:0:0:0:
418,261,66624,1,0,0:0:0:0:
404,292,66699,1,0,0:0:0:0:
378,316,66774,1,0,0:0:0:0:
347,331,66849,1,0,0:0:0:0:
312,337,66924,5,0,0:0:0:0:
277,338,66999,1,0,0:0:0:0:
243,334,67074,1,0,0:0:0:0:
209,324,67149,1,0,0:0:0:0:
177,309,67224,1,0,0:0:0:0:
149,289,67299,1,0,0:0:0:0:
124,264,67374,1,0,0:0:0:0:
104,236,67449,1,0,0:0:0:0:
86,205,67524,1,0,0:0:0:0:
72,173,67599,1,0,0:0:0:0:
62,140,67674,1,0,0:0:0:0:
58,105,67749,1,0,0:0:0:0:
61,70,67824,1,0,0:0:0:0:
73,37,67899,5,0,0:0:0:0:
105,32,67974,1,0,0:0:0:0:
140,32,68049,1,0,0:0:0:0:
175,31,68124,1,0,0:0:0:0:
208,35,68199,1,0,0:0:0:0:
233,60,68274,1,0,0:0:0:0:
257,85,68349,1,4,0:0:0:0:
280,111,68424,1,0,0:0:0:0:
303,138,68499,1,0,0:0:0:0:
326,164,68574,1,0,0:0:0:0:
349,190,68649,1,0,0:0:0:0:
372,217,68724,5,0,0:0:0:0:
372,252,68799,1,0,0:0:0:0:
356,282,68874,1,0,0:0:0:0:
329,305,68949,1,0,0:0:0:0:
297,319,69024,1,0,0:0:0:0:
263,327,69099,1,0,0:0:0:0:
228,326,69174,1,0,0:0:0:0:
197,311,69249,1,0,0:0:0:0:
194,278,69324,1,0,0:0:0:0:
218,252,69399,1,0,0:0:0:0:
250,241,69474,1,0,0:0:0:0:
278,257,69549,5,0,0:0:0:0:
303,232,69624,1,0,0:0:0:0:
328,207,69699,1,0,0:0:0:0:
352,182,69774,1,0,0:0:0:0:
377,157,69849,1,0,0:0:0:0:
402,132,69924,1,0,0:0:0:0:
427,108,69999,1,0,0:0:0:0:
417,79,70074,5,0,0:0:0:0:
385,68,70149,1,0,0:0:0:0:
351,77,70224,1,0,0:0:0:0:
325,100,70299,1,0,0:0:0:0:
307,130,70374,1,0,0:0:0:0:
300,164,70449,1,0,0:0:0:0:
306,198,70524,1,0,0:0:0:0:
322,229,70599,1,0,0:0:0:0:
347,253,70674,1,0,0:0:0:0:
378,269,70749,1,0,0:0:0:0:
413,273,70824,1,0,0:0:0:0:
446,261,70899,1,0,0:0:0:0:
467,234,70974,1,0,0:0:0:0:
472,200,71049,1,0,0:0:0:0:
460,171,71124,5,0,0:0:0:0:
426,164,71199,1,0,0:0:0:0:
391,156,71274,1,0,0:0:0:0:
357,150,71349,1,0,0:0:0:0:
322,145,71424,1,0,0:0:0:0:
288,142,71499,1,0,0:0:0:0:
253,141,71574,1,0,0:0:0:0:
218,142,71649,1,0,0:0:0:0:
183,146,71724,1,0,0:0:0:0:
148,153,71799,1,0,0:0:0:0:
115,163,71874,1,0,0:0:0:0:
83,178,71949,1,0,0:0:0:0:
54,197,72024,1,0,0:0:0:0:
28,220,72099,5,0,0:0:0:0:
39,248,72174,1,0,0:0:0:0:
59,276,72249,1,0,0:0:0:0:
80,304,72324,1,0,0:0:0:0:
101,332,72399,1,0,0:0:0:0:
122,359,72474,1,0,0:0:0:0:
152,341,72549,5,0,0:0:0:0:
177,317,72624,1,0,0:0:0:0:
194,287,72699,1,0,0:0:0:0:
204,253,72774,1,0,0:0:0:0:
209,219,72849,1,0,0:0:0:0:
213,184,72924,1,0,0:0:0:0:
218,149,72999,1,0,0:0:0:0:
228,116,73074,1,0,0:0:0:0:
246,86,73149,1,0,0:0:0:0:
273,64,73224,1,4,0:0:0:0:
305,50,73299,1,0,0:0:0:0:
339,43,73374,1,0,0:0:0:0:
374,42,73449,1,0,0:0:0:0:
409,47,73524,1,0,0:0:0:0:
443,54,73599,5,0,0:0:0:0:
464,75,73674,1,0,0:0:0:0:
471,109,73749,1,0,0:0:0:0:
479,144,73824,1,0,0:0:0:0:
486,178,73899,1,0,0:0:0:0:
493,212,73974,1,0,0:0:0:0:
490,246,74049,1,0,0:0:0:0:
482,280,74124,1,0,0:0:0:0:
475,314,74199,1,0,0:0:0:0:
467,349,74274,5,0,0:0:0:0:
452,329,74349,1,0,0:0:0:0:
433,300,74424,1,0,0:0:0:0:
409,274,74499,1,0,0:0:0:0:
382,252,74574,1,0,0:0:0:0:
351,236,74649,1,0,0:0:0:0:
318,225,74724,1,0,0:0:0:0:
283,220,74799,1,0,0:0:0:0:
248,221,74874,1,0,0:0:0:0:
214,226,74949,1,0,0:0:0:0:
180,236,75024,1,0,0:0:0:0:
148,249,75099,1,0,0:0:0:0:
117,266,75174,1,0,0:0:0:0:
89,286,75249,1,0,0:0:0:0:
62,309,75324,1,0,0:0:0:0:
39,336,75399,5,0,0:0:0:0:
39,331,75474,5,0,0:0:0:0:
54,300,75549,1,0,0:0:0:0:
71,269,75624,1,0,0:0:0:0:
90,240,75699,1,0,0:0:0:0:
112,212,75774,1,0,0:0:0:0:
136,187,75849,1,0,0:0:0:0:
163,165,75924,1,0,0:0:0:0:
194,149,75999,1,0,0:0:0:0:
228,142,76074,1,0,0:0:0:0:
263,144,76149,1,0,0:0:0:0:
296,155,76224,1,0,0:0:0:0:
325,174,76299,1,0,0:0:0:0:
348,201,76374,1,0,0:0:0:0:
362,233,76449,1,0,0:0:0:0:
359,267,76524,1,0,0:0:0:0:
335,291,76599,5,0,0:0:0:0:
301,299,76674,1,0,0:0:0:0:
266,296,76749,1,0,0:0:0:0:
239,280,76824,1,0,0:0:0:0:
221,249,76899,1,0,0:0:0:0:
204,219,76974,1,0,0:0:0:0:
186,189,77049,1,0,0:0:0:0:
169,158,77124,1,0,0:0:0:0:
182,133,77199,5,0,0:0:0:0:
211,113,77274,1,0,0:0:0:0:
243,100,77349,1,0,0:0:0:0:
277,95,77424,1,0,0:0:0:0:
312,100,77499,1,0,0:0:0:0:
343,115,77574,1,0,0:0:0:0:
368,139,77649,1,0,0:0:0:0:
385,170,77724,1,0,0:0:0:0:
391,204,77799,1,0,0:0:0:0:
383,238,77874,1,0,0:0:0:0:
363,266,77949,1,4,0:0:0:0:
335,288,78024,1,0,0:0:0:0:
303,303,78099,1,0,0:0:0:0:
272,296,78174,1,0,0:0:0:0:
240,280,78249,1,0,0:0:0:0:
209,264,78324,1,0,0:0:0:0:
178,249,78399,1,0,0:0:0:0:
151,230,78474,1,0,0:0:0:0:
158,225,78549,5,0,0:0:0:0:
192,215,78624,1,0,0:0:0:0:
226,208,78699,1,0,0:0:0:0:
260,200,78774,1,0,0:0:0:0:
294,193,78849,1,0,0:0:0:0:
326,180,78924,1,0,0:0:0:0:
347,152,78999,1,0,0:0:0:0:
351,118,79074,1,0,0:0:0:0:
334,88,79149,1,0,0:0:0:0:
303,72,79224,1,0,0:0:0:0:
269,67,79299,1,4,0:0:0:0:
234,72,79374,1,0,0:0:0:0:
202,85,79449,1,0,0:0:0:0:
172,104,79524,1,0,0:0:0:0:
147,128,79599,1,0,0:0:0:0:
126,156,79674,1,0,0:0:0:0:
111,188,79749,1,0,0:0:0:0:
102,221,79824,5,0,0:0:0:0:
112,254,79899,1,0,0:0:0:0:
136,279,79974,1,0,0:0:0:0:
168,293,80049,1,0,0:0:0:0:
203,297,80124,1,0,0:0:0:0:
237,292,80199,1,0,0:0:0:0:
271,282,80274,1,0,0:0:0:0:
302,267,80349,1,0,0:0:0:0:
331,247,80424,1,0,0:0:0:0:
357,223,80499,1,0,0:0:0:0:
379,196,80574,1,0,0:0:0:0:
395,165,80649,1,0,0:0:0:0:
404,131,80724,1,0,0:0:0:0:
399,97,80799,1,0,0:0:0:0:
378,70,80874,1,0,0:0:0:0:
349,65,80949,1,0,0:0:0:0:
322,87,81024,1,0,0:0:0:0:
295,109,81099,5,0,0:0:0:0:
302,143,81174,1,0,0:0:0:0:
310,177,81249,1,0,0:0:0:0:
287,198,81324,1,0,0:0:0:0:
256,214,81399,1,0,0:0:0:0:
225,231,81474,5,0,0:0:0:0:
232,261,81549,1,0,0:0:0:0:
245,293,81624,1,0,0:0:0:0:
258,325,81699,1,0,0:0:0:0:
278,303,81774,1,0,0:0:0:0:
298,274,81849,1,0,0:0:0:0:
319,249,81924,5,0,0:0:0:0:
338,278,81999,1,0,0:0:0:0:
357,308,82074,1,0,0:0:0:0:
377,332,82149,1,0,0:0:0:0:
400,307,82224,1,0,0:0:0:0:
423,280,82299,1,0,0:0:0:0:
442,252,82374,1,0,0:0:0:0:
429,230,82449,5,0,0:0:0:0:
413,209,82524,1,0,0:0:0:0:
396,185,82599,1,0,0:0:0:0:
384,168,82674,1,0,0:0:0:0:
366,147,82749,1,4,0:0:0:0:
