osu file format v14

[General]
AudioFilename: Go Beyond!!.mp3
AudioLeadIn: 0
PreviewTime: 61220
Countdown: 0
SampleSet: Soft
StackLeniency: 0.7
Mode: 3
LetterboxInBreaks: 0
SpecialStyle: 0
WidescreenStoryboard: 0

[Editor]
DistanceSpacing: 1.1
BeatDivisor: 4
GridSize: 8
TimelineZoom: 1.400001

[Metadata]
Title:Go Beyond!!
TitleUnicode:Go Beyond!!
Artist:Ryu* Vs. Sota
ArtistUnicode:Ryu☆ Vs. Sota
Creator:DE-CADE
Version:7K Black Another
Source:beatmania IIDX 13 DistorteD CS
Tags:[Shana_Lesus] Fullerene- Ichigaki Ryu Fujimori Rainbow☆Rainbow Trance Core 16 EMPRESS REFLEC BEAT groovin'!! Upper
BeatmapID:505562
BeatmapSetID:187154

[Difficulty]
HPDrainRate:8
CircleSize:7
OverallDifficulty:8.5
ApproachRate:5
SliderMultiplier:1.4
SliderTickRate:1

[Events]
//Background and Video events
0,0,"YY copy.jpg",0,0
//Break Periods
//Storyboard Layer 0 (Background)
//Storyboard Layer 1 (Fail)
//Storyboard Layer 2 (Pass)
//Storyboard Layer 3 (Foreground)
//Storyboard Sound Samples

[TimingPoints]
20,300,4,2,1,40,1,0
63620,-100,4,2,1,40,0,1
82820,-100,4,2,1,40,0,0

[HitObjects]
36,192,20,128,0,320:0:0:0:0:
402,192,20,128,0,320:0:0:0:0:
182,192,320,128,0,620:0:0:0:0:
475,192,620,128,0,920:0:0:0:0:
109,192,620,128,0,920:0:0:0:0:
329,192,920,128,0,1220:0:0:0:0:
36,192,1220,1,2,0:0:0:0:
256,192,1220,1,0,0:0:0:0:
475,192,1220,1,0,0:0:0:0:
182,192,1220,1,4,0:0:0:0:
402,192,1295,1,0,0:0:0:0:
109,192,1370,1,0,0:0:0:0:
329,192,1445,1,0,0:0:0:0:
36,192,1520,1,2,0:0:0:0:
182,192,1520,1,0,0:0:0:0:
475,192,1520,1,0,0:0:0:0:
402,192,1595,1,0,0:0:0:0:
109,192,1670,1,0,0:0:0:0:
329,192,1745,1,0,0:0:0:0:
36,192,1820,1,2,0:0:0:0:
182,192,1820,1,0,0:0:0:0:
475,192,1820,1,0,0:0:0:0:
402,192,1895,1,0,0:0:0:0:
109,192,1970,1,0,0:0:0:0:
329,192,2045,1,0,0:0:0:0:
182,192,2120,1,0,0:0:0:0:
36,192,2120,1,2,0:0:0:0:
475,192,2120,1,0,0:0:0:0:
402,192,2195,1,0,0:0:0:0:
109,192,2270,1,0,0:0:0:0:
329,192,2345,1,0,0:0:0:0:
36,192,2420,1,2,0:0:0:0:
182,192,2420,1,0,0:0:0:0:
475,192,2420,1,0,0:0:0:0:
256,192,2420,1,0,0:0:0:0:
256,192,2645,1,0,0:0:0:0:
402,192,2645,1,0,0:0:0:0:
36,192,2720,1,2,0:0:0:0:
182,192,2720,1,0,0:0:0:0:
256,192,2870,1,0,0:0:0:0:
402,192,2870,1,0,0:0:0:0:
329,192,3020,1,0,0:0:0:0:
475,192,3020,1,0,0:0:0:0:
36,192,3020,1,2,0:0:0:0:
182,192,3020,1,0,0:0:0:0:
475,192,3320,1,2,0:0:0:0:
182,192,3320,1,0,0:0:0:0:
329,192,3320,1,0,0:0:0:0:
182,192,3470,1,0,0:0:0:0:
475,192,3470,1,2,0:0:0:0:
329,192,3470,1,0,0:0:0:0:
475,192,3620,1,2,0:0:0:0:
36,192,3620,1,0,0:0:0:0:
329,192,3620,1,0,0:0:0:0:
182,192,3695,1,0,0:0:0:0:
402,192,3770,1,0,0:0:0:0:
109,192,3845,1,0,0:0:0:0:
329,192,3920,1,0,0:0:0:0:
475,192,3920,1,2,0:0:0:0:
36,192,3920,1,0,0:0:0:0:
182,192,3995,1,0,0:0:0:0:
402,192,4070,1,0,0:0:0:0:
109,192,4145,1,0,0:0:0:0:
475,192,4220,1,2,0:0:0:0:
329,192,4220,1,0,0:0:0:0:
36,192,4220,1,0,0:0:0:0:
182,192,4295,1,0,0:0:0:0:
402,192,4370,1,0,0:0:0:0:
109,192,4445,1,0,0:0:0:0:
329,192,4520,1,0,0:0:0:0:
475,192,4520,1,2,0:0:0:0:
36,192,4520,1,0,0:0:0:0:
182,192,4595,1,0,0:0:0:0:
402,192,4670,1,0,0:0:0:0:
109,192,4745,1,0,0:0:0:0:
475,192,4820,1,2,0:0:0:0:
36,192,4820,1,4,0:0:0:0:
329,192,4820,1,0,0:0:0:0:
256,192,5045,1,0,0:0:0:0:
109,192,5045,1,0,0:0:0:0:
475,192,5120,1,2,0:0:0:0:
36,192,5120,1,4,0:0:0:0:
329,192,5120,1,0,0:0:0:0:
109,192,5270,1,0,0:0:0:0:
256,192,5270,1,0,0:0:0:0:
329,192,5420,1,0,0:0:0:0:
475,192,5420,1,2,0:0:0:0:
36,192,5420,1,4,0:0:0:0:
256,192,5720,128,0,6020:0:0:0:0:
36,192,6020,1,2,0:0:0:0:
182,192,6020,1,4,0:0:0:0:
329,192,6020,1,0,0:0:0:0:
475,192,6020,1,0,0:0:0:0:
256,192,6170,1,0,0:0:0:0:
475,192,6170,1,0,0:0:0:0:
182,192,6320,1,0,0:0:0:0:
36,192,6320,1,2,0:0:0:0:
329,192,6320,1,0,0:0:0:0:
256,192,6470,1,0,0:0:0:0:
475,192,6470,1,0,0:0:0:0:
36,192,6620,1,2,0:0:0:0:
109,192,6620,1,0,0:0:0:0:
402,192,6620,1,0,0:0:0:0:
329,192,6770,1,0,0:0:0:0:
182,192,6770,1,0,0:0:0:0:
182,192,6920,1,0,0:0:0:0:
36,192,6920,1,2,0:0:0:0:
475,192,6920,1,0,0:0:0:0:
402,192,7070,1,0,0:0:0:0:
256,192,7070,1,0,0:0:0:0:
36,192,7220,1,2,0:0:0:0:
182,192,7220,1,4,0:0:0:0:
329,192,7220,1,0,0:0:0:0:
475,192,7220,1,0,0:0:0:0:
36,192,7445,1,2,0:0:0:0:
182,192,7445,1,4,0:0:0:0:
329,192,7445,1,0,0:0:0:0:
475,192,7445,1,0,0:0:0:0:
109,192,7670,1,2,0:0:0:0:
402,192,7670,1,4,0:0:0:0:
256,192,7670,1,0,0:0:0:0:
36,192,7820,1,2,0:0:0:0:
329,192,7820,1,4,0:0:0:0:
182,192,7820,1,0,0:0:0:0:
475,192,7820,1,0,0:0:0:0:
256,192,8120,128,0,8420:0:0:0:0:
36,192,8420,1,2,0:0:0:0:
182,192,8420,1,4,0:0:0:0:
329,192,8420,1,0,0:0:0:0:
475,192,8420,1,0,0:0:0:0:
402,192,8720,128,0,9020:0:0:0:0:
36,192,9020,1,4,0:0:0:0:
182,192,9020,1,2,0:0:0:0:
329,192,9020,1,0,0:0:0:0:
36,192,9170,1,4,0:0:0:0:
182,192,9170,1,2,0:0:0:0:
402,192,9170,1,0,0:0:0:0:
36,192,9320,1,4,0:0:0:0:
182,192,9320,1,2,0:0:0:0:
475,192,9320,1,0,0:0:0:0:
402,192,9620,1,0,0:0:0:0:
182,192,9620,1,0,0:0:0:0:
182,192,9845,1,0,0:0:0:0:
402,192,9845,1,0,0:0:0:0:
36,192,10070,1,0,0:0:0:0:
256,192,10070,1,0,0:0:0:0:
402,192,10220,1,0,0:0:0:0:
182,192,10220,1,0,0:0:0:0:
109,192,10370,1,0,0:0:0:0:
329,192,10370,1,0,0:0:0:0:
182,192,10520,1,0,0:0:0:0:
475,192,10520,1,2,0:0:0:0:
329,192,10595,1,0,0:0:0:0:
36,192,10595,1,2,0:0:0:0:
402,192,10670,1,0,0:0:0:0:
109,192,10670,1,2,0:0:0:0:
475,192,10745,1,0,0:0:0:0:
182,192,10745,1,2,0:0:0:0:
402,192,10820,1,0,0:0:0:0:
36,192,10820,1,2,0:0:0:0:
256,192,10820,1,4,0:0:0:0:
109,192,10820,1,0,0:0:0:0:
329,192,10970,1,0,0:0:0:0:
256,192,11120,1,0,0:0:0:0:
36,192,11120,1,2,0:0:0:0:
475,192,11120,1,8,0:0:0:0:
402,192,11270,1,0,0:0:0:0:
182,192,11420,1,0,0:0:0:0:
109,192,11420,1,2,0:0:0:0:
475,192,11420,1,0,0:0:0:0:
329,192,11570,1,0,0:0:0:0:
475,192,11570,1,0,0:0:0:0:
256,192,11720,1,8,0:0:0:0:
36,192,11720,1,2,0:0:0:0:
182,192,11720,1,0,0:0:0:0:
402,192,11870,1,0,0:0:0:0:
329,192,11870,1,0,0:0:0:0:
109,192,12020,1,2,0:0:0:0:
182,192,12020,1,0,0:0:0:0:
475,192,12020,1,0,0:0:0:0:
329,192,12170,1,0,0:0:0:0:
475,192,12170,1,0,0:0:0:0:
256,192,12320,1,8,0:0:0:0:
36,192,12320,1,2,0:0:0:0:
182,192,12320,1,0,0:0:0:0:
402,192,12470,1,0,0:0:0:0:
475,192,12470,1,0,0:0:0:0:
182,192,12620,1,0,0:0:0:0:
109,192,12620,1,2,0:0:0:0:
329,192,12620,1,0,0:0:0:0:
475,192,12770,1,0,0:0:0:0:
402,192,12770,1,0,0:0:0:0:
329,192,12920,1,8,0:0:0:0:
182,192,12920,1,0,0:0:0:0:
36,192,12920,1,2,0:0:0:0:
256,192,13070,1,0,0:0:0:0:
109,192,13070,1,2,0:0:0:0:
402,192,13070,1,0,0:0:0:0:
109,192,13220,1,2,0:0:0:0:
329,192,13220,1,0,0:0:0:0:
475,192,13220,1,0,0:0:0:0:
182,192,13370,1,0,0:0:0:0:
475,192,13520,1,8,0:0:0:0:
36,192,13520,1,2,0:0:0:0:
256,192,13520,1,0,0:0:0:0:
182,192,13670,1,0,0:0:0:0:
475,192,13820,1,0,0:0:0:0:
329,192,13820,1,0,0:0:0:0:
109,192,13820,1,2,0:0:0:0:
402,192,13970,1,0,0:0:0:0:
182,192,13970,1,0,0:0:0:0:
36,192,14120,1,8,0:0:0:0:
256,192,14120,1,2,0:0:0:0:
475,192,14120,1,0,0:0:0:0:
329,192,14270,1,0,0:0:0:0:
109,192,14270,1,0,0:0:0:0:
256,192,14420,1,4,0:0:0:0:
36,192,14420,1,2,0:0:0:0:
402,192,14420,1,0,0:0:0:0:
182,192,14420,1,0,0:0:0:0:
256,192,14570,1,4,0:0:0:0:
36,192,14570,1,2,0:0:0:0:
402,192,14570,1,0,0:0:0:0:
182,192,14570,1,0,0:0:0:0:
256,192,14870,1,0,0:0:0:0:
36,192,14870,1,2,0:0:0:0:
182,192,14870,1,4,0:0:0:0:
475,192,14870,1,0,0:0:0:0:
256,192,15170,1,0,0:0:0:0:
36,192,15170,1,2,0:0:0:0:
182,192,15170,1,4,0:0:0:0:
475,192,15170,1,0,0:0:0:0:
256,192,15470,1,4,0:0:0:0:
402,192,15470,1,0,0:0:0:0:
109,192,15470,1,2,0:0:0:0:
36,192,15620,1,2,0:0:0:0:
182,192,15620,1,4,0:0:0:0:
329,192,15620,1,0,0:0:0:0:
475,192,15620,1,0,0:0:0:0:
402,192,15770,1,0,0:0:0:0:
36,192,15920,1,2,0:0:0:0:
256,192,15920,1,0,0:0:0:0:
475,192,15920,1,8,0:0:0:0:
329,192,16070,1,0,0:0:0:0:
109,192,16220,1,2,0:0:0:0:
182,192,16220,1,0,0:0:0:0:
402,192,16220,1,0,0:0:0:0:
402,192,16370,1,0,0:0:0:0:
256,192,16370,1,0,0:0:0:0:
36,192,16520,1,2,0:0:0:0:
475,192,16520,1,8,0:0:0:0:
182,192,16520,1,0,0:0:0:0:
329,192,16670,1,0,0:0:0:0:
256,192,16820,1,4,0:0:0:0:
109,192,16820,1,2,0:0:0:0:
475,192,16820,1,0,0:0:0:0:
182,192,16820,1,0,0:0:0:0:
402,192,16970,1,0,0:0:0:0:
36,192,17120,1,2,0:0:0:0:
256,192,17120,1,8,0:0:0:0:
182,192,17120,1,0,0:0:0:0:
475,192,17270,1,0,0:0:0:0:
329,192,17270,1,0,0:0:0:0:
109,192,17420,1,2,0:0:0:0:
182,192,17420,1,0,0:0:0:0:
256,192,17420,1,0,0:0:0:0:
475,192,17570,1,0,0:0:0:0:
402,192,17570,1,0,0:0:0:0:
36,192,17720,1,2,0:0:0:0:
256,192,17720,1,8,0:0:0:0:
475,192,17720,1,0,0:0:0:0:
329,192,17870,1,0,0:0:0:0:
475,192,18020,1,0,0:0:0:0:
182,192,18020,1,0,0:0:0:0:
109,192,18020,1,2,0:0:0:0:
256,192,18020,1,4,0:0:0:0:
402,192,18170,1,0,0:0:0:0:
475,192,18320,1,0,0:0:0:0:
36,192,18320,1,2,0:0:0:0:
256,192,18320,1,8,0:0:0:0:
109,192,18470,1,0,0:0:0:0:
36,192,18620,1,2,0:0:0:0:
475,192,18620,1,0,0:0:0:0:
256,192,18620,1,4,0:0:0:0:
182,192,18620,1,0,0:0:0:0:
329,192,18770,1,0,0:0:0:0:
182,192,18920,1,2,0:0:0:0:
475,192,18920,1,8,0:0:0:0:
256,192,19070,1,0,0:0:0:0:
109,192,19220,128,0,19520:0:0:0:0:
329,192,19220,1,0,0:0:0:0:
329,192,19370,1,0,0:0:0:0:
36,192,19520,128,0,19820:0:0:0:0:
256,192,19520,1,0,0:0:0:0:
329,192,19670,1,0,0:0:0:0:
402,192,19820,128,0,20120:0:0:0:0:
182,192,19820,1,0,0:0:0:0:
256,192,19970,1,0,0:0:0:0:
182,192,20120,128,0,20420:0:0:0:0:
329,192,20120,1,0,0:0:0:0:
329,192,20270,1,0,0:0:0:0:
475,192,20420,1,0,0:0:0:0:
109,192,20420,1,2,0:0:0:0:
36,192,20420,1,4,0:0:0:0:
329,192,20570,1,0,0:0:0:0:
475,192,20570,1,0,0:0:0:0:
36,192,20720,1,2,0:0:0:0:
182,192,20720,1,0,0:0:0:0:
402,192,20720,1,8,0:0:0:0:
256,192,20870,1,0,0:0:0:0:
402,192,20870,1,0,0:0:0:0:
109,192,21020,1,2,0:0:0:0:
182,192,21020,1,0,0:0:0:0:
475,192,21020,1,0,0:0:0:0:
329,192,21170,1,0,0:0:0:0:
109,192,21170,1,0,0:0:0:0:
36,192,21320,1,2,0:0:0:0:
256,192,21320,1,0,0:0:0:0:
402,192,21320,1,8,0:0:0:0:
182,192,21470,1,0,0:0:0:0:
329,192,21470,1,0,0:0:0:0:
109,192,21620,1,2,0:0:0:0:
475,192,21620,1,0,0:0:0:0:
256,192,21620,1,0,0:0:0:0:
329,192,21770,1,0,0:0:0:0:
182,192,21920,1,8,0:0:0:0:
36,192,21920,1,2,0:0:0:0:
475,192,21920,1,0,0:0:0:0:
402,192,22070,1,0,0:0:0:0:
329,192,22220,1,0,0:0:0:0:
256,192,22220,1,0,0:0:0:0:
36,192,22220,1,2,0:0:0:0:
182,192,22370,1,0,0:0:0:0:
329,192,22520,1,8,0:0:0:0:
475,192,22520,1,2,0:0:0:0:
36,192,22520,1,0,0:0:0:0:
475,192,22670,1,2,0:0:0:0:
109,192,22670,1,0,0:0:0:0:
256,192,22670,1,0,0:0:0:0:
182,192,22820,1,0,0:0:0:0:
475,192,22820,1,2,0:0:0:0:
36,192,22820,1,0,0:0:0:0:
329,192,22970,1,0,0:0:0:0:
182,192,22970,1,0,0:0:0:0:
256,192,23120,1,0,0:0:0:0:
475,192,23120,1,2,0:0:0:0:
36,192,23120,1,8,0:0:0:0:
182,192,23270,1,0,0:0:0:0:
475,192,23270,1,0,0:0:0:0:
329,192,23420,1,0,0:0:0:0:
402,192,23420,1,2,0:0:0:0:
109,192,23420,1,0,0:0:0:0:
256,192,23570,1,0,0:0:0:0:
402,192,23570,1,0,0:0:0:0:
182,192,23720,1,0,0:0:0:0:
475,192,23720,1,2,0:0:0:0:
36,192,23720,1,8,0:0:0:0:
329,192,23870,1,0,0:0:0:0:
109,192,23870,1,0,0:0:0:0:
256,192,24020,1,0,0:0:0:0:
402,192,24020,1,2,0:0:0:0:
36,192,24020,1,0,0:0:0:0:
182,192,24170,1,0,0:0:0:0:
329,192,24320,1,8,0:0:0:0:
475,192,24320,1,2,0:0:0:0:
36,192,24320,1,0,0:0:0:0:
256,192,24470,1,0,0:0:0:0:
329,192,24620,1,0,0:0:0:0:
402,192,24620,1,2,0:0:0:0:
36,192,24620,1,0,0:0:0:0:
182,192,24770,1,0,0:0:0:0:
402,192,24920,1,0,0:0:0:0:
475,192,24920,1,2,0:0:0:0:
109,192,24920,1,8,0:0:0:0:
182,192,25070,1,0,0:0:0:0:
329,192,25070,1,2,0:0:0:0:
402,192,25145,1,2,0:0:0:0:
256,192,25145,1,0,0:0:0:0:
475,192,25220,1,2,0:0:0:0:
36,192,25220,1,0,0:0:0:0:
329,192,25220,1,4,0:0:0:0:
109,192,25220,1,0,0:0:0:0:
36,192,25520,1,0,0:0:0:0:
475,192,25520,1,2,0:0:0:0:
109,192,25520,1,0,0:0:0:0:
256,192,25520,1,4,0:0:0:0:
109,192,25820,1,0,0:0:0:0:
402,192,25820,1,2,0:0:0:0:
256,192,25820,1,4,0:0:0:0:
182,192,25970,1,0,0:0:0:0:
475,192,25970,1,2,0:0:0:0:
329,192,25970,1,4,0:0:0:0:
36,192,26270,1,0,0:0:0:0:
256,192,26270,1,4,0:0:0:0:
475,192,26270,1,2,0:0:0:0:
402,192,26420,1,2,0:0:0:0:
329,192,26420,1,4,0:0:0:0:
109,192,26420,1,0,0:0:0:0:
109,192,26570,1,0,0:0:0:0:
329,192,26570,1,4,0:0:0:0:
402,192,26570,1,2,0:0:0:0:
36,192,26870,1,0,0:0:0:0:
256,192,26870,1,4,0:0:0:0:
329,192,26870,1,0,0:0:0:0:
475,192,26870,1,2,0:0:0:0:
36,192,27170,1,0,0:0:0:0:
256,192,27170,1,4,0:0:0:0:
475,192,27170,1,2,0:0:0:0:
182,192,27170,1,0,0:0:0:0:
329,192,27320,1,2,0:0:0:0:
109,192,27320,1,0,0:0:0:0:
402,192,27395,1,2,0:0:0:0:
182,192,27395,1,0,0:0:0:0:
256,192,27470,1,2,0:0:0:0:
475,192,27470,1,0,0:0:0:0:
182,192,27545,1,2,0:0:0:0:
402,192,27545,1,0,0:0:0:0:
35,192,27620,1,0,0:0:0:0:
109,192,27620,1,2,0:0:0:0:
329,192,27620,1,4,0:0:0:0:
36,192,27770,1,0,0:0:0:0:
256,192,27770,1,2,0:0:0:0:
402,192,27770,1,4,0:0:0:0:
329,192,27920,1,0,0:0:0:0:
182,192,27920,1,2,0:0:0:0:
475,192,27920,128,0,28220:0:0:0:0:
182,192,28220,1,4,0:0:0:0:
36,192,28220,1,2,0:0:0:0:
329,192,28220,1,0,0:0:0:0:
402,192,28370,1,0,0:0:0:0:
256,192,28370,1,4,0:0:0:0:
109,192,28370,1,2,0:0:0:0:
36,192,28520,128,0,28820:0:0:0:0:
182,192,28520,128,0,28820:0:0:0:0:
329,192,28520,1,2,0:0:0:0:
475,192,28520,1,0,0:0:0:0:
475,192,30020,1,4,0:0:0:0:
182,192,30020,128,0,31220:0:0:0:0:
329,192,30020,128,0,30620:0:0:0:0:
36,192,30020,128,0,31820:0:0:0:0:
402,192,30620,128,0,32420:0:0:0:0:
256,192,31220,128,0,32420:0:0:0:0:
109,192,31820,128,0,32420:0:0:0:0:
182,192,32420,128,0,34820:0:0:0:0:
475,192,32420,128,0,34820:0:0:0:0:
36,192,34220,128,0,35420:0:0:0:0:
402,192,34820,128,0,37220:0:0:0:0:
256,192,34820,128,0,36020:0:0:0:0:
109,192,35420,128,0,36620:0:0:0:0:
329,192,36020,128,0,37220:0:0:0:0:
182,192,36620,128,0,37220:0:0:0:0:
256,192,37220,128,0,39620:0:0:0:0:
475,192,37220,128,0,39620:0:0:0:0:
109,192,39020,128,0,39620:0:0:0:0:
329,192,39620,128,0,40220:0:0:0:0:
36,192,39620,128,0,41420:0:0:0:0:
182,192,39620,128,0,40820:0:0:0:0:
402,192,40220,128,0,42020:0:0:0:0:
256,192,40820,128,0,42020:0:0:0:0:
109,192,41420,128,0,42020:0:0:0:0:
182,192,42020,128,0,45020:0:0:0:0:
475,192,42020,128,0,44420:0:0:0:0:
36,192,43820,128,0,45620:0:0:0:0:
402,192,44420,128,0,46220:0:0:0:0:
256,192,45020,128,0,46820:0:0:0:0:
109,192,45620,128,0,46820:0:0:0:0:
329,192,46220,128,0,46820:0:0:0:0:
182,192,46820,128,0,49220:0:0:0:0:
402,192,46820,128,0,49220:0:0:0:0:
109,192,48620,128,0,49220:0:0:0:0:
329,192,49220,128,0,50870:0:0:0:0:
475,192,49220,128,0,50870:0:0:0:0:
36,192,49220,1,4,0:0:0:0:
109,192,51020,128,0,51620:0:0:0:0:
475,192,51020,128,0,51620:0:0:0:0:
36,192,51620,1,0,0:0:0:0:
402,192,51620,128,0,53270:0:0:0:0:
256,192,51620,128,0,53270:0:0:0:0:
109,192,53420,128,0,54020:0:0:0:0:
402,192,53420,128,0,54020:0:0:0:0:
36,192,54020,1,0,0:0:0:0:
329,192,54020,128,0,54620:0:0:0:0:
475,192,54020,128,0,55220:0:0:0:0:
182,192,54620,128,0,55220:0:0:0:0:
109,192,55220,128,0,56420:0:0:0:0:
256,192,55220,128,0,55820:0:0:0:0:
402,192,55820,128,0,56420:0:0:0:0:
182,192,56420,128,0,60020:0:0:0:0:
36,192,56420,128,0,60020:0:0:0:0:
329,192,56420,128,0,60020:0:0:0:0:
475,192,60020,1,0,0:0:0:0:
256,192,60020,128,0,61220:0:0:0:0:
256,192,62720,5,8,0:0:0:0:
256,192,63020,1,8,0:0:0:0:
256,192,63320,1,8,0:0:0:0:
36,192,63620,1,2,0:0:0:0:
256,192,63620,1,4,0:0:0:0:
329,192,63620,1,0,0:0:0:0:
475,192,63620,1,0,0:0:0:0:
182,192,63695,1,0,0:0:0:0:
402,192,63695,1,0,0:0:0:0:
329,192,63770,1,0,0:0:0:0:
36,192,63770,1,0,0:0:0:0:
402,192,63845,1,0,0:0:0:0:
109,192,63845,1,0,0:0:0:0:
182,192,63920,1,2,0:0:0:0:
475,192,63920,1,0,0:0:0:0:
256,192,63920,1,0,0:0:0:0:
109,192,63995,1,0,0:0:0:0:
402,192,63995,1,0,0:0:0:0:
36,192,64070,1,0,0:0:0:0:
329,192,64070,1,0,0:0:0:0:
109,192,64145,1,0,0:0:0:0:
402,192,64145,1,0,0:0:0:0:
182,192,64220,1,2,0:0:0:0:
475,192,64220,1,0,0:0:0:0:
256,192,64220,1,0,0:0:0:0:
36,192,64295,1,0,0:0:0:0:
329,192,64295,1,0,0:0:0:0:
182,192,64370,1,0,0:0:0:0:
402,192,64370,1,0,0:0:0:0:
109,192,64445,1,0,0:0:0:0:
475,192,64445,1,0,0:0:0:0:
36,192,64520,1,2,0:0:0:0:
256,192,64520,1,0,0:0:0:0:
402,192,64520,1,0,0:0:0:0:
329,192,64595,1,0,0:0:0:0:
182,192,64595,1,0,0:0:0:0:
402,192,64670,1,0,0:0:0:0:
109,192,64670,1,0,0:0:0:0:
329,192,64745,1,0,0:0:0:0:
36,192,64745,1,0,0:0:0:0:
109,192,64820,1,2,0:0:0:0:
475,192,64820,1,0,0:0:0:0:
256,192,64820,1,0,0:0:0:0:
182,192,64895,1,0,0:0:0:0:
402,192,64895,1,0,0:0:0:0:
36,192,64970,1,0,0:0:0:0:
329,192,64970,1,0,0:0:0:0:
109,192,65045,1,0,0:0:0:0:
402,192,65045,1,0,0:0:0:0:
475,192,65120,1,2,0:0:0:0:
256,192,65120,1,0,0:0:0:0:
182,192,65120,1,0,0:0:0:0:
109,192,65195,1,0,0:0:0:0:
402,192,65195,1,0,0:0:0:0:
329,192,65270,1,0,0:0:0:0:
36,192,65270,1,0,0:0:0:0:
109,192,65345,1,0,0:0:0:0:
402,192,65345,1,0,0:0:0:0:
256,192,65420,1,2,0:0:0:0:
475,192,65420,1,0,0:0:0:0:
182,192,65420,1,0,0:0:0:0:
36,192,65495,1,0,0:0:0:0:
329,192,65495,1,0,0:0:0:0:
182,192,65570,1,0,0:0:0:0:
402,192,65570,1,0,0:0:0:0:
475,192,65645,1,0,0:0:0:0:
109,192,65645,1,0,0:0:0:0:
36,192,65720,1,2,0:0:0:0:
329,192,65720,1,0,0:0:0:0:
256,192,65720,1,0,0:0:0:0:
182,192,65795,1,0,0:0:0:0:
402,192,65795,1,0,0:0:0:0:
256,192,65870,1,2,0:0:0:0:
475,192,65870,1,0,0:0:0:0:
36,192,65870,1,0,0:0:0:0:
182,192,65945,1,0,0:0:0:0:
329,192,65945,1,0,0:0:0:0:
256,192,66020,1,2,0:0:0:0:
475,192,66020,1,0,0:0:0:0:
36,192,66020,1,0,0:0:0:0:
329,192,66095,1,0,0:0:0:0:
109,192,66095,1,0,0:0:0:0:
475,192,66170,1,0,0:0:0:0:
182,192,66170,1,0,0:0:0:0:
402,192,66245,1,0,0:0:0:0:
109,192,66245,1,0,0:0:0:0:
256,192,66320,1,0,0:0:0:0:
329,192,66320,1,2,0:0:0:0:
36,192,66320,1,0,0:0:0:0:
402,192,66395,1,0,0:0:0:0:
109,192,66395,1,0,0:0:0:0:
182,192,66470,1,0,0:0:0:0:
475,192,66470,1,0,0:0:0:0:
109,192,66545,1,0,0:0:0:0:
402,192,66545,1,0,0:0:0:0:
329,192,66620,1,2,0:0:0:0:
256,192,66620,1,0,0:0:0:0:
36,192,66620,1,0,0:0:0:0:
475,192,66695,1,0,0:0:0:0:
182,192,66695,1,0,0:0:0:0:
329,192,66770,1,0,0:0:0:0:
109,192,66770,1,0,0:0:0:0:
402,192,66845,1,0,0:0:0:0:
36,192,66845,1,0,0:0:0:0:
256,192,66920,1,0,0:0:0:0:
182,192,66920,1,0,0:0:0:0:
475,192,66920,1,2,0:0:0:0:
329,192,66995,1,0,0:0:0:0:
109,192,66995,1,0,0:0:0:0:
402,192,67070,1,0,0:0:0:0:
182,192,67070,1,0,0:0:0:0:
475,192,67145,1,0,0:0:0:0:
109,192,67145,1,0,0:0:0:0:
402,192,67220,1,2,0:0:0:0:
256,192,67220,1,0,0:0:0:0:
36,192,67220,1,0,0:0:0:0:
329,192,67295,1,0,0:0:0:0:
109,192,67295,1,0,0:0:0:0:
475,192,67370,1,0,0:0:0:0:
182,192,67370,1,0,0:0:0:0:
109,192,67445,1,0,0:0:0:0:
402,192,67445,1,0,0:0:0:0:
256,192,67520,1,2,0:0:0:0:
36,192,67520,1,0,0:0:0:0:
329,192,67520,1,0,0:0:0:0:
109,192,67595,1,0,0:0:0:0:
475,192,67595,1,0,0:0:0:0:
182,192,67670,1,0,0:0:0:0:
329,192,67670,1,0,0:0:0:0:
402,192,67745,1,0,0:0:0:0:
109,192,67745,1,0,0:0:0:0:
475,192,67820,5,0,0:0:0:0:
256,192,67820,1,2,0:0:0:0:
36,192,67820,1,0,0:0:0:0:
109,192,67895,1,0,0:0:0:0:
329,192,67970,1,0,0:0:0:0:
182,192,68045,1,0,0:0:0:0:
402,192,68120,1,0,0:0:0:0:
256,192,68195,1,0,0:0:0:0:
475,192,68270,1,0,0:0:0:0:
329,192,68345,1,0,0:0:0:0:
36,192,68420,1,2,0:0:0:0:
475,192,68420,1,4,0:0:0:0:
182,192,68420,1,0,0:0:0:0:
256,192,68420,1,0,0:0:0:0:
329,192,68495,1,0,0:0:0:0:
109,192,68495,1,0,0:0:0:0:
182,192,68570,1,0,0:0:0:0:
475,192,68570,1,0,0:0:0:0:
402,192,68645,1,0,0:0:0:0:
109,192,68645,1,0,0:0:0:0:
256,192,68720,1,0,0:0:0:0:
36,192,68720,1,2,0:0:0:0:
329,192,68720,1,0,0:0:0:0:
475,192,68795,1,0,0:0:0:0:
109,192,68795,1,0,0:0:0:0:
329,192,68870,1,0,0:0:0:0:
182,192,68870,1,0,0:0:0:0:
402,192,68945,1,0,0:0:0:0:
109,192,68945,1,0,0:0:0:0:
36,192,69020,1,2,0:0:0:0:
256,192,69020,1,0,0:0:0:0:
475,192,69020,1,0,0:0:0:0:
329,192,69095,1,0,0:0:0:0:
182,192,69095,1,0,0:0:0:0:
109,192,69170,1,0,0:0:0:0:
402,192,69170,1,0,0:0:0:0:
475,192,69245,1,0,0:0:0:0:
36,192,69245,1,0,0:0:0:0:
402,192,69320,1,0,0:0:0:0:
182,192,69320,1,2,0:0:0:0:
256,192,69320,1,0,0:0:0:0:
329,192,69395,1,0,0:0:0:0:
109,192,69395,1,0,0:0:0:0:
182,192,69470,1,0,0:0:0:0:
402,192,69470,1,0,0:0:0:0:
475,192,69545,1,0,0:0:0:0:
109,192,69545,1,0,0:0:0:0:
256,192,69620,1,0,0:0:0:0:
36,192,69620,1,2,0:0:0:0:
402,192,69620,1,0,0:0:0:0:
329,192,69695,1,0,0:0:0:0:
109,192,69695,1,0,0:0:0:0:
475,192,69770,1,0,0:0:0:0:
182,192,69770,1,0,0:0:0:0:
402,192,69845,1,0,0:0:0:0:
109,192,69845,1,0,0:0:0:0:
256,192,69920,1,0,0:0:0:0:
36,192,69920,1,2,0:0:0:0:
329,192,69920,1,0,0:0:0:0:
402,192,69995,1,0,0:0:0:0:
109,192,69995,1,0,0:0:0:0:
475,192,70070,1,0,0:0:0:0:
182,192,70070,1,0,0:0:0:0:
402,192,70145,1,0,0:0:0:0:
109,192,70145,1,0,0:0:0:0:
36,192,70220,1,2,0:0:0:0:
256,192,70220,1,0,0:0:0:0:
329,192,70220,1,0,0:0:0:0:
475,192,70295,1,0,0:0:0:0:
182,192,70295,1,0,0:0:0:0:
402,192,70370,1,0,0:0:0:0:
109,192,70370,1,0,0:0:0:0:
329,192,70445,1,0,0:0:0:0:
36,192,70445,1,0,0:0:0:0:
182,192,70520,1,0,0:0:0:0:
256,192,70520,1,2,0:0:0:0:
475,192,70520,1,0,0:0:0:0:
402,192,70595,1,0,0:0:0:0:
109,192,70595,1,0,0:0:0:0:
329,192,70670,1,0,0:0:0:0:
182,192,70670,1,0,0:0:0:0:
402,192,70745,1,0,0:0:0:0:
109,192,70745,1,0,0:0:0:0:
475,192,70820,1,0,0:0:0:0:
36,192,70820,1,2,0:0:0:0:
256,192,70820,1,0,0:0:0:0:
402,192,70895,1,0,0:0:0:0:
182,192,70895,1,0,0:0:0:0:
329,192,70970,1,0,0:0:0:0:
36,192,70970,1,0,0:0:0:0:
109,192,71045,1,0,0:0:0:0:
402,192,71045,1,0,0:0:0:0:
256,192,71120,1,0,0:0:0:0:
475,192,71120,1,0,0:0:0:0:
182,192,71120,1,2,0:0:0:0:
109,192,71195,1,0,0:0:0:0:
402,192,71195,1,0,0:0:0:0:
36,192,71270,1,0,0:0:0:0:
329,192,71270,1,0,0:0:0:0:
402,192,71345,1,0,0:0:0:0:
109,192,71345,1,0,0:0:0:0:
256,192,71420,1,0,0:0:0:0:
475,192,71420,1,0,0:0:0:0:
182,192,71420,1,2,0:0:0:0:
36,192,71495,1,0,0:0:0:0:
329,192,71495,1,0,0:0:0:0:
109,192,71570,1,0,0:0:0:0:
402,192,71570,1,0,0:0:0:0:
182,192,71645,1,0,0:0:0:0:
475,192,71645,1,0,0:0:0:0:
329,192,71720,1,0,0:0:0:0:
256,192,71720,1,0,0:0:0:0:
36,192,71720,1,2,0:0:0:0:
182,192,71795,1,0,0:0:0:0:
402,192,71795,1,0,0:0:0:0:
109,192,71870,1,0,0:0:0:0:
475,192,71870,1,0,0:0:0:0:
329,192,71945,1,0,0:0:0:0:
36,192,71945,1,0,0:0:0:0:
475,192,72020,1,0,0:0:0:0:
109,192,72020,1,0,0:0:0:0:
256,192,72020,1,0,0:0:0:0:
329,192,72095,1,0,0:0:0:0:
182,192,72170,1,0,0:0:0:0:
36,192,72245,1,0,0:0:0:0:
475,192,72320,1,0,0:0:0:0:
256,192,72320,1,0,0:0:0:0:
329,192,72395,1,0,0:0:0:0:
182,192,72470,1,0,0:0:0:0:
36,192,72545,1,0,0:0:0:0:
402,192,72620,1,0,0:0:0:0:
256,192,72620,1,0,0:0:0:0:
329,192,72695,1,0,0:0:0:0:
182,192,72770,1,0,0:0:0:0:
109,192,72845,1,0,0:0:0:0:
329,192,72920,1,0,0:0:0:0:
475,192,72920,1,0,0:0:0:0:
182,192,72995,1,0,0:0:0:0:
329,192,73070,1,0,0:0:0:0:
256,192,73145,1,0,0:0:0:0:
36,192,73220,1,2,0:0:0:0:
475,192,73220,1,0,0:0:0:0:
182,192,73220,1,4,0:0:0:0:
329,192,73220,1,0,0:0:0:0:
402,192,73295,1,0,0:0:0:0:
329,192,73370,1,0,0:0:0:0:
182,192,73445,1,0,0:0:0:0:
475,192,73520,1,8,0:0:0:0:
109,192,73520,1,0,0:0:0:0:
36,192,73520,1,2,0:0:0:0:
182,192,73595,1,0,0:0:0:0:
329,192,73670,1,0,0:0:0:0:
475,192,73745,1,0,0:0:0:0:
36,192,73820,1,2,0:0:0:0:
256,192,73820,1,0,0:0:0:0:
402,192,73895,1,0,0:0:0:0:
329,192,73970,1,0,0:0:0:0:
182,192,74045,1,0,0:0:0:0:
109,192,74120,1,0,0:0:0:0:
36,192,74120,1,2,0:0:0:0:
475,192,74120,1,8,0:0:0:0:
402,192,74195,1,0,0:0:0:0:
256,192,74270,1,0,0:0:0:0:
109,192,74345,1,0,0:0:0:0:
36,192,74420,1,2,0:0:0:0:
475,192,74420,1,0,0:0:0:0:
402,192,74495,1,0,0:0:0:0:
329,192,74570,1,0,0:0:0:0:
182,192,74645,1,0,0:0:0:0:
36,192,74720,1,2,0:0:0:0:
109,192,74720,1,0,0:0:0:0:
475,192,74720,1,8,0:0:0:0:
182,192,74795,1,0,0:0:0:0:
329,192,74870,1,0,0:0:0:0:
475,192,74945,1,0,0:0:0:0:
256,192,75020,1,0,0:0:0:0:
36,192,75020,1,2,0:0:0:0:
402,192,75095,1,0,0:0:0:0:
329,192,75170,1,0,0:0:0:0:
182,192,75245,1,0,0:0:0:0:
109,192,75320,1,0,0:0:0:0:
36,192,75320,1,2,0:0:0:0:
329,192,75320,1,8,0:0:0:0:
475,192,75395,1,0,0:0:0:0:
36,192,75470,1,2,0:0:0:0:
256,192,75470,1,0,0:0:0:0:
402,192,75545,1,0,0:0:0:0:
36,192,75620,1,2,0:0:0:0:
182,192,75620,1,0,0:0:0:0:
329,192,75620,1,0,0:0:0:0:
402,192,75695,1,0,0:0:0:0:
329,192,75770,1,0,0:0:0:0:
182,192,75845,1,0,0:0:0:0:
109,192,75920,1,0,0:0:0:0:
36,192,75920,1,2,0:0:0:0:
475,192,75920,1,8,0:0:0:0:
182,192,75995,1,0,0:0:0:0:
329,192,76070,1,0,0:0:0:0:
475,192,76145,1,0,0:0:0:0:
36,192,76220,1,2,0:0:0:0:
256,192,76220,1,0,0:0:0:0:
402,192,76295,1,0,0:0:0:0:
329,192,76370,1,0,0:0:0:0:
182,192,76445,1,0,0:0:0:0:
109,192,76520,1,0,0:0:0:0:
475,192,76520,1,8,0:0:0:0:
36,192,76520,1,2,0:0:0:0:
402,192,76595,1,0,0:0:0:0:
256,192,76670,1,0,0:0:0:0:
109,192,76745,1,0,0:0:0:0:
36,192,76820,1,2,0:0:0:0:
475,192,76820,1,0,0:0:0:0:
402,192,76895,1,0,0:0:0:0:
329,192,76970,1,0,0:0:0:0:
182,192,77045,1,0,0:0:0:0:
109,192,77120,1,0,0:0:0:0:
36,192,77120,1,2,0:0:0:0:
475,192,77120,1,8,0:0:0:0:
182,192,77195,1,0,0:0:0:0:
329,192,77270,1,0,0:0:0:0:
475,192,77345,1,0,0:0:0:0:
256,192,77420,1,0,0:0:0:0:
36,192,77420,1,2,0:0:0:0:
402,192,77495,1,0,0:0:0:0:
182,192,77570,1,0,0:0:0:0:
329,192,77645,1,0,0:0:0:0:
109,192,77720,1,0,0:0:0:0:
256,192,77795,1,0,0:0:0:0:
36,192,77870,1,0,0:0:0:0:
182,192,77945,1,0,0:0:0:0:
256,192,78020,1,0,0:0:0:0:
36,192,78020,1,4,0:0:0:0:
475,192,78020,1,2,0:0:0:0:
402,192,78020,1,0,0:0:0:0:
109,192,78095,1,0,0:0:0:0:
182,192,78170,1,0,0:0:0:0:
329,192,78245,1,0,0:0:0:0:
402,192,78320,1,0,0:0:0:0:
475,192,78320,1,2,0:0:0:0:
36,192,78320,1,8,0:0:0:0:
329,192,78395,1,0,0:0:0:0:
182,192,78470,1,0,0:0:0:0:
36,192,78545,1,0,0:0:0:0:
475,192,78620,1,2,0:0:0:0:
256,192,78620,1,0,0:0:0:0:
109,192,78695,1,0,0:0:0:0:
182,192,78770,1,0,0:0:0:0:
329,192,78845,1,0,0:0:0:0:
402,192,78920,1,0,0:0:0:0:
36,192,78920,1,8,0:0:0:0:
475,192,78920,1,2,0:0:0:0:
109,192,78995,1,0,0:0:0:0:
256,192,79070,1,0,0:0:0:0:
402,192,79145,1,0,0:0:0:0:
256,192,79220,1,0,0:0:0:0:
36,192,79220,1,4,0:0:0:0:
475,192,79220,1,2,0:0:0:0:
109,192,79220,1,0,0:0:0:0:
402,192,79295,1,0,0:0:0:0:
329,192,79370,1,0,0:0:0:0:
182,192,79445,1,0,0:0:0:0:
109,192,79520,1,0,0:0:0:0:
36,192,79520,1,0,0:0:0:0:
475,192,79520,1,10,0:0:0:0:
329,192,79595,1,0,0:0:0:0:
182,192,79670,1,0,0:0:0:0:
36,192,79745,1,0,0:0:0:0:
256,192,79820,1,0,0:0:0:0:
475,192,79820,1,2,0:0:0:0:
402,192,79895,1,0,0:0:0:0:
329,192,79970,1,0,0:0:0:0:
182,192,80045,1,0,0:0:0:0:
109,192,80120,1,0,0:0:0:0:
475,192,80120,1,10,0:0:0:0:
36,192,80120,1,0,0:0:0:0:
402,192,80195,1,0,0:0:0:0:
256,192,80270,1,0,0:0:0:0:
109,192,80345,1,0,0:0:0:0:
475,192,80420,1,2,0:0:0:0:
182,192,80420,1,0,0:0:0:0:
329,192,80420,1,4,0:0:0:0:
36,192,80420,1,0,0:0:0:0:
402,192,80495,1,0,0:0:0:0:
182,192,80570,1,0,0:0:0:0:
36,192,80645,1,0,0:0:0:0:
329,192,80720,1,2,0:0:0:0:
256,192,80720,1,8,0:0:0:0:
475,192,80720,1,0,0:0:0:0:
402,192,80795,1,0,0:0:0:0:
182,192,80870,1,0,0:0:0:0:
36,192,80945,1,0,0:0:0:0:
475,192,81020,1,0,0:0:0:0:
109,192,81020,1,2,0:0:0:0:
329,192,81020,1,0,0:0:0:0:
256,192,81020,1,4,0:0:0:0:
402,192,81095,1,0,0:0:0:0:
182,192,81170,1,0,0:0:0:0:
36,192,81245,1,0,0:0:0:0:
475,192,81320,1,0,0:0:0:0:
109,192,81320,1,8,0:0:0:0:
329,192,81320,1,2,0:0:0:0:
402,192,81395,1,0,0:0:0:0:
182,192,81470,1,0,0:0:0:0:
36,192,81545,1,0,0:0:0:0:
475,192,81620,1,0,0:0:0:0:
182,192,81620,1,0,0:0:0:0:
109,192,81695,1,0,0:0:0:0:
256,192,81770,1,0,0:0:0:0:
402,192,81845,1,0,0:0:0:0:
475,192,81920,1,0,0:0:0:0:
36,192,81920,1,8,0:0:0:0:
109,192,81995,1,0,0:0:0:0:
256,192,82070,1,0,0:0:0:0:
402,192,82145,1,0,0:0:0:0:
36,192,82220,1,8,0:0:0:0:
475,192,82220,1,0,0:0:0:0:
109,192,82295,1,0,0:0:0:0:
256,192,82370,1,0,0:0:0:0:
402,192,82445,1,0,0:0:0:0:
475,192,82520,1,0,0:0:0:0:
36,192,82520,1,8,0:0:0:0:
109,192,82595,1,0,0:0:0:0:
256,192,82670,1,0,0:0:0:0:
402,192,82745,1,0,0:0:0:0:
329,192,82820,1,2,0:0:0:0:
475,192,82820,1,4,0:0:0:0:
36,192,82820,128,0,83420:0:0:0:0:
182,192,82820,1,0,0:0:0:0:
256,192,82970,1,0,0:0:0:0:
329,192,83120,1,8,0:0:0:0:
182,192,83120,1,2,0:0:0:0:
475,192,83120,1,0,0:0:0:0:
402,192,83270,1,0,0:0:0:0:
109,192,83270,1,0,0:0:0:0:
182,192,83420,1,2,0:0:0:0:
475,192,83420,1,0,0:0:0:0:
329,192,83420,128,0,84020:0:0:0:0:
256,192,83570,1,0,0:0:0:0:
182,192,83720,1,8,0:0:0:0:
36,192,83720,1,2,0:0:0:0:
475,192,83720,1,0,0:0:0:0:
402,192,83870,1,0,0:0:0:0:
109,192,83870,1,0,0:0:0:0:
475,192,84020,1,0,0:0:0:0:
36,192,84020,1,2,0:0:0:0:
182,192,84020,128,0,84620:0:0:0:0:
256,192,84170,1,0,0:0:0:0:
329,192,84320,1,8,0:0:0:0:
36,192,84320,1,2,0:0:0:0:
475,192,84320,1,0,0:0:0:0:
402,192,84470,1,0,0:0:0:0:
109,192,84470,1,0,0:0:0:0:
475,192,84620,1,0,0:0:0:0:
329,192,84620,1,2,0:0:0:0:
256,192,84620,128,0,85220:0:0:0:0:
402,192,84770,1,0,0:0:0:0:
182,192,84920,1,8,0:0:0:0:
36,192,84920,1,2,0:0:0:0:
475,192,84920,1,0,0:0:0:0:
182,192,85070,1,0,0:0:0:0:
36,192,85070,1,2,0:0:0:0:
475,192,85070,1,0,0:0:0:0:
36,192,85220,1,2,0:0:0:0:
329,192,85220,1,0,0:0:0:0:
402,192,85220,128,0,87020:0:0:0:0:
109,192,85370,1,0,0:0:0:0:
256,192,85520,1,2,0:0:0:0:
36,192,85520,1,8,0:0:0:0:
475,192,85520,1,0,0:0:0:0:
182,192,85670,1,0,0:0:0:0:
109,192,85670,1,0,0:0:0:0:
329,192,85820,1,2,0:0:0:0:
36,192,85820,1,0,0:0:0:0:
256,192,85970,1,0,0:0:0:0:
475,192,86120,1,2,0:0:0:0:
36,192,86120,1,8,0:0:0:0:
109,192,86120,1,0,0:0:0:0:
182,192,86270,1,0,0:0:0:0:
256,192,86270,1,0,0:0:0:0:
329,192,86420,1,2,0:0:0:0:
36,192,86420,1,0,0:0:0:0:
109,192,86570,1,0,0:0:0:0:
256,192,86720,1,2,0:0:0:0:
36,192,86720,1,8,0:0:0:0:
475,192,86720,1,0,0:0:0:0:
329,192,86870,1,0,0:0:0:0:
109,192,86870,1,0,0:0:0:0:
36,192,87020,1,0,0:0:0:0:
182,192,87020,1,2,0:0:0:0:
256,192,87020,128,0,87620:0:0:0:0:
109,192,87170,1,0,0:0:0:0:
329,192,87320,1,8,0:0:0:0:
475,192,87320,1,2,0:0:0:0:
36,192,87320,1,0,0:0:0:0:
109,192,87470,1,0,0:0:0:0:
475,192,87470,1,2,0:0:0:0:
182,192,87470,1,0,0:0:0:0:
329,192,87620,1,0,0:0:0:0:
475,192,87620,1,2,0:0:0:0:
36,192,87620,128,0,88220:0:0:0:0:
402,192,87770,1,0,0:0:0:0:
182,192,87920,1,2,0:0:0:0:
475,192,87920,1,8,0:0:0:0:
329,192,87920,1,0,0:0:0:0:
256,192,88070,1,0,0:0:0:0:
109,192,88070,1,0,0:0:0:0:
329,192,88220,1,2,0:0:0:0:
475,192,88220,1,0,0:0:0:0:
182,192,88220,128,0,88820:0:0:0:0:
402,192,88370,1,0,0:0:0:0:
329,192,88520,1,8,0:0:0:0:
36,192,88520,1,2,0:0:0:0:
475,192,88520,1,0,0:0:0:0:
256,192,88670,1,0,0:0:0:0:
402,192,88670,1,0,0:0:0:0:
329,192,88820,1,2,0:0:0:0:
475,192,88820,1,0,0:0:0:0:
109,192,88820,128,0,89420:0:0:0:0:
182,192,88970,1,0,0:0:0:0:
402,192,89120,1,8,0:0:0:0:
256,192,89120,1,2,0:0:0:0:
475,192,89120,1,0,0:0:0:0:
329,192,89270,1,0,0:0:0:0:
182,192,89270,1,0,0:0:0:0:
475,192,89420,1,2,0:0:0:0:
36,192,89420,1,0,0:0:0:0:
256,192,89420,128,0,90020:0:0:0:0:
329,192,89570,1,0,0:0:0:0:
402,192,89720,1,8,0:0:0:0:
109,192,89720,1,2,0:0:0:0:
36,192,89720,1,0,0:0:0:0:
182,192,89870,1,0,0:0:0:0:
475,192,89870,1,0,0:0:0:0:
329,192,90020,1,0,0:0:0:0:
36,192,90020,1,0,0:0:0:0:
402,192,90020,128,2,92420:0:0:0:0:
109,192,90170,1,0,0:0:0:0:
256,192,90320,1,8,0:0:0:0:
475,192,90320,1,2,0:0:0:0:
36,192,90320,1,0,0:0:0:0:
182,192,90470,1,0,0:0:0:0:
109,192,90470,1,0,0:0:0:0:
329,192,90620,1,0,0:0:0:0:
36,192,90620,1,2,0:0:0:0:
256,192,90770,1,0,0:0:0:0:
182,192,90920,1,8,0:0:0:0:
36,192,90920,1,2,0:0:0:0:
475,192,90920,1,0,0:0:0:0:
109,192,91070,1,0,0:0:0:0:
329,192,91070,1,0,0:0:0:0:
256,192,91220,1,0,0:0:0:0:
256,192,91520,1,0,0:0:0:0:
256,192,91820,1,0,0:0:0:0:
256,192,92120,128,0,92420:0:0:0:0:
182,192,92420,1,4,0:0:0:0:
36,192,92420,1,2,0:0:0:0:
475,192,92420,1,0,0:0:0:0:
329,192,92570,1,0,0:0:0:0:
256,192,92720,1,8,0:0:0:0:
109,192,92720,1,2,0:0:0:0:
475,192,92720,1,0,0:0:0:0:
182,192,92870,1,0,0:0:0:0:
402,192,92870,1,0,0:0:0:0:
36,192,93020,1,2,0:0:0:0:
329,192,93020,1,0,0:0:0:0:
475,192,93020,1,0,0:0:0:0:
182,192,93170,1,0,0:0:0:0:
256,192,93320,1,2,0:0:0:0:
402,192,93320,1,8,0:0:0:0:
36,192,93320,1,0,0:0:0:0:
475,192,93470,1,0,0:0:0:0:
182,192,93470,1,0,0:0:0:0:
36,192,93620,1,2,0:0:0:0:
329,192,93620,1,0,0:0:0:0:
256,192,93620,1,0,0:0:0:0:
182,192,93770,1,0,0:0:0:0:
256,192,93920,1,8,0:0:0:0:
109,192,93920,1,2,0:0:0:0:
402,192,93920,1,0,0:0:0:0:
475,192,94070,1,0,0:0:0:0:
182,192,94070,1,0,0:0:0:0:
36,192,94220,1,2,0:0:0:0:
329,192,94220,1,0,0:0:0:0:
402,192,94220,1,0,0:0:0:0:
182,192,94370,1,0,0:0:0:0:
109,192,94520,1,2,0:0:0:0:
256,192,94520,1,8,0:0:0:0:
475,192,94520,1,0,0:0:0:0:
402,192,94670,1,0,0:0:0:0:
109,192,94670,1,2,0:0:0:0:
256,192,94670,1,0,0:0:0:0:
36,192,94820,1,2,0:0:0:0:
182,192,94820,1,0,0:0:0:0:
329,192,94820,1,0,0:0:0:0:
402,192,94970,1,0,0:0:0:0:
256,192,95120,1,8,0:0:0:0:
109,192,95120,1,2,0:0:0:0:
475,192,95120,1,0,0:0:0:0:
182,192,95270,1,0,0:0:0:0:
402,192,95270,1,0,0:0:0:0:
36,192,95420,1,2,0:0:0:0:
329,192,95420,1,0,0:0:0:0:
256,192,95420,1,0,0:0:0:0:
475,192,95570,1,0,0:0:0:0:
256,192,95720,1,2,0:0:0:0:
402,192,95720,1,8,0:0:0:0:
109,192,95720,1,0,0:0:0:0:
182,192,95870,1,0,0:0:0:0:
329,192,95870,1,0,0:0:0:0:
36,192,96020,1,2,0:0:0:0:
402,192,96020,1,0,0:0:0:0:
256,192,96020,1,0,0:0:0:0:
182,192,96170,1,0,0:0:0:0:
256,192,96320,1,8,0:0:0:0:
109,192,96320,1,2,0:0:0:0:
402,192,96320,1,0,0:0:0:0:
182,192,96470,1,0,0:0:0:0:
475,192,96470,1,0,0:0:0:0:
36,192,96620,1,2,0:0:0:0:
329,192,96620,1,0,0:0:0:0:
402,192,96620,1,0,0:0:0:0:
109,192,96770,1,0,0:0:0:0:
182,192,96920,1,8,0:0:0:0:
402,192,96920,1,2,0:0:0:0:
329,192,97070,1,0,0:0:0:0:
475,192,97070,1,2,0:0:0:0:
256,192,97145,1,0,0:0:0:0:
109,192,97145,1,0,0:0:0:0:
36,192,97220,1,0,0:0:0:0:
329,192,97220,1,4,0:0:0:0:
475,192,97220,1,2,0:0:0:0:
182,192,97220,1,0,0:0:0:0:
36,192,97520,1,0,0:0:0:0:
182,192,97520,1,0,0:0:0:0:
256,192,97520,1,4,0:0:0:0:
475,192,97520,1,2,0:0:0:0:
109,192,97820,1,0,0:0:0:0:
329,192,97820,1,0,0:0:0:0:
475,192,97820,1,2,0:0:0:0:
256,192,97820,1,4,0:0:0:0:
109,192,97970,1,0,0:0:0:0:
256,192,97970,1,4,0:0:0:0:
402,192,97970,1,2,0:0:0:0:
329,192,98270,1,4,0:0:0:0:
36,192,98270,1,2,0:0:0:0:
182,192,98270,1,0,0:0:0:0:
36,192,98420,1,4,0:0:0:0:
329,192,98420,1,2,0:0:0:0:
182,192,98420,1,0,0:0:0:0:
109,192,98570,1,0,0:0:0:0:
256,192,98570,1,4,0:0:0:0:
402,192,98570,1,2,0:0:0:0:
109,192,98870,1,0,0:0:0:0:
256,192,98870,1,4,0:0:0:0:
402,192,98870,1,2,0:0:0:0:
475,192,99170,1,4,0:0:0:0:
182,192,99170,1,0,0:0:0:0:
329,192,99170,1,2,0:0:0:0:
36,192,99170,1,0,0:0:0:0:
182,192,99470,1,4,0:0:0:0:
329,192,99470,1,2,0:0:0:0:
402,192,99545,1,2,0:0:0:0:
109,192,99545,1,0,0:0:0:0:
256,192,99620,1,4,0:0:0:0:
475,192,99620,1,2,0:0:0:0:
36,192,99620,1,0,0:0:0:0:
475,192,99770,1,2,0:0:0:0:
36,192,99770,1,0,0:0:0:0:
256,192,99770,1,4,0:0:0:0:
329,192,99920,1,0,0:0:0:0:
182,192,99920,1,0,0:0:0:0:
402,192,99920,128,0,100220:0:0:0:0:
109,192,99920,128,0,100220:0:0:0:0:
36,192,100220,1,4,0:0:0:0:
475,192,100220,1,0,0:0:0:0:
256,192,100220,1,2,0:0:0:0:
256,192,100370,1,2,0:0:0:0:
475,192,100370,1,0,0:0:0:0:
36,192,100370,1,4,0:0:0:0:
109,192,100520,128,0,100820:0:0:0:0:
182,192,100520,128,0,100820:0:0:0:0:
329,192,100520,128,0,100820:0:0:0:0:
402,192,100520,128,0,100820:0:0:0:0:
256,192,100820,1,0,0:0:0:0:
256,192,101120,1,0,0:0:0:0:
256,192,101420,1,0,0:0:0:0:
256,192,101720,128,0,102020:0:0:0:0:
475,192,102020,1,6,0:0:0:0:
36,192,102020,128,0,103670:0:0:0:0:
182,192,102020,128,0,103670:0:0:0:0:
329,192,102020,128,0,103670:0:0:0:0:
256,192,103820,128,0,104420:0:0:0:0:
402,192,103820,128,0,104420:0:0:0:0:
182,192,104420,128,0,106070:0:0:0:0:
329,192,104420,128,0,106070:0:0:0:0:
36,192,104420,128,0,106070:0:0:0:0:
475,192,106220,128,0,106820:0:0:0:0:
329,192,106220,128,0,106820:0:0:0:0:
402,192,106820,128,0,107420:0:0:0:0:
256,192,106820,128,0,108020:0:0:0:0:
109,192,106820,128,0,108620:0:0:0:0:
329,192,107420,128,0,109220:0:0:0:0:
182,192,108020,128,0,109220:0:0:0:0:
36,192,108620,128,0,109220:0:0:0:0:
256,192,109220,128,0,114020:0:0:0:0:
402,192,109220,128,0,114020:0:0:0:0:
109,192,109220,128,0,114020:0:0:0:0:
