osu file format v11

[General]
AudioFilename: Paradise Ghost.mp3
AudioLeadIn: 0
PreviewTime: 55170
Countdown: 0
SampleSet: Normal
StackLeniency: 0.4
Mode: 0
LetterboxInBreaks: 1

[Editor]
DistanceSpacing: 1
BeatDivisor: 4
GridSize: 16

[Metadata]
Title:PARADISE GHOST
TitleUnicode:PARADISE GHOST
Artist:Ryu* Vs. L.E.D.-G Vs. ZUN
ArtistUnicode:Ryu☆ Vs. L.E.D.-G Vs. ZUN
Creator:Pokie
Version:Normal
Source:
Tags:No_Gu gudbye Byakko+ RandomBemani Mash-up bemani beatmania IIDX 18 Resort Anthem PARADISE LOST Touhou Hiroari Shoots a Strange Bird ~ Till When? Konpaku Youmu
BeatmapID:199680
BeatmapSetID:67133

[Difficulty]
HPDrainRate:3
CircleSize:3
OverallDifficulty:4
ApproachRate:5
SliderMultiplier:1.12
SliderTickRate:2

[Events]
//Background and Video events
0,0,"BG.jpg"
//Break Periods
2,12208,15608
2,45808,49208
2,86408,94808
//Storyboard Layer 0 (Background)
//Storyboard Layer 1 (Fail)
//Storyboard Layer 2 (Pass)
//Storyboard Layer 3 (Foreground)
//Storyboard Sound Samples
//Background Colour Transformations
3,100,163,162,255

[TimingPoints]
8,600,4,2,1,40,1,0
2408,-133.333333333333,4,2,1,40,0,0
2558,-133.333333333333,4,2,1,55,0,0
3308,-133.333333333333,4,2,1,55,0,0
3908,-133.333333333333,4,2,1,40,0,0
4208,-133.333333333333,4,2,1,55,0,0
4808,-133.333333333333,4,2,1,40,0,0
5108,-133.333333333333,4,2,1,40,0,0
5408,-133.333333333333,4,2,1,55,0,0
5858,-133.333333333333,4,2,1,40,0,0
6158,-133.333333333333,4,2,1,55,0,0
6308,-133.333333333333,4,2,1,40,0,0
6608,-133.333333333333,4,2,1,55,0,0
7508,-133.333333333333,4,2,1,55,0,0
7808,-133.333333333333,4,2,1,55,0,0
8708,-133.333333333333,4,2,1,40,0,0
8858,-133.333333333333,4,2,1,55,0,0
10208,-133.333333333333,4,2,1,40,0,0
10358,-133.333333333333,4,2,1,55,0,0
10958,-133.333333333333,4,2,1,40,0,0
11108,-133.333333333333,4,2,1,55,0,0
11408,-133.333333333333,4,2,1,55,0,0
11558,-66.6666666666667,4,2,1,55,0,0
11858,-66.6666666666667,4,2,2,5,0,0
12008,-133.333333333333,4,2,1,45,0,0
19208,300,4,2,1,60,1,0
19208,-133.333333333333,4,1,1,50,0,0
20408,-133.333333333333,4,1,1,55,0,0
21008,-133.333333333333,4,1,1,60,0,0
21458,-133.333333333333,4,1,1,35,0,0
21908,-133.333333333333,4,1,1,45,0,0
22508,-133.333333333333,4,1,1,50,0,0
24008,-100,4,2,1,70,0,0
32708,-100,4,2,2,70,0,0
33008,-100,4,2,2,70,0,0
33308,-100,4,1,1,30,0,0
33533,-100,4,1,1,40,0,0
33608,-100,4,1,1,55,0,1
38408,-100,4,1,1,55,0,1
43058,-100,4,1,1,30,0,1
43170,-100,4,1,1,55,0,0
43208,-100,4,1,1,55,0,1
43245,-100,4,1,1,48,0,0
44408,-200,4,2,1,55,0,0
44483,-200,4,1,2,55,0,0
45608,-133.333333333333,4,1,2,45,0,0
46808,-100,4,2,1,45,0,0
50408,-100,4,1,1,30,0,0
52808,-100,4,1,1,43,0,0
53708,-100,4,1,1,33,0,0
54008,-100,4,2,1,53,0,0
55208,-100,4,1,2,55,0,1
63608,-100,4,1,1,30,0,1
64770,-100,4,1,1,55,0,0
64808,-100,4,2,2,55,0,1
72008,-100,4,2,1,45,0,0
72608,-100,4,2,1,50,0,0
73208,-100,4,2,1,53,0,0
73808,-100,4,2,1,45,0,0
74408,-100,4,2,2,55,0,1
74445,-100,4,2,1,55,0,0
79208,-100,4,2,2,55,0,1
79245,-100,4,3,2,55,0,0
84008,-100,4,2,1,53,0,1
84045,-100,4,2,1,53,0,0
86408,-133.333333333333,4,2,1,53,0,0
96008,-100,4,2,1,50,0,0
105608,-200,4,1,1,53,0,0
106208,-100,4,1,1,40,0,0
106808,-100,4,1,1,50,0,1
116370,-100,4,1,1,50,0,0
116408,-100,4,1,1,50,0,1
125970,-100,4,1,1,50,0,0
126008,-100,4,3,2,50,0,1
126045,-100,4,2,1,50,0,0
127208,-100,4,2,1,40,0,0
128408,-100,4,2,1,30,0,0
129008,-100,4,2,1,20,0,0
129608,-100,4,2,1,15,0,0
130208,-100,4,2,1,10,0,0
130508,-100,4,2,1,5,0,0

[Colours]
Combo1 : 255,255,255
Combo2 : 62,183,137
Combo3 : 24,158,231
Combo4 : 145,197,48
Combo5 : 241,249,108

[HitObjects]
188,186,2408,2,0,P|211:217|256:234|256:234|300:218|324:184,1,168.000006408692,4|0,0:0|0:0,0:0:0
293,106,4208,2,0,P|256:88|219:106,2,84.0000032043458,0|0|0,1:0|0:0|1:0,0:0:0
257,182,6008,2,0,P|256:282,1,84.0000032043458,0|2,0:0|0:0,0:0:0
191,358,7208,6,0,P|79:355|32:234,1,252.000009613037,4|0,0:0|1:0,0:0:0
138,264,9608,1,4,0:0:0
83,170,10208,2,0,P|195:173|242:294,1,252.000009613037,0|4,1:0|0:0,0:0:0
256,192,16808,12,0,18608,0:0:0
311,98,19208,6,0,P|407:90,1,84.0000032043458,4|0,0:0|0:0,0:0:0
461,142,19808,2,0,P|469:238,1,84.0000032043458,4|0,0:0|0:0,0:0:0
412,289,20408,2,0,P|316:297,1,84.0000032043458,4|0,0:0|0:0,0:0:0
260,245,21008,2,0,P|252:149,1,84.0000032043458,4|0,0:0|0:0,0:0:0
208,89,21608,6,0,P|145:32|66:55,1,168.000006408692
21,211,22808,2,0,P|83:267|162:244,1,168.000006408692
305,79,24008,22,0,P|421:85,2,112,0|0|0,0:0|1:0|0:0,0:0:0
191,63,24908,2,0,P|143:108,1,56,0|2,1:0|0:0,0:0:0
94,96,25208,5,0,0:0:0
8,167,25508,1,0,1:0:0
81,251,25808,1,4,0:0:0
168,181,26108,1,4,0:0:0
94,96,26408,6,0,P|205:94,2,112,0|0|0,0:0|1:0|0:0,0:0:0
30,188,27308,2,0,P|89:187,1,56,0|2,1:0|0:0,0:0:0
128,224,27608,5,0,0:0:0
163,330,27908,1,0,1:0:0
274,337,28208,1,4,0:0:0
328,239,28508,1,4,0:0:0
216,244,28808,22,0,P|188:139|290:101,1,224,0|0,0:0|1:0,0:0:0
377,145,29708,1,0,1:0:0
346,37,30008,2,0,P|296:16|231:16,2,112,0|0|4,0:0|1:0|0:0,0:0:0
439,99,30908,1,4,0:0:0
340,151,31208,6,0,P|350:271,2,112,0|0|0,0:0|1:0|0:0,0:0:0
238,102,32108,2,0,P|244:173,1,56,0|2,1:0|0:0,0:0:0
209,203,32408,6,0,P|148:213|88:177,1,112,4|0,0:0|1:0,0:0:0
49,94,33008,2,0,P|110:84|170:120,1,112,4|0,0:0|1:0,0:0:0
244,37,33608,5,4,0:0:0
339,95,33908,1,2,0:0:0
249,158,34208,1,0,0:0:0
346,212,34508,2,0,P|418:216|432:78,1,224,2|2,0:0|0:0,0:0:0
351,30,35408,2,0,P|299:42|276:94,1,112,6|6,0:0|0:0,0:0:0
266,203,36008,21,0,0:0:0
156,178,36308,1,2,0:0:0
174,288,36608,1,0,0:0:0
63,267,36908,2,0,P|30:150|115:108,1,224,2|2,0:0|0:0,0:0:0
214,123,37808,2,0,P|232:179,1,56,4|0,0:0|0:0,0:0:0
230,232,38108,2,0,P|198:300,1,56,2|0,0:0|0:0,0:0:0
165,321,38408,6,0,P|264:374|418:235,1,336,4|0,0:0|0:0,0:0:0
391,137,39608,2,0,P|292:84|138:223,1,336,0|4,0:0|0:0,0:0:0
82,307,40808,6,0,P|126:332|188:311,1,112,4|0,0:0|0:0,0:0:0
188,204,41408,2,0,P|144:179|82:200,1,112,0|0,0:0|0:0,0:0:0
88,82,42008,6,0,P|208:55,1,112,4|0,0:0|0:0,0:0:0
206,169,42608,2,0,P|335:161,1,112,4|4,0:0|0:0,0:0:0
256,192,43208,12,4,45608,0:0:0
393,252,50408,22,0,P|282:234|282:234|219:344,1,224,4|0,0:0|0:0,0:0:0
123,131,51608,2,0,P|234:149|234:149|297:39,1,224,4|0,0:0|0:0,0:0:0
486,157,52808,5,4,0:0:0
454,264,53108,1,0,0:0:0
348,227,53408,1,4,0:0:0
376,118,53708,1,0,0:0:0
426,218,54008,6,0,P|430:275|430:275|382:318,1,112,4|0,0:0|0:0,0:0:0
283,348,54608,2,0,P|226:352|226:352|183:304,1,112,4|2,0:0|0:0,0:0:0
256,224,55208,6,0,P|176:160|80:224,1,224,4|2,0:0|1:0,0:0:0
25,311,56108,2,0,P|75:338|132:312,1,112,2|0,1:0|1:0,0:0:0
190,230,56708,2,0,P|165:106,1,112,2|4,0:0|0:0,0:0:0
277,143,57308,1,6,0:0:0
245,38,57608,22,0,P|352:0|442:85,1,224,0|2,0:0|0:0,0:0:0
498,151,58508,2,0,P|444:175|391:158,1,112,2|0,0:0|0:0,0:0:0
293,114,59108,2,0,P|267:232,1,112,2|4,0:0|0:0,0:0:0
202,313,59708,1,6,0:0:0
314,339,60008,6,0,P|392:366|470:262,1,224,4|2,0:0|0:0,0:0:0
363,234,60908,1,2,0:0:0
260,188,61208,1,0,0:0:0
275,77,61508,1,2,0:0:0
384,52,61808,1,4,0:0:0
438,149,62108,1,6,0:0:0
326,151,62408,6,0,P|245:185|171:88,1,224,4|2,0:0|0:0,0:0:0
59,77,63308,1,2,0:0:0
0,172,63608,1,4,0:0:0
71,258,63908,1,2,0:0:0
175,217,64208,1,4,0:0:0
173,105,64508,1,2,0:0:0
276,61,64808,6,0,P|372:90|357:215,1,224,4|2,0:0|1:0,0:0:0
277,257,65708,2,0,P|216:251,2,56,2|2|0,1:0|0:0|1:0,0:0:0
377,306,66308,2,0,P|437:302,2,56,2|2|4,1:0|0:0|0:0,0:0:0
290,377,66908,1,4,0:0:0
199,310,67208,22,0,P|152:229|218:127,1,224,4|2,0:0|1:0,0:0:0
125,60,68108,2,0,P|61:39,2,56,2|2|0,1:0|0:0|1:0,0:0:0
59,150,68708,2,0,P|-9:158,2,56,2|2|4,1:0|0:0|0:0,0:0:0
156,204,69308,1,4,0:0:0
240,130,69608,6,0,P|299:201|233:320,1,224,4|2,0:0|1:0,0:0:0
143,338,70508,2,0,P|95:325|59:271,1,112,2|0,1:0|1:0,0:0:0
37,166,71108,2,0,P|50:118|104:82,1,112,2|4,1:0|1:2,0:0:0
210,68,71708,1,4,0:0:0
200,179,72008,6,0,P|288:171|288:171|318:190|318:190|421:176,2,224,4|2|4,0:0|0:0|0:0,0:0:0
122,259,73508,1,2,0:0:0
200,339,73808,1,4,0:0:0
280,260,74108,1,2,0:0:0
346,349,74408,6,0,P|448:304|448:304|366:224,1,224,4|2,0:0|0:0,0:0:0
205,69,75608,2,0,P|103:114|103:114|185:194,1,224,4|4,0:0|0:0,0:0:0
276,254,76508,22,0,P|321:222|321:222|267:173,1,112,4|4,0:0|0:0,0:0:0
54,183,77408,1,2,0:0:0
212,341,78008,1,0,0:0:0
370,182,78608,1,4,0:0:0
260,207,78908,1,4,0:0:0
294,313,79208,6,0,P|379:340|448:362|448:362|436:279|436:279|493:202,1,336,4|4,0:0|2:0,0:0:0
418,123,80408,2,0,P|345:209|345:209|240:173,1,224,4|4,2:0|2:0,0:0:0
314,89,81308,1,4,2:0:0
256,192,81608,12,4,84008,1:0:0
281,305,96008,6,0,P|361:333|339:105,1,448,4|2,0:0|0:0,0:0:0
360,220,97508,2,0,P|253:185,1,112,0|2,0:0|0:0,0:0:0
150,139,98108,1,0,0:0:0
226,53,98408,6,0,P|146:25|168:253,1,448,4|2,0:0|0:0,0:0:0
150,139,99908,2,0,P|256:173,1,112,0|2,0:0|0:0,0:0:0
363,208,100508,1,0,0:0:0
512,324,100808,22,0,P|422:377|422:377|391:324|308:333,2,224,4|2|4,0:0|0:0|0:0,0:0:0
429,249,102308,2,0,P|371:230|302:236,2,112,2|0|2,0:0|0:0|0:0,0:0:0
421,137,103208,5,4,0:0:0
298,323,103808,1,4,0:0:0
102,214,104408,1,4,0:0:0
213,19,105008,1,4,0:0:0
213,19,105308,1,2,0:0:0
213,19,105608,38,0,P|225:143,1,112,4|2,0:0|0:0,0:0:0
168,348,106808,38,0,P|72:375|11:274,1,224,4|8,0:0|0:0,0:0:0
77,194,107708,1,2,0:0:0
185,220,108008,2,0,P|170:89,2,112,0|2|8,0:0|0:0|0:0,0:0:0
325,54,109208,6,0,P|421:27|482:128,1,224,4|8,0:0|0:0,0:0:0
402,196,110108,1,2,0:0:0
297,159,110408,2,0,P|312:290,2,112,0|2|8,0:0|0:0|0:0,0:0:0
174,347,111608,22,0,P|59:327|59:327|118:234,1,224,4|8,0:0|0:0,0:0:0
170,138,112508,1,2,0:0:0
58,130,112808,2,0,P|59:73|59:73|109:38,2,112,0|2|8,0:0|0:0|0:0,0:0:0
338,37,114008,6,0,P|453:57|453:57|394:150,1,224,4|8,0:0|0:0,0:0:0
365,255,114908,1,2,0:0:0
471,221,115208,2,0,P|456:345,1,112,4|6,0:0|0:0,0:0:0
355,378,115808,2,0,P|220:365,1,112,12|6,0:0|0:0,0:0:0
182,273,116408,6,0,P|166:167|267:125,1,224,4|8,0:0|0:0,0:0:0
361,167,117308,1,2,0:0:0
347,55,117608,2,0,P|291:28|225:30,1,112,0|2,0:0|0:0,0:0:0
134,58,118208,2,0,P|90:89|62:157,1,112,12|6,0:0|0:0,0:0:0
72,251,118808,6,0,P|170:300|258:236,1,224,4|8,0:0|0:0,0:0:0
205,140,119708,1,2,0:0:0
316,150,120008,2,0,P|450:146,1,112,0|2,0:0|0:0,0:0:0
481,245,120608,2,0,P|369:248,1,112,12|6,0:0|0:0,0:0:0
343,357,121208,21,4,0:0:0
91,279,121808,1,12,0:0:0
169,27,122408,1,4,0:0:0
421,105,123008,1,12,0:0:0
253,253,123608,5,4,0:0:0
182,165,123908,1,0,0:0:0
274,102,124208,1,8,0:0:0
340,192,124508,1,8,0:0:0
253,254,124808,6,0,P|135:269,1,112,4|4,0:0|0:0,0:0:0
71,180,125408,2,0,P|182:165,1,112,12|12,0:0|0:0,0:0:0
256,192,126008,12,0,130808,0:0:0
