osu file format v11

[General]
AudioFilename: Paradise Ghost.mp3
AudioLeadIn: 2500
PreviewTime: 55170
Countdown: 0
SampleSet: Soft
StackLeniency: 0.3
Mode: 0
LetterboxInBreaks: 1

[Editor]
DistanceSpacing: 1.2
BeatDivisor: 4
GridSize: 4

[Metadata]
Title:PARADISE GHOST
TitleUnicode:PARADISE GHOST
Artist:Ryu* Vs. L.E.D.-G Vs. ZUN
ArtistUnicode:Ryu☆ Vs. L.E.D.-G Vs. ZUN
Creator:Pokie
Version:Hyper
Source:
Tags:No_Gu gudbye Byakko+ RandomBemani Mash-up bemani beatmania IIDX 18 Resort Anthem PARADISE LOST Touhou Hiroari Shoots a Strange Bird ~ Till When? Konpaku Youmu
BeatmapID:196417
BeatmapSetID:67133

[Difficulty]
HPDrainRate:5
CircleSize:4
OverallDifficulty:6
ApproachRate:8
SliderMultiplier:1.44
SliderTickRate:2

[Events]
//Background and Video events
0,0,"BG.jpg"
//Break Periods
2,12208,16058
2,86608,95258
//Storyboard Layer 0 (Background)
//Storyboard Layer 1 (Fail)
//Storyboard Layer 2 (Pass)
//Storyboard Layer 3 (Foreground)
//Storyboard Sound Samples
//Background Colour Transformations
3,100,163,162,255

[TimingPoints]
8,600,4,2,1,40,1,0
2408,-133.333333333333,4,2,1,40,0,0
2558,-133.333333333333,4,2,1,55,0,0
3308,-133.333333333333,4,2,1,55,0,0
3908,-133.333333333333,4,2,1,40,0,0
4208,-133.333333333333,4,2,1,55,0,0
4808,-133.333333333333,4,2,1,40,0,0
5108,-133.333333333333,4,2,1,40,0,0
5408,-133.333333333333,4,2,1,55,0,0
5858,-133.333333333333,4,2,1,40,0,0
6158,-133.333333333333,4,2,1,55,0,0
6308,-133.333333333333,4,2,1,40,0,0
6608,-133.333333333333,4,2,1,55,0,0
7508,-133.333333333333,4,2,1,55,0,0
7808,-133.333333333333,4,2,1,55,0,0
8708,-133.333333333333,4,2,1,40,0,0
8858,-133.333333333333,4,2,1,55,0,0
10508,-133.333333333333,4,1,1,55,0,0
10658,-133.333333333333,4,2,1,55,0,0
10958,-133.333333333333,4,2,1,40,0,0
11108,-133.333333333333,4,2,1,55,0,0
11408,-133.333333333333,4,2,1,55,0,0
11558,-66.6666666666667,4,2,1,55,0,0
11858,-66.6666666666667,4,2,2,5,0,0
12008,-133.333333333333,4,2,1,45,0,0
19208,300,4,2,1,60,1,0
19208,-133.333333333333,4,1,1,50,0,0
20408,-133.333333333333,4,1,1,55,0,0
21008,-133.333333333333,4,1,1,60,0,0
21458,-133.333333333333,4,1,1,35,0,0
21908,-133.333333333333,4,1,1,45,0,0
22508,-133.333333333333,4,1,1,50,0,0
24008,-100,4,2,2,70,0,0
32708,-76.9230769230769,4,2,2,70,0,0
33008,-62.5,4,2,2,70,0,0
33308,-100,4,1,1,30,0,0
33533,-100,4,1,1,40,0,0
33608,-100,4,2,2,55,0,1
38408,-100,4,3,2,55,0,1
43058,-100,4,1,1,30,0,1
43170,-100,4,1,1,55,0,0
43208,-133.333333333333,4,1,1,55,0,1
43245,-133.333333333333,4,1,1,48,0,0
44408,-200,4,2,1,55,0,0
44483,-200,4,1,1,55,0,0
45608,-133.333333333333,4,1,1,45,0,0
46808,-100,4,2,1,45,0,0
50408,-100,4,3,2,30,0,0
51608,-117.647058823529,4,3,2,40,0,0
52808,-100,4,1,1,43,0,0
53708,-100,4,1,1,33,0,0
55208,-100,4,2,2,55,0,1
63608,-100,4,1,1,30,0,1
64770,-100,4,1,1,55,0,0
64808,-100,4,2,2,55,0,1
72008,-100,4,2,1,45,0,0
72608,-100,4,2,1,50,0,0
73208,-100,4,2,1,53,0,0
73808,-100,4,2,1,45,0,0
74408,-100,4,2,2,55,0,1
74445,-100,4,2,2,55,0,0
79208,-100,4,2,2,55,0,1
79245,-100,4,3,2,55,0,0
84008,-100,4,2,1,53,0,1
84045,-100,4,2,1,53,0,0
86408,-133.333333333333,4,2,1,53,0,0
96008,-100,4,2,1,50,0,0
105608,-200,4,1,1,53,0,0
106208,-100,4,1,1,40,0,0
106508,-83.3333333333333,4,1,1,53,0,0
106808,-100,4,2,2,50,0,1
114158,-100,4,1,1,50,0,1
114233,-100,4,2,2,50,0,1
114758,-100,4,1,1,50,0,1
114833,-100,4,2,2,50,0,1
116370,-100,4,2,2,50,0,0
116408,-100,4,2,2,50,0,1
121208,-100,4,3,2,50,0,1
123608,-100,4,3,2,30,0,1
124808,-100,4,3,2,50,0,1
124883,-100,4,3,2,30,0,1
125108,-100,4,3,2,50,0,1
125183,-100,4,3,2,30,0,1
125970,-100,4,3,2,30,0,0
126008,-100,4,3,2,50,0,1
126045,-100,4,2,1,50,0,0
127208,-100,4,2,1,40,0,0
128408,-100,4,2,1,30,0,0
129008,-100,4,2,1,20,0,0
129608,-100,4,2,1,15,0,0
130208,-100,4,2,1,10,0,0
130508,-100,4,2,1,5,0,0

[Colours]
Combo1 : 255,255,255
Combo2 : 62,183,137
Combo3 : 24,158,231
Combo4 : 145,197,48
Combo5 : 241,249,108

[HitObjects]
256,192,8,12,0,2108,0:0:0
404,148,2408,6,0,P|356:168|300:160,1,108.000004119873,4|0,0:0|1:0,0:0:0
226,117,3308,1,0,0:0:0
160,173,3608,2,0,P|128:176,2,27.0000010299683,0|0|0,0:0|1:0|1:0,0:0:0
61,292,4208,2,0,P|93:264|132:254,1,81.0000030899049,0|0,1:0|1:0,0:0:0
164,264,4808,6,0,P|196:312,1,54.0000020599366,0|0,1:0|1:0,0:0:0
261,259,5408,1,0,1:0:0
261,258,5858,2,0,P|272:231|269:199,1,54.0000020599366,0|0,1:0|1:0,0:0:0
246,180,6308,2,0,P|235:153|238:121,1,54.0000020599366,0|0,1:0|1:0,0:0:0
260,101,7208,6,0,P|206:107|152:109,1,108.000004119873,4|0,0:0|1:0,0:0:0
92,171,8108,1,0,0:0:0
143,240,8408,2,0,P|136:277,1,27.0000010299683,0|0,0:0|1:0,0:0:0
133,294,8708,2,0,P|107:300|80:300,1,54.0000020599366,0|0,0:0|1:0,0:0:0
217,271,9458,1,0,1:0:0
236,255,9608,6,0,P|262:249|289:249,1,54.0000020599366,4|0,0:0|0:0,0:0:0
329,325,10208,2,0,P|363:304|373:264,1,81.0000030899049,2|0,0:0|1:0,0:0:0
398,240,10808,2,0,P|432:242,2,27.0000010299683,0|0|0,0:0|1:0|1:0,0:0:0
355,224,11258,2,0,P|321:226,1,27.0000010299683,0|0,0:0|1:0,0:0:0
299,258,11558,6,2,P|224:234|263:210,1,162.00000617981,0|4,0:0|0:0,0:0:0
256,192,16808,5,4,0:0:0
256,192,16958,12,0,18908,0:0:0
197,90,19208,6,0,P|200:37,1,54.0000020599366,4|0,0:0|0:0,0:0:0
250,150,19508,2,0,P|303:153,1,54.0000020599366
190,205,19808,2,0,P|187:258,1,54.0000020599366,4|0,0:0|0:0,0:0:0
137,145,20108,2,0,P|84:142,1,54.0000020599366
26,203,20408,6,0,P|0:205,7,27.0000010299683
68,226,21008,2,0,P|94:224,7,27.0000010299683
136,246,21608,6,0,P|139:300|129:355,1,108.000004119873,4|4,0:0|0:0,0:0:0
224,242,22208,2,0,P|227:188|217:133,1,108.000004119873,4|4,0:0|0:0,0:0:0
22,82,22808,1,4,0:0:0
107,94,23108,1,4,0:0:0
136,175,23408,1,4,0:0:0
82,243,23708,2,0,P|53:245|29:242,1,54.0000020599366,4|0,0:0|0:0,0:0:0
143,303,24008,6,0,P|216:295,1,72,4|2,0:3|0:0,0:3:0
213,201,24308,2,0,P|277:236,1,72,4|2,0:3|0:0,0:3:0
322,154,24608,2,0,P|354:219,1,72,4|2,0:3|0:0,0:3:0
441,183,24908,2,0,P|429:255,1,72,4|2,0:3|0:0,0:3:0
374,324,25208,6,0,P|302:325|226:339,1,144,4|4,3:0|3:0,0:0:0
231,337,25658,1,2,0:0:0
148,360,25808,2,0,P|112:372|76:366,1,72,6|8,0:3|0:3,0:0:0
44,288,26108,2,0,P|15:262|2:228,1,72,6|8,0:3|0:3,0:0:0
88,216,26408,6,0,P|95:178|119:151|119:151|191:163,1,144,4|4,0:3|0:3,0:0:0
276,148,26858,1,2,0:0:0
360,186,27008,2,0,P|430:197|430:197|454:170|461:132,1,144,4|4,0:3|0:3,0:3:0
419,56,27458,1,2,0:0:0
340,92,27608,6,0,P|274:114|199:111,1,144,4|4,3:0|0:3,0:0:0
133,56,28058,1,2,0:0:0
66,110,28208,2,4,P|-7:106,1,72,6|8,3:0|3:0,0:0:0
116,182,28508,2,0,P|189:186,1,72,6|8,3:0|3:0,0:0:0
319,259,28808,6,0,P|283:264|250:249,1,72,4|2,3:0|0:0,0:0:0
298,177,29108,2,0,P|293:141|308:108,1,72,4|2,3:0|0:0,0:0:0
380,155,29408,2,0,P|416:150|449:165,1,72,4|2,0:3|0:0,0:0:0
401,237,29708,2,0,P|406:273|391:306,1,72,4|2,0:3|0:0,0:0:0
308,329,30008,6,0,P|237:306|164:318,1,144,4|4,3:0|3:0,0:0:0
90,350,30458,1,2,0:0:0
99,264,30608,2,0,P|94:193,1,72,6|8,3:0|3:0,0:0:0
231,216,30908,2,0,P|236:145,1,72,6|8,3:0|3:0,0:0:0
307,95,31208,6,0,P|351:83|351:83|389:115|443:107,1,144,4|4,3:0|3:0,0:0:0
506,166,31658,1,2,0:0:0
438,220,31808,2,0,P|455:291,1,72,4|2,3:0|0:0,0:0:0
382,338,32108,2,0,P|365:267,1,72,4|2,3:0|0:0,0:0:0
286,233,32408,6,0,P|252:234|216:247,1,72,2|0,3:0|0:0,0:0:0
300,212,32708,2,0,P|277:175|239:143,1,93.5999957153322,2|0,3:0|0:0,0:0:0
325,207,33008,2,0,P|351:158|361:97,1,115.2,2|0,3:0|0:0,0:0:0
272,27,33308,2,0,P|277:-9,2,36,2|0|2,0:0|0:0|0:0,0:0:0
172,86,33608,6,0,P|101:80|26:79,2,144,4|4|4,3:0|3:0|3:0,0:0:0
252,118,34358,1,2,0:0:0
307,183,34508,2,0,P|380:179,1,72,4|2,0:3|0:0,0:0:0
453,223,34808,6,0,P|478:291|448:353,1,144,4|4,3:0|3:0,0:0:0
390,287,35258,1,2,0:0:0
316,331,35408,2,0,P|279:337|243:327,1,72,6|8,3:0|3:0,0:0:0
147,245,35708,2,0,P|123:215|113:179,1,72,6|8,3:0|3:0,0:0:0
200,97,36008,6,0,P|205:63|203:25,1,72,4|2,3:0|0:0,0:0:0
275,73,36308,2,0,P|319:104|373:87|373:87|351:96|345:117,1,144,4|4,3:0|3:0,0:0:0
418,161,36758,1,2,0:0:0
343,204,36908,2,0,P|348:277,1,72,4|2,3:0|0:0,0:0:0
268,240,37208,6,0,P|272:311|272:311|288:348|328:358,1,144,4|4,3:0|3:0,0:0:0
410,341,37658,1,2,0:0:0
460,270,37808,2,0,P|444:199,1,72,6|8,3:0|3:0,0:0:0
338,80,38108,2,0,P|354:151,1,72,6|8,3:0|3:0,0:0:0
280,200,38408,6,4,P|245:201|209:198,1,72,4|12,0:0|0:0,0:0:0
148,135,38708,2,4,P|113:134|77:137,1,72,4|12,0:0|0:0,0:0:0
30,210,39008,2,4,P|34:286,1,72,4|12,0:0|0:0,0:0:0
119,268,39308,2,4,P|115:344,1,72,4|12,0:0|0:0,0:0:0
185,185,39608,5,4,0:0:0
235,115,39758,1,12,0:0:0
317,141,39908,1,4,0:0:0
317,228,40058,1,12,0:0:0
235,254,40208,1,6,0:0:0
235,167,40358,1,12,0:0:0
317,141,40508,1,6,0:0:0
367,211,40658,1,12,0:0:0
328,288,40808,6,4,P|325:359,2,72,4|12|4,0:0|0:0|0:0,0:0:0
413,273,41258,2,4,P|451:332,2,72,4|12|4,0:0|0:0|0:0,0:0:0
465,204,41708,2,4,P|497:217,2,36,12|4|4,0:0|0:0|0:0,0:0:0
408,138,42008,6,0,P|404:102|405:67,1,72,6|12,0:0|0:0,0:0:0
326,102,42308,2,0,P|308:70|295:37,1,72,6|12,0:0|0:0,0:0:0
243,106,42608,2,4,P|214:83|189:58,2,72,6|12|4,0:0|0:0|0:0,0:0:0
172,156,43058,2,0,P|154:151|138:144,2,36,0|0|0,0:0|0:0|0:0,0:0:0
152,272,44408,6,2,P|192:244|192:244|240:252|256:308|256:308|272:252|320:244|320:244|360:272,1,288,2|0,0:0|0:0,0:0:0
256,64,46808,6,0,P|256:172,2,108,2|2|0,0:0|0:0|0:0,0:0:0
180,24,47408,2,0,P|144:24|108:36,1,72,2|0,0:0|0:0,0:0:0
44,88,47708,2,0,P|18:113|1:147,1,72,2|0,0:0|0:0,0:0:0
60,208,48008,6,0,P|68:260|44:308,2,108,2|2|0,0:0|0:0|0:0,0:0:0
148,216,48608,2,0,P|187:250|200:302,2,108,2|2|0,0:0|0:0|0:0,0:0:0
319,205,49208,6,0,P|276:173|224:172,2,108,2|2|0,0:0|0:0|0:0,0:0:0
322,47,49808,2,0,P|269:51|228:84,2,108,2|2|0,0:0|0:0|0:0,0:0:0
304,128,50408,6,4,P|340:124|340:124|376:128,1,72,6|4,0:0|0:0,0:0:0
424,200,50708,2,4,P|388:204|388:204|352:200,1,72
316,280,51008,2,4,P|352:276|352:276|388:280,1,72
432,352,51308,2,4,P|396:356|396:356|360:352,1,72
224,268,51608,6,4,P|168:296,1,61.2000011672974,6|4,0:0|0:0,0:0:0
156,224,51908,2,4,P|141:284,1,61.2000011672974,4|4,0:0|0:0,0:0:0
80,240,52208,2,4,P|117:290,1,61.2000011672974,4|4,0:0|0:0,0:0:0
48,314,52508,2,4,P|110:317,1,61.2000011672974,4|4,0:0|0:0,0:0:0
156,224,52808,6,0,P|157:188,7,36,4|0|0|0|0|0|0|0,0:0|0:0|0:0|0:0|0:0|0:0|0:0|0:0,0:0:0
185,161,53408,2,0,P|184:125,7,36,0|0|0|0|0|0|0|0,0:0|0:0|0:0|0:0|0:0|0:0|0:0|0:0,0:0:0
217,96,54008,6,0,P|267:89|323:116,2,108,2|2|0,2:0|2:0|2:0,0:0:0
260,170,54608,2,0,P|253:280,2,108,2|2|2,2:0|2:0|2:0,0:0:0
335,212,55208,6,0,P|408:229|472:204,1,144,4|4,3:0|3:0,0:0:0
494,121,55658,1,2,0:0:0
420,76,55808,2,0,P|348:85,1,72,4|2,3:0|0:0,0:0:0
272,42,56108,2,0,P|200:51,1,72,4|2,3:0|0:0,0:0:0
128,98,56408,6,0,P|110:167|124:243,1,144,4|4,3:0|3:0,0:0:0
162,313,56858,1,2,0:0:0
247,302,57008,1,6,3:0:0
266,217,57158,1,2,0:0:0
190,175,57308,2,0,P|201:139|202:101,1,72,6|2,3:0|0:0,0:0:0
260,40,57608,5,4,3:0:0
345,55,57758,1,2,0:0:0
374,136,57908,2,0,P|389:209|360:274,2,144,4|4|4,3:0|3:0|3:0,0:0:0
289,118,58658,1,2,0:0:0
216,164,58808,6,0,P|180:169|144:162,1,72,4|2,3:0|0:0,0:0:0
117,244,59108,2,0,P|81:239|46:245,1,72,4|2,3:0|0:0,0:0:0
84,323,59408,2,0,P|91:287|90:252,1,72,6|2,3:0|0:0,0:0:0
11,143,59708,2,0,P|4:107|5:72,1,72,6|2,3:0|0:0,0:0:0
87,99,60008,6,0,P|126:89|158:112|158:112|197:103|213:71,1,144,4|4,3:0|3:0,0:0:0
290,33,60458,1,2,0:0:0
364,76,60608,2,0,P|436:70,1,72,4|2,3:0|0:0,0:0:0
319,153,60908,2,0,P|247:159,1,72,4|2,3:0|0:0,0:0:0
190,224,61208,6,0,P|226:250|221:299|221:299|253:311|279:291,2,144,4|4|6,3:0|3:0|3:0,0:0:0
119,326,61958,1,2,0:0:0
71,213,62108,2,0,P|-2:219,1,72,6|2,3:0|0:0,0:0:0
33,138,62408,6,0,P|92:132|92:132|134:148|149:190,2,144,4|4|4,3:0|3:0|3:0,0:0:0
65,57,63158,1,2,0:0:0
145,25,63308,2,0,P|181:22|216:27,1,72,4|2,3:0|0:0,0:0:0
268,96,63608,6,4,P|249:240,1,144
394,332,64208,2,4,P|413:188,1,144
285,71,64808,6,0,P|250:69|214:74,1,72,4|2,3:0|0:0,0:0:0
166,146,65108,2,0,P|131:148|95:143,1,72,4|2,3:0|0:0,0:0:0
18,184,65408,2,0,P|53:242|40:314,1,144,4|4,3:0|3:0,0:0:0
155,283,65858,1,2,0:0:0
254,349,66008,6,0,P|286:328|286:328|333:356|388:343,1,144,4|4,3:0|3:0,0:0:0
449,279,66458,1,2,0:0:0
471,195,66608,2,0,P|477:160|470:122,1,72,6|2,3:0|0:0,0:0:0
339,65,66908,2,0,P|333:100|340:138,1,72,6|2,3:0|0:0,0:0:0
278,196,67208,6,0,P|209:213|136:204,1,144,4|4,3:0|3:0,0:0:0
78,140,67658,1,2,0:0:0
48,221,67808,2,0,P|31:290|40:363,1,144,4|4,3:0|3:0,0:0:0
39,361,68258,1,2,0:0:0
126,304,68408,6,0,P|165:306|191:338|191:338,1,72,4|2,3:0|0:0,0:0:0
209,221,68708,2,0,P|241:242|248:282|248:282,1,72,4|2,3:0|0:0,0:0:0
319,188,69008,2,0,P|336:222|322:261|322:261,1,72,6|2,3:0|0:0,0:0:0
435,228,69308,2,0,P|433:267|400:293|400:293,1,72,6|2,3:0|0:0,0:0:0
512,241,69608,6,0,P|520:171|502:98,1,144,6|4,3:0|3:0,0:0:0
426,59,70058,1,2,0:0:0
353,106,70208,2,0,P|279:115|205:103,1,144,4|4,3:0|3:0,0:0:0
137,19,70658,1,2,0:0:0
86,119,70808,6,0,P|70:191|79:265,1,144,4|4,3:0|3:0,0:0:0
154,220,71258,2,0,P|226:215,1,72,2|6,0:0|3:0,0:0:0
286,276,71558,2,0,P|358:281,1,72,2|6,0:0|3:0,0:0:0
432,237,71858,1,0,0:0:0
465,157,72008,6,0,P|462:42,1,108,2|2,0:0|0:0,0:0:0
376,145,72458,1,0,0:0:0
376,145,72608,6,0,P|373:30,1,108,2|2,0:0|0:0,0:0:0
289,135,73058,1,0,0:0:0
289,135,73208,6,0,P|286:20,1,108,6|2,0:0|0:0,0:0:0
204,127,73658,1,0,0:0:0
204,127,73808,6,0,P|201:12,1,108,2|2,0:0|0:0,0:0:0
108,109,74258,1,0,0:0:0
108,109,74408,6,0,P|104:142|106:181,1,72,4|2,3:0|0:0,0:0:0
179,225,74708,2,0,P|183:258|181:297,1,72,4|2,3:0|0:0,0:0:0
102,259,75008,2,0,P|135:255|174:257,1,72,4|2,3:0|0:0,0:0:0
253,291,75308,2,0,P|286:295|325:293,1,72,4|2,3:0|0:0,0:0:0
385,230,75608,6,0,P|356:293|389:359,2,144,4|4|6,3:0|3:0|3:0,0:0:0
462,190,76358,1,2,0:0:0
506,115,76508,2,0,P|508:80|505:43,1,72,6|2,3:0|0:0,0:0:0
419,114,76808,6,0,P|349:100|277:105,1,144,4|4,3:0|3:0,0:0:0
213,164,77258,1,2,0:0:0
179,243,77408,2,0,P|109:257|37:252,1,144,4|4,3:0|3:0,0:0:0
3,172,77858,1,2,0:0:0
51,100,78008,6,0,P|57:64|58:29,1,72,4|2,3:0|0:0,0:0:0
139,159,78308,2,0,P|133:123|132:88,1,72,4|2,3:0|0:0,0:0:0
256,22,78608,1,4,0:0:0
256,22,78908,1,4,0:0:0
256,22,79208,6,0,P|327:26,1,72,4|12,0:0|0:0,0:0:0
299,107,79508,2,0,P|370:111,1,72,4|12,0:0|0:0,0:0:0
335,190,79808,2,0,P|406:194,1,72,4|12,0:0|0:0,0:0:0
378,275,80108,2,0,P|449:279,1,72,4|12,0:0|0:0,0:0:0
324,339,80408,6,4,P|301:314|294:277,1,72,4|12,0:0|0:0,0:0:0
245,205,80708,2,4,P|222:230|215:267,1,72,4|12,0:0|0:0,0:0:0
164,337,81008,2,0,P|141:312|134:275,1,72,6|12,0:0|0:0,0:0:0
85,203,81308,2,0,P|62:228|55:265,1,72,6|12,0:0|0:0,0:0:0
165,181,81608,5,4,0:0:0
248,162,81758,1,12,0:0:0
257,76,81908,1,4,0:0:0
176,42,82058,1,12,0:0:0
121,108,82208,1,6,0:0:0
201,142,82358,1,12,0:0:0
257,76,82508,1,6,0:0:0
212,4,82658,1,12,0:0:0
127,19,82808,6,0,P|92:21,3,36,4|0|0|0,0:0|0:0|0:0|0:0,0:0:0
54,44,83108,2,0,P|43:82|47:117,1,72,4|12,0:0|0:0,0:0:0
160,177,83408,1,4,0:0:0
160,177,83558,1,12,0:0:0
297,151,83708,2,0,P|332:154,2,36,4|0|0,0:0|0:0|0:0,0:0:0
256,192,84008,12,2,86408,0:0:0
88,129,96008,6,0,P|75:177|81:234,2,108,6|2|0,0:0|0:0|0:0,0:0:0
171,151,96608,2,0,P|208:152|245:149,1,72,2|0,0:0|0:0,0:0:0
320,110,96908,2,0,P|357:109|394:112,1,72,2|0,0:0|0:0,0:0:0
443,180,97208,6,0,P|431:289,2,108,2|2|0,0:0|0:0|0:0,0:0:0
339,227,97808,2,0,P|351:336,2,108,2|2|0,0:0|0:0|0:0,0:0:0
266,179,98408,6,0,P|214:195|159:186,2,108,2|2|0,0:0|0:0|0:0,0:0:0
325,116,99008,1,2,0:0:0
307,31,99158,1,0,0:0:0
325,116,99308,1,2,0:0:0
405,147,99458,1,0,0:0:0
494,282,99608,6,0,P|474:252|474:252|464:271|485:266|483:238|444:233|444:233|440:274|422:257|422:257,3,108,2|2|2|0,0:0|0:0|0:0|0:0,0:0:0
328,304,100508,2,0,P|363:312|363:312|396:299,1,72,2|2,0:0|0:0,0:0:0
256,236,100808,5,4,1:0:0
256,236,101858,2,0,P|262:165,1,72,0|4,1:0|1:0,1:0:0
256,236,103058,6,0,P|262:165,1,72,0|4,1:0|1:0,1:0:0
444,203,103658,6,0,P|450:132,1,72,0|4,1:0|1:0,1:0:0
345,87,104258,6,0,P|351:16,2,72,0|0|0,1:0|1:0|1:0,0:0:0
279,143,104708,2,0,P|244:150|207:142,1,72,0|0,1:0|1:0,0:0:0
152,80,105008,2,0,P|116:82,7,36,0|0|0|0|0|0|0|0,1:0|1:0|1:0|1:0|1:0|1:0|1:0|1:0,0:0:0
81,113,105608,6,0,P|55:147|106:113,1,216,4|2,0:0|0:0,0:0:0
193,243,106808,6,4,P|231:184|226:108,1,144,6|4,3:0|3:0,0:0:0
293,56,107258,1,2,0:0:0
374,84,107408,2,0,P|411:86|447:79,1,72,4|2,3:0|0:0,0:0:0
480,158,107708,2,0,P|443:156|407:163,1,72,4|2,3:0|0:0,0:0:0
353,229,108008,6,0,P|363:379,2,144,4|4|6,3:0|3:0|3:0,0:0:0
278,183,108758,1,2,0:0:0
200,220,108908,2,0,P|162:223|129:218,1,72,6|2,3:0|0:0,0:0:0
55,316,109208,6,0,P|35:240|45:175,1,144,6|4,3:0|3:0,0:0:0
97,107,109658,1,2,0:0:0
177,74,109808,2,0,P|248:77,1,72,4|2,3:0|0:0,0:0:0
326,38,110108,2,0,P|397:35,1,72,4|2,3:0|0:0,0:0:0
468,85,110408,6,0,P|499:155|467:216,2,144,4|4|6,3:0|3:0|3:0,0:0:0
410,149,111158,1,2,0:0:0
325,164,111308,2,0,P|291:174|254:167,1,72,4|2,3:0|0:0,0:0:0
99,220,111608,6,0,P|169:204|224:244,1,144,6|4,3:0|3:0,0:0:0
293,296,112058,1,2,0:0:0
373,264,112208,6,0,P|413:209|397:139,1,144,4|4,3:0|3:0,0:0:0
327,87,112658,1,2,0:0:0
249,124,112808,2,0,P|214:124|177:122,1,72,4|2,3:0|0:0,0:0:0
142,200,113108,2,0,P|177:200|214:202,1,72,4|2,3:0|0:0,0:0:0
234,276,113408,2,0,P|385:261,1,144,6|6,3:0|3:0,0:0:0
377,261,113858,1,2,0:0:0
436,161,114008,6,0,P|454:110|447:53,1,108,4|2,3:0|0:0,0:0:0
416,28,114308,2,0,P|365:10|308:17,1,108,4|0,3:0|0:0,0:0:0
280,44,114608,2,0,P|262:95|269:152,1,108,4|0,3:0|0:0,0:0:0
300,177,114908,2,0,P|351:195|408:188,1,108,4|0,3:0|0:0,0:0:0
468,228,115208,6,0,P|491:298|456:359,4,144,6|6|4|4|6,3:0|3:0|3:0|3:0|3:0,0:0:0
384,288,116558,1,2,0:0:0
307,247,116708,2,0,P|235:255,1,72,4|2,3:0|0:0,0:0:0
160,212,117008,2,0,P|153:178|155:141,1,72,4|2,3:0|0:0,0:0:0
260,40,117308,2,0,P|267:74|265:111,1,72,4|2,3:0|0:0,0:0:0
343,149,117608,6,0,P|408:127|487:139,2,144,4|4|6,3:0|3:0|3:0,0:0:0
311,229,118358,1,2,0:0:0
240,278,118508,2,0,P|205:279|167:273,1,72,6|2,3:0|0:0,0:0:0
100,220,118808,6,0,P|93:77,1,144,4|4,3:0|3:0,0:0:0
161,22,119258,1,2,0:0:0
242,50,119408,2,0,P|315:47,1,72,4|2,3:0|0:0,0:0:0
354,123,119708,2,0,P|281:126,1,72,4|2,3:0|0:0,0:0:0
219,186,120008,5,4,3:0:0
156,259,120233,2,0,P|148:295,1,36,2|4,0:0|3:0,0:0:0
219,372,120533,2,0,P|219:325,1,36,2|6,0:0|3:0,0:0:0
282,260,120833,2,0,P|290:295,1,36,2|4,0:0|3:0,0:0:0
372,325,121058,1,2,0:0:0
445,278,121208,6,4,P|451:244|451:207,1,72,4|12,0:0|0:0,0:0:0
366,223,121508,2,4,P|360:189|360:152,1,72,4|12,0:0|0:0,0:0:0
442,126,121808,2,4,P|448:92|448:55,1,72,4|12,0:0|0:0,0:0:0
363,71,122108,2,4,P|357:37|357:0,1,72,4|12,0:0|0:0,0:0:0
278,36,122408,6,0,P|206:36,1,72,4|12,0:0|0:0,0:0:0
245,112,122708,2,0,P|173:112,1,72,4|12,0:0|0:0,0:0:0
209,190,123008,2,0,P|137:190,1,72,6|12,0:0|0:0,0:0:0
176,266,123308,2,0,P|104:266,1,72,6|12,0:0|0:0,0:0:0
242,323,123608,6,4,P|279:322,15,36
312,299,124808,2,4,P|349:300,16,36,6|4|4|4|6|4|4|4|4|4|4|4|4|4|4|4|4,3:0|0:0|0:0|0:0|3:0|0:0|0:0|0:0|0:0|0:0|0:0|0:0|0:0|0:0|0:0|0:0|1:0,0:0:0
256,192,126083,12,0,130808,0:0:0
