osu file format v11

[General]
AudioFilename: Paradise Ghost.mp3
AudioLeadIn: 2500
PreviewTime: 55170
Countdown: 0
SampleSet: Soft
StackLeniency: 0.4
Mode: 0
LetterboxInBreaks: 1

[Editor]
DistanceSpacing: 1
BeatDivisor: 8
GridSize: 16

[Metadata]
Title:PARADISE GHOST
TitleUnicode:PARADISE GHOST
Artist:Ryu* Vs. L.E.D.-G Vs. ZUN
ArtistUnicode:Ryu☆ Vs. L.E.D.-G Vs. ZUN
Creator:Pokie
Version:Extra
Source:
Tags:No_Gu gudbye Byakko+ RandomBemani Mash-up bemani beatmania IIDX 18 Resort Anthem PARADISE LOST Touhou Hiroari Shoots a Strange Bird ~ Till When? Konpaku Youmu
BeatmapID:195305
BeatmapSetID:67133

[Difficulty]
HPDrainRate:8
CircleSize:4
OverallDifficulty:8
ApproachRate:9
SliderMultiplier:1.92
SliderTickRate:2

[Events]
//Background and Video events
0,0,"BG.jpg"
//Break Periods
2,12208,16208
2,86608,94208
//Storyboard Layer 0 (Background)
//Storyboard Layer 1 (Fail)
//Storyboard Layer 2 (Pass)
//Storyboard Layer 3 (Foreground)
//Storyboard Sound Samples
//Background Colour Transformations
3,100,163,162,255

[TimingPoints]
8,600,4,2,1,40,1,0
2408,-133.333333333333,4,2,1,55,0,0
4208,-133.333333333333,4,2,1,40,0,0
4358,-133.333333333333,4,2,1,55,0,0
5408,-133.333333333333,4,2,1,40,0,0
5558,-133.333333333333,4,2,1,55,0,0
6158,-133.333333333333,4,2,1,45,0,0
6308,-133.333333333333,4,2,1,55,0,0
6608,-133.333333333333,4,2,1,28,0,0
7208,-133.333333333333,4,2,1,35,0,0
7358,-133.333333333333,4,2,1,55,0,0
7808,-133.333333333333,4,2,1,45,0,0
7958,-133.333333333333,4,2,1,55,0,0
8558,-133.333333333333,4,2,1,45,0,0
8708,-133.333333333333,4,2,1,55,0,0
9008,-133.333333333333,4,2,1,45,0,0
9158,-133.333333333333,4,2,1,55,0,0
9908,-133.333333333333,4,2,1,45,0,0
10208,-133.333333333333,4,2,1,35,0,0
10358,-133.333333333333,4,2,1,55,0,0
10658,-133.333333333333,4,2,1,45,0,0
10808,-133.333333333333,4,2,1,55,0,0
11108,-133.333333333333,4,2,1,45,0,0
11258,-133.333333333333,4,2,1,55,0,0
11408,-133.333333333333,4,2,1,45,0,0
11708,-133.333333333333,4,2,1,55,0,0
12008,-133.333333333333,4,2,1,45,0,0
19208,300,4,2,1,60,1,0
19208,-133.333333333333,4,1,1,50,0,0
20408,-133.333333333333,4,1,1,55,0,0
21008,-133.333333333333,4,1,1,60,0,0
21458,-133.333333333333,4,1,1,30,0,0
21908,-133.333333333333,4,1,1,45,0,0
22508,-133.333333333333,4,1,1,50,0,0
23408,-83.3333333333333,4,1,1,45,0,0
23708,-83.3333333333333,4,1,1,52,0,0
24008,-100,4,1,1,60,0,0
33308,-100,4,1,1,55,0,0
33533,-100,4,1,1,40,0,0
33608,-100,4,1,1,55,0,1
42908,-100,4,1,1,50,0,1
43170,-100,4,1,1,55,0,0
43208,-133.333333333333,4,1,1,55,0,1
43245,-133.333333333333,4,1,1,48,0,0
44408,-133.333333333333,4,2,1,55,0,0
45608,-133.333333333333,4,1,1,45,0,0
48008,-133.333333333333,4,1,1,50,0,0
50408,-133.333333333333,4,1,1,53,0,0
51608,-117.647058823529,4,1,1,53,0,0
52808,-100,4,1,1,53,0,0
53708,-100,4,1,1,43,0,0
54008,-100,4,1,1,53,0,0
54608,-117.647058823529,4,1,1,53,0,0
54908,-83.3333333333333,4,1,1,53,0,0
55208,-100,4,1,1,55,0,1
57008,-100,4,1,2,55,0,1
57608,-100,4,1,1,55,0,1
61808,-100,4,1,2,55,0,1
62408,-100,4,1,1,55,0,1
64770,-100,4,1,1,55,0,0
64808,-100,4,1,1,55,0,1
72008,-100,4,1,1,45,0,0
72608,-100,4,1,1,50,0,0
73208,-100,4,1,1,53,0,0
73808,-100,4,1,1,45,0,0
74408,-100,4,1,1,55,0,1
74445,-100,4,1,1,53,0,0
79208,-100,4,1,1,53,0,1
79245,-100,4,1,1,53,0,0
84008,-100,4,2,1,53,0,1
84045,-100,4,2,1,53,0,0
86408,-133.333333333333,4,2,1,53,0,0
100808,-181.818181818181,4,2,1,53,0,0
103208,-133.333333333333,4,1,1,53,0,0
105608,-200,4,1,1,53,0,0
106208,-100,4,1,1,40,0,0
106508,-83.3333333333333,4,1,1,53,0,0
106808,-100,4,1,1,53,0,1
116370,-100,4,1,1,53,0,0
116408,-100,4,1,1,53,0,1
121208,-100,4,1,1,53,0,1
123008,-100,4,1,1,53,0,1
125970,-100,4,1,1,53,0,0
126008,-100,4,1,1,53,0,1
126045,-100,4,2,1,50,0,0
127208,-100,4,2,1,40,0,0
128408,-100,4,2,1,30,0,0
129008,-100,4,2,1,20,0,0
129608,-100,4,2,1,15,0,0
130208,-100,4,2,1,10,0,0
130508,-100,4,1,2,5,0,0

[Colours]
Combo1 : 255,255,255
Combo2 : 62,183,137
Combo3 : 24,158,231
Combo4 : 145,197,48
Combo5 : 241,249,108

[HitObjects]
256,192,8,12,0,2108,0:0:0
184,291,2408,6,0,P|330:301,2,144.000005493164,4|0|0,0:0|0:0|0:0,0:0:0
97,222,3908,1,0,0:0:0
198,27,4208,2,0,P|184:113,1,72.0000027465821,0|0,1:0|0:0,0:0:0
207,178,4658,5,0,0:0:0
207,178,4808,2,0,P|51:182,2,144.000005493164,0|0|0,0:0|1:0|0:0,0:0:0
277,135,6158,2,0,P|316:132,1,36.0000013732911,0|0,1:0|0:0,1:0:0
491,39,6608,38,0,P|431:61|431:61|462:100,1,108.000004119873,2|0,0:0|0:0,0:0:0
498,163,7208,37,4,0:0:0
422,240,7508,1,0,0:0:0
350,158,7808,1,0,1:0:0
427,82,8108,1,0,0:0:0
427,82,8258,2,0,P|435:128,1,36.0000013732911,0|0,0:0|0:0,0:0:0
413,207,8558,2,0,P|383:244,1,36.0000013732911,0|0,1:0|0:0,0:0:0
305,254,8858,1,0,0:0:0
305,254,9008,2,0,P|200:244,1,72.0000027465821,0|0,1:0|0:0,0:0:0
210,266,9458,5,0,0:0:0
210,266,9608,1,4,0:0:0
69,298,9908,1,0,1:0:0
45,155,10208,1,8,0:3:0
185,122,10508,1,0,0:0:0
185,122,10658,2,0,P|172:172,1,36.0000013732911,0|0,1:0|0:0,0:0:0
294,131,10958,2,0,P|297:176,1,36.0000013732911,0|0,0:0|1:0,0:0:0
398,108,11258,1,0,0:0:0
398,108,11408,2,0,P|438:184,2,72.0000027465821,0|0|4,1:0|0:0|0:0,0:0:0
256,192,16808,5,4,0:0:0
256,192,16958,12,0,18908,0:0:0
256,192,19208,6,0,P|167:209,1,72.0000027465821,4|0,0:0|0:0,0:0:0
74,208,19508,2,0,P|133:276,1,72.0000027465821,0|0,0:0|0:0,0:0:0
175,363,19808,2,0,P|204:277,1,72.0000027465821,4|0,0:0|0:0,0:0:0
199,112,20108,2,0,P|174:34,1,72.0000027465821,0|0,0:0|0:0,0:0:0
83,30,20408,5,4,0:0:0
62,43,20483,1,0,0:0:0
45,62,20558,1,0,0:0:0
35,85,20633,1,0,0:0:0
41,109,20708,1,0,0:0:0
56,128,20783,1,0,0:0:0
75,143,20858,1,0,0:0:0
100,145,20933,1,0,0:0:0
130,132,21008,5,4,0:0:0
147,154,21083,1,0,0:0:0
156,181,21158,1,0,0:0:0
166,207,21233,1,0,0:0:0
186,182,21308,1,0,0:0:0
212,162,21383,1,0,0:0:0
238,143,21458,22,0,P|268:136,4,18.0000006866455,0|0|0|0|2,0:0|0:0|0:0|0:0|0:0,0:0:0
338,254,21908,2,0,P|361:215,2,36.0000013732911,2|0|0,0:0|0:0|0:0,0:0:0
508,232,22208,2,0,P|469:194,2,36.0000013732911,2|0|0,0:0|0:0|0:0,0:0:0
406,111,22508,53,2,0:0:0
406,111,22658,1,2,0:0:0
406,111,22808,1,4,0:0:0
425,286,22958,1,0,0:0:0
259,219,23108,1,2,0:0:0
395,104,23258,1,0,0:0:0
442,272,23408,22,2,P|350:228|342:328,1,230.39999296875,6|2,0:0|0:0,0:0:0
311,354,23783,1,0,0:0:0
311,354,23858,1,0,0:0:0
311,354,23933,1,0,0:0:0
311,354,24008,1,4,0:0:0
201,268,24158,5,0,0:0:0
270,211,24308,2,0,P|274:115,1,96,2|0,0:0|0:0,0:0:0
108,30,24608,1,0,0:0:0
12,71,24758,1,0,0:0:0
11,174,24908,1,2,0:0:0
106,214,25058,1,0,0:0:0
260,114,25208,6,0,P|211:102|211:102|162:108,1,96,0|0,0:0|0:0,0:0:0
34,317,25508,2,0,P|83:329|83:329|132:323,1,96,2|0,0:0|0:0,0:0:0
220,358,25808,1,6,0:0:0
301,31,26108,1,6,0:0:0
293,48,26408,6,0,P|297:128|297:128|325:166,1,96
512,283,26708,2,0,P|508:203|508:203|480:165,1,96,2|0,0:0|0:0,0:0:0
412,101,27008,1,0,0:0:0
310,248,27158,21,0,0:0:0
368,333,27308,1,2,0:0:0
457,280,27458,1,0,0:0:0
405,190,27608,1,0,0:0:0
231,177,27758,1,0,0:0:0
400,158,27908,1,2,0:0:0
234,94,28058,1,0,0:0:0
394,126,28208,6,0,P|381:68|381:68|431:26,1,96,4|0,0:0|0:0,0:0:0
362,289,28508,2,0,P|375:347|375:347|325:389,1,96,6|0,0:0|0:0,0:0:0
329,368,28733,1,0,0:0:0
312,362,28808,1,0,0:0:0
181,356,28958,5,0,0:0:0
262,274,29108,1,2,0:0:0
193,181,29258,1,0,0:0:0
107,258,29408,2,0,P|12:248,1,96
401,148,29708,2,0,P|497:138,1,96,2|0,0:0|0:0,0:0:0
336,70,30008,5,0,0:0:0
304,180,30158,1,0,0:0:0
392,254,30308,1,2,0:0:0
488,190,30458,1,0,0:0:0
457,79,30608,1,6,0:0:0
42,137,30908,1,6,0:0:0
55,149,31208,22,0,P|76:202|76:202|63:272,1,96
268,379,31508,2,0,P|247:326|247:326|260:256,1,96,2|0,0:0|0:0,0:0:0
323,155,31808,1,0,0:0:0
236,112,31958,1,0,0:0:0
167,178,32108,2,0,P|67:195,1,96,2|0,0:0|0:0,0:0:0
19,327,32408,5,4,0:0:0
19,327,32558,1,0,0:0:0
157,360,32708,1,6,0:0:0
157,360,32858,1,0,0:0:0
184,216,33008,1,4,0:0:0
184,216,33158,1,2,0:0:0
46,192,33308,2,2,P|32:102|32:102|56:124|79:127,1,144,2|0,0:0|0:0,0:0:0
140,86,33608,6,0,P|180:54,3,48,2|0|0|0,0:0|0:0|0:0|0:0,0:0:0
244,153,33908,2,0,P|262:105,3,48,2|0|0|0,0:0|0:0|0:0|0:0,0:0:0
375,162,34208,2,0,P|367:111,3,48,2|0|0|0,0:0|0:0|0:0|0:0,0:0:0
489,114,34508,2,0,P|457:74,3,48,2|0|0|0,0:0|0:0|0:0|0:0,0:0:0
467,33,34808,5,2,0:0:0
429,23,34883,1,0,0:0:0
390,27,34958,1,0,0:0:0
356,44,35033,1,0,0:0:0
336,76,35108,1,2,0:0:0
329,113,35183,1,0,0:0:0
339,149,35258,1,0,0:0:0
366,176,35333,1,0,0:0:0
401,191,35408,2,2,P|466:255|387:317,1,192,6|2,0:0|0:0,0:0:0
411,318,36008,22,0,P|360:350,3,48,2|0|0|0,0:0|0:0|0:0|0:0,0:0:0
281,224,36308,2,0,P|334:252,3,48,2|0|0|0,0:0|0:0|0:0|0:0,0:0:0
269,384,36608,2,0,P|267:323,3,48,2|0|0|0,0:0|0:0|0:0|0:0,0:0:0
200,244,36908,2,0,P|198:183,3,48,2|0|0|0,0:0|0:0|0:0|0:0,0:0:0
266,134,37208,5,2,0:0:0
243,91,37283,1,0,0:0:0
201,67,37358,1,0,0:0:0
153,67,37433,1,0,0:0:0
107,81,37508,1,2,0:0:0
74,115,37583,1,0,0:0:0
63,161,37658,1,0,0:0:0
65,208,37733,1,0,0:0:0
92,247,37808,5,6,0:0:0
257,208,37958,1,0,0:0:0
421,250,38108,1,6,0:0:0
257,192,38258,1,0,0:0:0
300,361,38408,5,6,0:0:0
322,330,38483,1,0,0:0:0
354,310,38558,1,0,0:0:0
387,306,38633,1,0,0:0:0
420,308,38708,1,2,0:0:0
451,271,38783,1,0,0:0:0
467,226,38858,1,0,0:0:0
455,179,38933,1,0,0:0:0
418,147,39008,1,2,0:0:0
370,144,39083,1,0,0:0:0
325,162,39158,1,0,0:0:0
297,201,39233,1,0,0:0:0
294,248,39308,2,0,P|267:238|234:237,3,48,2|0|0|0,0:0|0:0|0:0|0:0,0:0:0
206,203,39608,21,2,0:0:0
206,203,39683,1,0,0:0:0
206,203,39758,1,0,0:0:0
206,203,39833,1,0,0:0:0
206,203,39908,1,2,0:0:0
206,203,39983,1,0,0:0:0
206,203,40058,1,0,0:0:0
206,203,40133,1,0,0:0:0
206,203,40208,2,2,P|152:247|74:235,1,144,6|2,0:0|0:0,0:0:0
15,174,40508,2,0,P|3:105|53:43,1,144,6|0,0:0|0:0,0:0:0
126,18,40808,5,6,0:0:0
158,26,40883,1,0,0:0:0
186,43,40958,1,0,0:0:0
206,69,41033,1,0,0:0:0
214,101,41108,1,2,0:0:0
209,134,41183,1,0,0:0:0
256,127,41258,1,0,0:0:0
303,120,41333,1,0,0:0:0
343,94,41408,1,2,0:0:0
382,66,41483,1,0,0:0:0
429,60,41558,1,0,0:0:0
473,77,41633,1,0,0:0:0
503,114,41708,1,2,0:0:0
512,160,41783,1,0,0:0:0
499,206,41858,1,0,0:0:0
461,235,41933,1,0,0:0:0
408,239,42008,6,0,P|357:228,3,48,6|0|0|0,0:0|0:0|0:0|0:0,0:0:0
260,222,42308,2,0,P|208:248,3,48,6|0|0|0,0:0|0:0|0:0|0:0,0:0:0
142,313,42608,2,0,P|122:366,3,48,6|0|0|0,0:0|0:0|0:0|0:0,0:0:0
94,151,42908,22,0,P|85:116,7,24
111,164,43208,1,4,0:0:0
123,172,44408,5,0,0:0:0
206,122,44558,1,2,0:0:0
114,82,44708,1,0,0:0:0
25,220,44858,5,0,0:0:0
46,311,45008,1,2,0:0:0
145,330,45158,1,0,0:0:0
199,249,45308,1,2,0:0:0
221,238,45383,1,2,0:0:0
244,229,45458,1,2,0:0:0
268,221,45533,1,0,0:0:0
292,214,45608,6,0,P|349:213|401:224,2,108.000004119873,4|0|0,0:0|0:0|0:0,0:0:0
284,200,46208,2,0,P|294:129,1,72.0000027465821
358,375,46508,2,0,P|368:304,1,72.0000027465821,0|0,0:0|0:0,0:0:0
460,164,46808,5,0,0:0:0
512,26,47033,1,0,0:0:0
369,45,47258,1,0,0:0:0
446,182,47408,21,0,0:0:0
362,223,47558,1,0,0:0:0
281,175,47708,1,0,0:0:0
282,81,47858,1,0,0:0:0
197,162,48008,6,0,P|140:154|75:168,2,108.000004119873
269,224,48608,2,0,P|304:178|324:115,2,108.000004119873
170,259,49208,2,0,P|191:312|236:361,2,108.000004119873
64,112,49808,2,0,P|42:58|-2:9,2,108.000004119873
76,119,50408,6,0,P|16:183,1,72.0000027465821,4|0,0:0|0:0,0:0:0
151,177,50708,2,0,P|131:262,1,72.0000027465821,0|0,0:0|0:0,0:0:0
251,186,51008,2,0,P|276:269,1,72.0000027465821,0|0,0:0|0:0,0:0:0
337,135,51308,2,0,P|401:195,1,72.0000027465821,0|0,0:0|0:0,0:0:0
493,338,51608,6,0,P|420:380,1,81.6000015563965,4|0,0:0|0:0,0:0:0
385,179,51908,2,0,P|363:260,1,81.6000015563965
186,199,52208,2,0,P|228:272,1,81.6000015563965
97,363,52508,2,0,P|178:384,1,81.6000015563965
310,376,52808,21,4,0:0:0
320,349,52883,1,0,0:0:0
339,327,52958,1,0,0:0:0
365,315,53033,1,0,0:0:0
389,312,53108,2,0,P|442:316,3,48
345,265,53408,5,4,0:0:0
336,253,53483,1,0,0:0:0
327,241,53558,1,0,0:0:0
318,229,53633,1,0,0:0:0
310,216,53708,2,0,P|272:214,7,24,0|0|0|0|0|0|0|0,0:0|0:0|0:0|0:0|0:0|0:0|0:0|0:0,0:0:0
382,180,54008,2,0,P|411:133,3,48,4|0|0|0,0:0|0:0|0:0|0:0,0:0:0
396,63,54308,2,0,P|354:19,3,48,4|0|0|0,0:0|0:0|0:0|0:0,0:0:0
331,108,54608,38,2,P|281:146|227:132,1,122.400002334595,2|0,0:0|0:0,0:0:0
183,53,54908,38,2,P|249:34|298:114,1,172.799994726563,2|0,0:0|0:0,0:0:0
249,167,55208,5,0,0:0:0
218,180,55283,1,0,0:0:0
187,165,55358,1,0,0:0:0
172,134,55433,1,0,0:0:0
143,115,55508,1,0,0:0:0
109,114,55583,1,0,0:0:0
77,125,55658,1,0,0:0:0
54,150,55733,1,0,0:0:0
41,180,55808,1,0,0:0:0
41,213,55883,1,0,0:0:0
61,239,55958,1,0,0:0:0
88,258,56033,1,0,0:0:0
121,263,56108,2,0,P|229:278,1,96
343,348,56408,21,0,0:0:0
390,341,56483,1,0,0:0:0
423,306,56558,1,0,0:0:0
430,258,56633,1,0,0:0:0
401,219,56708,1,0,0:0:0
357,199,56783,1,0,0:0:0
341,153,56858,1,0,0:0:0
362,110,56933,1,0,0:0:0
406,94,57008,1,4,0:0:0
509,267,57158,1,0,0:0:0
495,159,57308,5,4,0:0:0
425,366,57458,1,0,0:0:0
334,272,57608,6,0,P|280:258,3,48,4|0|0|0,0:0|0:0|0:0|0:0,0:0:0
229,176,57908,2,0,P|225:120,3,48
287,43,58208,2,0,P|338:22,3,48
440,47,58508,2,0,P|475:90,3,48
459,176,58808,5,0,0:0:0
417,164,58883,1,0,0:0:0
374,169,58958,1,0,0:0:0
337,192,59033,1,0,0:0:0
319,231,59108,1,0,0:0:0
316,274,59183,1,0,0:0:0
333,313,59258,1,0,0:0:0
290,303,59333,1,0,0:0:0
247,297,59408,1,4,0:0:0
207,314,59483,1,0,0:0:0
179,347,59558,1,0,0:0:0
142,323,59633,1,0,0:0:0
118,286,59708,1,4,0:0:0
128,244,59783,1,0,0:0:0
157,212,59858,1,0,0:0:0
199,202,59933,1,0,0:0:0
242,205,60008,22,0,P|257:158,3,48,4|0|0|0,0:0|0:0|0:0|0:0,0:0:0
183,28,60308,2,0,P|216:64,3,48
371,82,60608,2,0,P|322:92,3,48
288,70,60908,1,0,0:0:0
158,133,61058,1,0,0:0:0
44,43,61208,5,0,0:0:0
17,83,61283,1,0,0:0:0
20,130,61358,1,0,0:0:0
47,169,61433,1,0,0:0:0
86,196,61508,1,0,0:0:0
124,167,61583,1,0,0:0:0
171,157,61658,1,0,0:0:0
215,174,61733,1,0,0:0:0
245,210,61808,2,0,P|249:254|237:303,1,96,4|0,0:0|0:0,0:0:0
27,375,62108,2,0,P|23:331|35:282,1,96,4|0,0:0|0:0,0:0:0
297,376,62408,5,4,0:0:0
328,333,62483,1,0,0:0:0
375,310,62558,1,0,0:0:0
427,315,62633,1,0,0:0:0
477,331,62708,1,0,0:0:0
500,283,62783,1,0,0:0:0
501,230,62858,1,0,0:0:0
471,186,62933,1,0,0:0:0
422,164,63008,1,0,0:0:0
369,172,63083,1,0,0:0:0
322,196,63158,1,0,0:0:0
278,166,63233,1,0,0:0:0
253,119,63308,1,0,0:0:0
264,67,63383,1,0,0:0:0
302,30,63458,1,0,0:0:0
353,16,63533,1,0,0:0:0
403,31,63608,6,0,P|444:64,3,48,4|0|0|0,0:0|0:0|0:0|0:0,0:0:0
471,186,63908,2,0,P|480:121,3,48,4|0|0|0,0:0|0:0|0:0|0:0,0:0:0
380,124,64208,2,0,P|328:133,3,48,4|0|0|0,0:0|0:0|0:0|0:0,0:0:0
248,228,64508,2,0,P|270:166,3,48,4|0|0|0,0:0|0:0|0:0|0:0,0:0:0
257,99,64808,21,0,0:0:0
209,102,64883,1,0,0:0:0
170,129,64958,1,0,0:0:0
151,172,65033,1,0,0:0:0
155,219,65108,1,0,0:0:0
184,257,65183,1,0,0:0:0
227,276,65258,1,0,0:0:0
274,270,65333,1,0,0:0:0
312,240,65408,1,0,0:0:0
321,198,65483,1,0,0:0:0
361,213,65558,1,0,0:0:0
401,227,65633,1,0,0:0:0
441,242,65708,2,0,P|453:136,1,96
296,27,66008,5,0,0:0:0
261,43,66083,1,0,0:0:0
226,59,66158,1,0,0:0:0
190,74,66233,1,0,0:0:0
161,99,66308,1,0,0:0:0
153,136,66383,1,0,0:0:0
167,171,66458,1,0,0:0:0
200,189,66533,1,0,0:0:0
237,182,66608,1,4,0:0:0
73,142,66758,1,0,0:0:0
153,292,66908,5,4,0:0:0
73,142,67058,1,0,0:0:0
12,292,67208,6,0,P|30:348,1,48,4|0,0:0|0:0,0:0:0
89,384,67358,2,0,P|147:384,1,48
213,341,67508,2,0,P|231:285,3,48
286,186,67808,22,0,P|316:229,1,48
354,334,67958,2,0,P|376:286,1,48
446,202,68108,2,0,P|393:206,3,48
498,142,68408,5,0,0:0:0
489,99,68483,1,0,0:0:0
459,67,68558,1,0,0:0:0
417,54,68633,1,0,0:0:0
374,63,68708,1,0,0:0:0
341,91,68783,1,0,0:0:0
327,132,68858,1,0,0:0:0
304,168,68933,1,0,0:0:0
263,183,69008,1,4,0:0:0
221,171,69083,1,0,0:0:0
193,138,69158,1,0,0:0:0
181,96,69233,1,0,0:0:0
188,53,69308,2,0,P|243:38,3,48,4|0|0|0,0:0|0:0|0:0|0:0,0:0:0
103,46,69608,5,4,0:0:0
59,65,69683,1,0,0:0:0
34,106,69758,1,0,0:0:0
27,153,69833,1,0,0:0:0
45,197,69908,1,0,0:0:0
81,228,69983,1,0,0:0:0
127,238,70058,1,0,0:0:0
172,221,70133,1,0,0:0:0
209,191,70208,2,0,P|214:144,3,48
260,250,70508,2,0,P|250:359,1,96,0|0,0:0|0:0,0:0:0
436,379,70808,5,0,0:0:0
411,337,70883,1,0,0:0:0
413,289,70958,1,0,0:0:0
449,257,71033,1,0,0:0:0
494,243,71108,1,0,0:0:0
502,195,71183,1,0,0:0:0
472,157,71258,1,0,0:0:0
430,143,71333,1,0,0:0:0
389,157,71408,2,0,P|340:168|291:152,1,96,4|0,0:0|0:0,0:0:0
92,48,71708,2,0,P|141:37|190:53,1,96,4|0,0:0|0:0,0:0:0
322,42,72008,6,0,P|384:37,7,48,4|0|0|0|0|0|0|0,0:0|0:0|0:0|0:0|0:0|0:0|0:0|0:0,0:0:0
192,139,72608,2,0,P|130:134,7,48
309,215,73208,2,0,P|371:210,7,48,4|0|0|0|4|0|0|0,0:0|0:0|0:0|0:0|0:0|0:0|0:0|0:0,0:0:0
213,315,73808,2,0,P|167:311,11,32,2|0|0|0|0|0|2|0|0|0|0|0,0:0|0:0|0:0|0:0|0:0|0:0|0:0|0:0|0:0|0:0|0:0|0:0,0:0:0
239,335,74408,5,4,0:0:0
342,311,74558,2,0,P|393:310|446:338,1,96,0|2,0:0|0:0,0:0:0
501,247,74858,1,0,0:0:0
501,247,74933,1,0,0:0:0
501,247,75008,2,0,P|503:140,1,96
340,32,75308,2,0,P|338:139,1,96,2|0,0:0|0:0,0:0:0
257,195,75608,5,0,0:0:0
142,180,75758,1,0,0:0:0
197,269,75908,1,2,0:0:0
82,254,76058,1,0,0:0:0
152,359,76208,38,0,P|154:314|196:268|196:268|93:278,1,192,4|4,0:0|0:0,0:0:0
6,158,76658,53,0,0:0:0
20,138,76733,1,0,0:0:0
34,117,76808,2,0,P|132:107,1,96
354,49,77108,2,0,P|256:39,1,96,2|0,0:0|0:0,0:0:0
242,56,77333,1,0,0:0:0
225,73,77408,2,0,P|226:168,1,96
67,324,77708,2,0,P|66:229,1,96,2|0,0:0|0:0,0:0:0
181,275,78008,21,0,0:0:0
343,204,78158,1,0,0:0:0
205,96,78308,1,2,0:0:0
248,195,78458,1,0,0:0:0
248,195,78533,1,0,0:0:0
248,195,78608,2,2,P|309:168|384:194,1,144,2|0,0:0|0:0,0:0:0
444,258,78908,2,2,P|383:285|308:259,1,144,2|0,0:0|0:0,0:0:0
281,94,79208,5,6,0:0:0
306,81,79283,1,0,0:0:0
332,70,79358,1,0,0:0:0
358,58,79433,1,0,0:0:0
401,63,79508,1,2,0:0:0
401,63,79583,1,0,0:0:0
401,63,79658,1,0,0:0:0
401,63,79733,1,0,0:0:0
401,63,79808,2,2,P|453:68|483:104,1,96,2|0,0:0|0:0,0:0:0
482,286,80108,2,2,P|430:281|400:245,1,96,2|0,0:0|0:0,0:0:0
232,206,80408,5,2,0:0:0
207,193,80483,1,0,0:0:0
181,182,80558,1,0,0:0:0
155,170,80633,1,0,0:0:0
128,161,80708,1,2,0:0:0
112,172,80783,1,0,0:0:0
96,183,80858,1,0,0:0:0
80,194,80933,1,0,0:0:0
65,207,81008,2,2,P|62:261|87:301,1,96,6|0,0:0|0:0,0:0:0
298,358,81308,2,2,P|301:304|276:264,1,96,6|0,0:0|0:0,0:0:0
220,72,81608,5,6,0:0:0
220,72,81683,1,0,0:0:0
220,72,81758,1,0,0:0:0
220,72,81833,1,0,0:0:0
220,72,81908,2,2,P|320:67,1,96,2|0,0:0|0:0,0:0:0
492,188,82208,21,6,0:0:0
472,208,82283,1,0,0:0:0
452,228,82358,1,0,0:0:0
430,246,82433,1,0,0:0:0
407,264,82508,2,2,P|307:259,1,96,2|0,0:0|0:0,0:0:0
27,269,82808,5,6,0:0:0
47,289,82883,1,0,0:0:0
67,309,82958,1,0,0:0:0
89,327,83033,1,0,0:0:0
112,345,83108,2,2,P|263:342,1,144,6|0,0:0|0:0,0:0:0
318,271,83408,2,2,P|338:209|313:126,1,144,6|0,0:0|0:0,0:0:0
244,65,83708,38,0,P|224:45,7,24,0|0|0|0|0|0|0|0,0:0|0:0|0:0|0:0|0:0|0:0|0:0|0:0,0:0:0
238,89,84008,1,4,0:0:0
256,192,84045,12,2,86408,0:0:0
256,192,94808,12,0,95858,0:0:0
153,237,96008,6,0,P|154:293|168:343,2,108.000004119873,4|2|0,0:0|0:0|0:0,0:0:0
142,223,96608,2,0,P|222:218,1,72.0000027465821
100,113,96908,2,0,P|20:118,1,72.0000027465821,2|0,0:0|0:0,0:0:0
167,53,97208,5,0,0:0:0
281,189,97433,1,2,0:0:0
121,217,97658,1,0,0:0:0
232,112,97808,2,0,P|281:103|343:123,2,108.000004119873,0|2|0,0:0|0:0|0:0,0:0:0
362,353,98408,6,0,P|313:362|251:342,2,108.000004119873,0|2|0,0:0|0:0|0:0,0:0:0
390,361,99008,2,0,P|457:315,1,72.0000027465821
330,239,99308,2,0,P|364:167,1,72.0000027465821,2|0,0:0|0:0,0:0:0
492,101,99608,5,0,0:0:0
492,101,99833,1,2,0:0:0
492,101,100058,1,0,0:0:0
280,49,100283,2,0,P|396:40,1,108.000004119873,2|0,0:0|0:0,0:0:0
506,129,100658,5,0,0:0:0
506,128,100808,2,0,P|475:195|475:195|475:269|475:269|405:270|355:244|353:147|406:118,1,369.600011279297,4|0,1:0|1:0,0:0:0
79,232,102008,2,0,P|92:189|92:189|80:150|80:150|96:120|93:92|93:92|161:115|161:115|147:197|212:220|253:211,1,369.600011279297,4|0,1:0|1:0,0:0:0
12,100,103208,5,4,0:0:0
341,154,103433,2,0,P|233:137,1,108.000004119873,0|0,0:0|0:0,0:0:0
216,64,103733,2,0,P|178:69,1,36.0000013732911,0|4,0:0|0:0,0:0:0
69,241,104033,6,0,P|189:219,1,108.000004119873,0|0,0:0|0:0,0:0:0
246,252,104333,1,0,0:0:0
246,252,104408,1,4,0:0:0
255,137,104558,1,0,0:0:0
360,93,104708,1,0,0:0:0
457,154,104858,1,0,0:0:0
445,268,105008,1,0,0:0:0
417,258,105083,1,0,0:0:0
389,250,105158,1,0,0:0:0
361,240,105233,1,0,0:0:0
340,240,105308,1,0,0:0:0
340,240,105383,1,0,0:0:0
340,240,105458,1,0,0:0:0
340,240,105533,1,0,0:0:0
340,240,105608,38,0,P|256:195|205:260,1,192,4|2,0:0|0:0,0:0:0
139,300,106283,6,0,P|115:318,5,24
155,327,106508,2,0,P|208:342|262:312,1,115.199996484375,2|0,0:0|0:0,0:0:0
346,120,106808,6,0,P|285:89|208:107,1,144,6|0,0:0|0:0,0:0:0
199,177,107108,2,0,P|144:182|106:163,1,96,8|2,0:0|0:0,0:0:0
90,136,107333,1,0,0:0:0
82,103,107408,2,0,P|105:52|140:29,1,96,0|2,0:0|0:0,0:0:0
243,23,107708,5,8,0:0:0
295,217,107858,1,2,0:0:0
108,166,108008,2,0,P|214:153,2,96,0|0|10,0:0|0:0|0:0,0:0:0
15,218,108458,1,0,0:0:0
15,218,108533,1,0,0:0:0
15,218,108608,2,0,P|-5:262|1:314,1,96,4|0,0:0|0:0,0:0:0
196,383,108908,2,0,P|216:339|210:287,1,96,12|0,0:0|0:0,0:0:0
311,77,109208,6,0,P|291:121|320:211,1,144,6|0,0:0|0:0,0:0:0
377,251,109508,2,8,P|428:259|474:236,1,96,8|2,0:0|0:0,0:0:0
499,172,109733,1,0,0:0:0
499,172,109808,1,0,0:0:0
393,110,109958,1,2,0:0:0
504,68,110108,1,8,0:0:0
406,12,110258,1,2,0:0:0
375,210,110408,22,0,P|278:194,1,96,0|0,0:0|0:0,0:0:0
147,106,110708,2,0,P|181:198,1,96,8|0,0:0|0:0,0:0:0
174,354,111008,2,0,P|236:277,1,96,4|0,0:0|0:0,0:0:0
191,28,111308,2,0,P|253:104,1,96,12|0,0:0|0:0,0:0:0
400,206,111608,5,6,0:0:0
480,137,111758,1,0,0:0:0
480,137,111833,1,0,0:0:0
480,137,111908,1,8,0:0:0
369,104,112058,1,2,0:0:0
387,231,112208,2,0,P|491:220,2,96,0|0|8,0:0|0:0|0:0,0:0:0
271,241,112658,1,0,0:0:0
136,174,112808,6,0,P|32:163,2,96,0|2|8,0:0|0:0|0:0,0:0:0
229,124,113258,1,2,0:0:0
229,124,113333,1,0,0:0:0
229,124,113408,1,4,0:0:0
136,72,113558,1,2,0:0:0
80,204,113708,2,8,P|108:309,1,96,12|0,0:0|0:0,0:0:0
191,358,114008,6,0,P|290:362|290:362|328:335,1,144,6|2,0:0|0:0,0:0:0
385,286,114308,2,0,P|362:240|321:221,1,96,8|2,0:0|0:0,0:0:0
289,221,114533,1,0,0:0:0
259,236,114608,2,0,P|230:278|234:323,1,96,2|0,0:0|0:0,0:0:0
452,370,114908,2,0,P|480:327|476:282,1,96,8|2,0:0|0:0,0:0:0
435,193,115208,21,4,0:0:0
435,193,115358,1,2,0:0:0
297,136,115508,1,12,0:0:0
297,136,115658,1,2,0:0:0
384,337,115808,1,2,0:0:0
246,276,115958,1,6,0:0:0
384,337,116108,2,2,P|374:233|374:233|334:266,1,144,10|0,0:0|0:0,0:0:0
304,340,116408,6,0,P|245:364|174:322,1,144,6|0,0:0|0:0,0:0:0
166,256,116708,2,0,P|186:213|240:200,1,96,8|2,0:0|0:0,0:0:0
258,201,116933,1,0,0:0:0
286,206,117008,2,0,P|280:103,1,96,0|2,0:0|0:0,0:0:0
54,26,117308,2,0,P|60:129,1,96,8|2,0:0|0:0,0:0:0
24,257,117608,6,0,P|89:271|157:215,1,144,0|2,0:0|0:0,0:0:0
132,152,117908,2,8,P|31:145,1,96,8|2,0:0|0:0,0:0:0
231,322,118208,2,0,P|166:336|98:280,1,144,6|0,0:0|0:0,0:0:0
137,216,118508,2,8,P|238:209,1,96,12|2,0:0|0:0,0:0:0
252,187,118733,1,0,0:0:0
271,165,118808,6,0,P|339:141|392:181,1,144,6|0,0:0|0:0,0:0:0
404,227,119108,1,8,0:0:0
301,270,119258,1,2,0:0:0
301,270,119333,1,0,0:0:0
301,270,119408,1,2,0:0:0
423,69,119558,1,2,0:0:0
485,140,119708,2,0,P|500:184|488:239,1,96,8|0,0:0|0:0,0:0:0
382,343,120008,22,0,P|280:338,1,96,0|0,0:0|0:0,0:0:0
128,240,120308,2,0,P|230:235,1,96,8|0,0:0|0:0,0:0:0
408,106,120608,2,0,P|306:101,1,96,4|0,0:0|0:0,0:0:0
104,106,120908,2,0,P|206:101,1,96,12|0,0:0|0:0,0:0:0
304,23,121208,5,4,0:0:0
417,45,121358,1,0,0:0:0
468,147,121508,1,8,0:0:0
409,246,121658,1,0,0:0:0
296,162,121808,5,0,0:0:0
200,161,121958,1,0,0:0:0
257,83,122108,1,8,0:0:0
352,82,122258,1,0,0:0:0
234,283,122408,5,4,0:0:0
186,176,122558,1,0,0:0:0
70,182,122708,1,8,0:0:0
27,289,122858,1,0,0:0:0
154,356,123008,22,0,P|161:240,1,96,4|0,0:0|0:0,0:0:0
47,28,123308,2,0,P|40:144,1,96,12|0,0:0|0:0,0:0:0
217,144,123608,5,4,0:0:0
245,125,123683,1,0,0:0:0
272,117,123758,1,0,0:0:0
300,119,123833,1,0,0:0:0
327,127,123908,1,0,0:0:0
350,143,123983,1,0,0:0:0
367,166,124058,2,0,P|366:229,1,48
412,295,124208,2,0,P|454:320,3,48,4|0|0|0,0:0|0:0|0:0|0:0,0:0:0
311,291,124508,2,0,P|269:314,3,48
361,284,124808,5,4,0:0:0
384,253,124883,1,0,0:0:0
418,236,124958,1,0,0:0:0
453,222,125033,1,0,0:0:0
481,196,125108,1,4,0:0:0
494,160,125183,1,0,0:0:0
497,121,125258,1,0,0:0:0
477,88,125333,1,0,0:0:0
447,63,125408,2,0,P|393:42,3,48,4|0|0|0,0:0|0:0|0:0|0:0,0:0:0
311,62,125708,2,0,P|269:102,3,48,4|0|0|0,0:0|0:0|0:0|0:0,0:0:0
300,31,126008,21,4,2:0:0
256,192,126045,12,0,130808,2:0:0
