osu file format v14

[General]
AudioFilename: Paradise Ghost.mp3
AudioLeadIn: 0
PreviewTime: 55208
Countdown: 0
SampleSet: Soft
StackLeniency: 0.7
Mode: 3
LetterboxInBreaks: 0
SpecialStyle: 0
WidescreenStoryboard: 1

[Editor]
DistanceSpacing: 1
BeatDivisor: 8
GridSize: 16
TimelineZoom: 1.8

[Metadata]
Title:PARADISE GHOST
TitleUnicode:PARADISE GHOST
Artist:Ryu* Vs. L.E.D.-G Vs. ZUN
ArtistUnicode:Ryu☆ Vs. L.E.D.-G Vs. ZUN
Creator:Adinata28
Version:7K Normal
Source:
Tags:byakko+ randombemani mash-up bemani beatmania iidx 18 resort anthem paradise lost touhou
BeatmapID:723644
BeatmapSetID:324336

[Difficulty]
HPDrainRate:7
CircleSize:7
OverallDifficulty:7
ApproachRate:5
SliderMultiplier:1.4
SliderTickRate:1

[Events]
//Background and Video events
0,0,"Background.jpg",0,0
//Break Periods
//Storyboard Layer 0 (Background)
//Storyboard Layer 1 (Fail)
//Storyboard Layer 2 (Pass)
//Storyboard Layer 3 (Foreground)
//Storyboard Sound Samples

[TimingPoints]
8,300,4,2,4,40,1,0
12008,-100,4,2,4,10,0,0
19208,-100,4,2,4,40,0,0
43508,-100,4,2,4,10,0,0
50408,-100,4,2,4,40,0,0
55208,-100,4,2,4,40,0,1
74408,-100,4,2,4,40,0,0
85958,-100,4,2,4,10,0,0
96008,-100,4,2,4,40,0,0

[HitObjects]
256,192,158,128,0,2408:0:0:0:0:
109,192,2408,1,2,0:0:0:0:
402,192,2408,1,2,0:0:0:0:
182,192,2708,1,2,0:0:0:0:
402,192,3008,1,2,0:0:0:0:
109,192,3008,1,8,0:0:0:0:
329,192,3308,1,2,0:0:0:0:
475,192,3458,1,2,0:0:0:0:
36,192,3608,1,2,0:0:0:0:
182,192,3758,1,2,0:0:0:0:
329,192,3758,1,8,0:0:0:0:
36,192,3908,1,2,0:0:0:0:
109,192,4208,1,8,0:0:0:0:
402,192,4208,1,2,0:0:0:0:
256,192,4508,1,2,0:0:0:0:
109,192,4658,1,8,0:0:0:0:
402,192,4658,1,2,0:0:0:0:
256,192,4808,1,2,0:0:0:0:
36,192,5108,1,2,0:0:0:0:
256,192,5258,1,2,0:0:0:0:
36,192,5408,1,2,0:0:0:0:
448,192,5408,1,8,0:0:0:0:
192,192,5708,1,2,0:0:0:0:
320,192,5858,1,2,0:0:0:0:
192,192,6008,1,2,0:0:0:0:
64,192,6158,1,2,0:0:0:0:
448,192,6158,1,8,0:0:0:0:
256,192,6308,1,2,0:0:0:0:
109,192,6608,1,2,0:0:0:0:
402,192,6608,1,8,0:0:0:0:
192,192,7208,1,4,0:0:0:0:
320,192,7208,1,2,0:0:0:0:
64,192,7508,1,2,0:0:0:0:
109,192,7658,1,2,0:0:0:0:
192,192,7808,1,8,0:0:0:0:
475,192,7808,1,2,0:0:0:0:
329,192,8108,1,2,0:0:0:0:
256,192,8258,1,2,0:0:0:0:
109,192,8558,1,8,0:0:0:0:
402,192,8558,1,2,0:0:0:0:
256,192,8708,1,2,0:0:0:0:
64,192,9008,1,8,0:0:0:0:
448,192,9008,1,2,0:0:0:0:
320,192,9308,1,2,0:0:0:0:
192,192,9458,1,2,0:0:0:0:
64,192,9608,1,2,0:0:0:0:
448,192,9608,1,4,0:0:0:0:
402,192,9908,1,8,0:0:0:0:
109,192,9908,1,2,0:0:0:0:
256,192,10208,1,2,0:0:0:0:
256,192,10508,1,2,0:0:0:0:
192,192,10658,1,2,0:0:0:0:
329,192,10658,1,8,0:0:0:0:
36,192,10958,1,2,0:0:0:0:
329,192,11108,1,2,0:0:0:0:
475,192,11108,1,8,0:0:0:0:
36,192,11408,1,8,0:0:0:0:
448,192,11408,128,2,12008:0:0:0:0:
256,192,12008,1,2,0:0:0:0:
64,192,12008,128,4,12608:0:0:0:0:
329,192,12608,128,0,13208:0:0:0:0:
182,192,13208,128,0,13808:0:0:0:0:
109,192,13808,128,0,14108:0:0:0:0:
256,192,14108,128,0,14408:0:0:0:0:
402,192,14408,128,0,15608:0:0:0:0:
256,192,15608,128,0,16808:0:0:0:0:
475,192,16808,1,4,0:0:0:0:
36,192,16808,128,0,19208:0:0:0:0:
256,192,18608,128,0,19208:0:0:0:0:
448,192,19208,1,4,0:0:0:0:
182,192,19208,1,2,0:0:0:0:
402,192,19358,1,2,0:0:0:0:
329,192,19508,1,2,0:0:0:0:
36,192,19658,1,2,0:0:0:0:
329,192,19808,1,4,0:0:0:0:
182,192,19808,1,2,0:0:0:0:
402,192,19958,1,2,0:0:0:0:
256,192,20108,1,2,0:0:0:0:
109,192,20258,1,2,0:0:0:0:
402,192,20408,1,4,0:0:0:0:
475,192,20408,1,2,0:0:0:0:
256,192,20558,1,2,0:0:0:0:
109,192,20708,1,2,0:0:0:0:
329,192,20858,1,2,0:0:0:0:
475,192,21008,1,2,0:0:0:0:
182,192,21008,1,4,0:0:0:0:
36,192,21158,1,2,0:0:0:0:
192,192,21308,1,2,0:0:0:0:
329,192,21458,1,2,0:0:0:0:
36,192,21608,1,0,0:0:0:0:
475,192,21608,1,4,0:0:0:0:
192,192,21908,1,0,0:0:0:0:
320,192,21908,1,4,0:0:0:0:
402,192,22208,1,0,0:0:0:0:
448,192,22208,1,4,0:0:0:0:
36,192,22508,1,0,0:0:0:0:
109,192,22508,1,4,0:0:0:0:
475,192,22808,1,4,0:0:0:0:
329,192,22808,1,0,0:0:0:0:
36,192,23108,1,4,0:0:0:0:
182,192,23108,1,0,0:0:0:0:
109,192,23408,1,0,0:0:0:0:
402,192,23408,1,4,0:0:0:0:
192,192,23708,1,2,0:0:0:0:
320,192,23708,1,4,0:0:0:0:
448,192,24008,1,2,0:0:0:0:
36,192,24308,1,2,0:0:0:0:
182,192,24458,1,2,0:0:0:0:
448,192,24758,1,2,0:0:0:0:
320,192,24908,1,2,0:0:0:0:
109,192,25058,1,2,0:0:0:0:
256,192,25208,1,2,0:0:0:0:
402,192,25508,1,2,0:0:0:0:
182,192,25658,1,2,0:0:0:0:
36,192,25808,1,2,0:0:0:0:
475,192,25808,1,4,0:0:0:0:
109,192,26108,1,2,0:0:0:0:
402,192,26108,1,4,0:0:0:0:
182,192,26408,1,2,0:0:0:0:
329,192,26408,1,4,0:0:0:0:
402,192,26708,1,2,0:0:0:0:
256,192,26858,1,2,0:0:0:0:
64,192,27158,1,2,0:0:0:0:
192,192,27308,1,2,0:0:0:0:
320,192,27458,1,2,0:0:0:0:
475,192,27608,1,2,0:0:0:0:
402,192,27908,1,2,0:0:0:0:
256,192,28058,1,2,0:0:0:0:
109,192,28358,1,2,0:0:0:0:
182,192,28508,1,2,0:0:0:0:
402,192,28658,1,2,0:0:0:0:
329,192,28808,1,2,0:0:0:0:
109,192,29108,1,2,0:0:0:0:
402,192,29258,1,2,0:0:0:0:
256,192,29558,1,2,0:0:0:0:
109,192,29708,1,2,0:0:0:0:
402,192,29858,1,2,0:0:0:0:
256,192,30008,1,2,0:0:0:0:
329,192,30308,1,2,0:0:0:0:
182,192,30458,1,2,0:0:0:0:
36,192,30608,1,2,0:0:0:0:
475,192,30608,1,4,0:0:0:0:
192,192,30908,1,2,0:0:0:0:
320,192,30908,1,4,0:0:0:0:
109,192,31208,1,2,0:0:0:0:
402,192,31208,1,4,0:0:0:0:
448,192,31508,1,2,0:0:0:0:
320,192,31658,1,2,0:0:0:0:
192,192,31958,1,2,0:0:0:0:
320,192,32108,1,2,0:0:0:0:
36,192,32408,1,2,0:0:0:0:
182,192,32408,1,4,0:0:0:0:
109,192,32708,1,2,0:0:0:0:
256,192,32708,1,4,0:0:0:0:
182,192,33008,1,2,0:0:0:0:
329,192,33008,1,4,0:0:0:0:
256,192,33308,1,2,0:0:0:0:
402,192,33308,1,4,0:0:0:0:
448,192,33608,1,2,0:0:0:0:
320,192,33758,1,2,0:0:0:0:
192,192,33908,1,2,0:0:0:0:
64,192,34058,1,2,0:0:0:0:
448,192,34208,1,2,0:0:0:0:
320,192,34358,1,2,0:0:0:0:
192,192,34508,1,2,0:0:0:0:
109,192,34808,1,2,0:0:0:0:
256,192,34958,1,2,0:0:0:0:
402,192,35108,1,2,0:0:0:0:
109,192,35258,1,2,0:0:0:0:
182,192,35408,1,2,0:0:0:0:
475,192,35408,1,4,0:0:0:0:
64,192,35708,1,2,0:0:0:0:
320,192,35708,1,4,0:0:0:0:
109,192,36008,1,2,0:0:0:0:
256,192,36158,1,2,0:0:0:0:
402,192,36308,1,2,0:0:0:0:
109,192,36458,1,2,0:0:0:0:
256,192,36608,1,2,0:0:0:0:
402,192,36758,1,2,0:0:0:0:
182,192,36908,1,2,0:0:0:0:
329,192,37058,1,2,0:0:0:0:
475,192,37208,1,2,0:0:0:0:
36,192,37358,1,2,0:0:0:0:
329,192,37508,1,2,0:0:0:0:
182,192,37658,1,2,0:0:0:0:
320,192,37808,1,2,0:0:0:0:
182,192,37958,1,2,0:0:0:0:
475,192,38108,1,2,0:0:0:0:
36,192,38258,1,2,0:0:0:0:
192,192,38408,1,2,0:0:0:0:
320,192,38558,1,2,0:0:0:0:
448,192,38708,1,2,0:0:0:0:
109,192,38858,1,2,0:0:0:0:
402,192,39008,1,2,0:0:0:0:
109,192,39158,1,2,0:0:0:0:
402,192,39308,1,2,0:0:0:0:
36,192,39458,1,2,0:0:0:0:
182,192,39608,1,2,0:0:0:0:
36,192,39758,1,2,0:0:0:0:
475,192,39908,1,2,0:0:0:0:
329,192,40058,1,2,0:0:0:0:
475,192,40208,1,2,0:0:0:0:
329,192,40358,1,2,0:0:0:0:
36,192,40508,1,2,0:0:0:0:
256,192,40658,1,2,0:0:0:0:
109,192,40808,1,2,0:0:0:0:
402,192,40958,1,2,0:0:0:0:
109,192,41108,1,2,0:0:0:0:
402,192,41258,1,2,0:0:0:0:
36,192,41408,1,2,0:0:0:0:
109,192,41558,1,2,0:0:0:0:
475,192,41708,1,2,0:0:0:0:
402,192,41858,1,2,0:0:0:0:
329,192,42008,1,4,0:0:0:0:
182,192,42008,1,2,0:0:0:0:
402,192,42308,1,4,0:0:0:0:
109,192,42308,1,2,0:0:0:0:
36,192,42608,1,4,0:0:0:0:
475,192,42608,1,2,0:0:0:0:
109,192,42908,1,6,0:0:0:0:
402,192,42908,1,4,0:0:0:0:
329,192,43208,1,4,0:0:0:0:
182,192,43208,1,2,0:0:0:0:
256,192,43508,1,0,0:0:0:0:
109,192,43808,1,0,0:0:0:0:
402,192,43958,1,0,0:0:0:0:
256,192,44108,1,0,0:0:0:0:
109,192,44258,1,0,0:0:0:0:
402,192,44408,1,0,0:0:0:0:
182,192,44558,1,0,0:0:0:0:
320,192,44708,1,0,0:0:0:0:
36,192,44858,1,0,0:0:0:0:
192,192,45008,1,0,0:0:0:0:
475,192,45158,1,0,0:0:0:0:
329,192,45308,128,0,45608:0:0:0:0:
36,192,45608,1,2,0:0:0:0:
182,192,45833,1,2,0:0:0:0:
256,192,46058,1,2,0:0:0:0:
475,192,46358,1,2,0:0:0:0:
109,192,46508,1,2,0:0:0:0:
402,192,46658,1,2,0:0:0:0:
36,192,46808,1,2,0:0:0:0:
256,192,47033,1,2,0:0:0:0:
182,192,47258,1,2,0:0:0:0:
329,192,47558,1,2,0:0:0:0:
402,192,47708,1,2,0:0:0:0:
475,192,47858,1,2,0:0:0:0:
192,192,48008,1,2,0:0:0:0:
329,192,48233,1,2,0:0:0:0:
182,192,48458,1,2,0:0:0:0:
329,192,48608,1,2,0:0:0:0:
109,192,48833,1,2,0:0:0:0:
402,192,49058,1,2,0:0:0:0:
109,192,49208,1,2,0:0:0:0:
402,192,49433,1,2,0:0:0:0:
64,192,49658,1,2,0:0:0:0:
475,192,49808,1,2,0:0:0:0:
36,192,50033,1,2,0:0:0:0:
402,192,50258,1,2,0:0:0:0:
329,192,50408,1,2,0:0:0:0:
64,192,50633,1,2,0:0:0:0:
320,192,50858,1,2,0:0:0:0:
192,192,51158,1,2,0:0:0:0:
448,192,51308,1,2,0:0:0:0:
109,192,51458,1,2,0:0:0:0:
36,192,51608,1,2,0:0:0:0:
329,192,51833,1,2,0:0:0:0:
402,192,52058,1,2,0:0:0:0:
109,192,52358,1,2,0:0:0:0:
256,192,52508,1,2,0:0:0:0:
402,192,52658,1,2,0:0:0:0:
109,192,52808,1,2,0:0:0:0:
329,192,53033,1,2,0:0:0:0:
402,192,53258,1,2,0:0:0:0:
182,192,53408,1,2,0:0:0:0:
256,192,53633,1,2,0:0:0:0:
36,192,53783,1,2,0:0:0:0:
109,192,54008,1,2,0:0:0:0:
475,192,54233,1,2,0:0:0:0:
329,192,54458,1,2,0:0:0:0:
475,192,54683,1,2,0:0:0:0:
109,192,54833,1,2,0:0:0:0:
36,192,54983,1,2,0:0:0:0:
109,192,55208,1,2,0:0:0:0:
256,192,55358,1,2,0:0:0:0:
402,192,55508,1,2,0:0:0:0:
256,192,55658,1,2,0:0:0:0:
109,192,55808,1,2,0:0:0:0:
256,192,55958,1,2,0:0:0:0:
64,192,56108,1,2,0:0:0:0:
64,192,56258,1,2,0:0:0:0:
329,192,56408,1,2,0:0:0:0:
475,192,56558,1,2,0:0:0:0:
182,192,56708,1,2,0:0:0:0:
329,192,56858,1,2,0:0:0:0:
36,192,57008,1,2,0:0:0:0:
182,192,57158,1,2,0:0:0:0:
109,192,57308,1,2,0:0:0:0:
36,192,57458,1,2,0:0:0:0:
475,192,57608,1,2,0:0:0:0:
329,192,57758,1,2,0:0:0:0:
475,192,57908,1,2,0:0:0:0:
329,192,58058,1,2,0:0:0:0:
109,192,58208,1,2,0:0:0:0:
256,192,58358,1,2,0:0:0:0:
109,192,58508,1,2,0:0:0:0:
256,192,58658,1,2,0:0:0:0:
402,192,58808,1,2,0:0:0:0:
109,192,58958,1,2,0:0:0:0:
402,192,59108,1,2,0:0:0:0:
109,192,59258,1,2,0:0:0:0:
475,192,59408,1,2,0:0:0:0:
36,192,59558,1,2,0:0:0:0:
475,192,59708,1,2,0:0:0:0:
36,192,59858,1,2,0:0:0:0:
402,192,60008,1,2,0:0:0:0:
256,192,60158,1,2,0:0:0:0:
109,192,60308,1,2,0:0:0:0:
402,192,60458,1,2,0:0:0:0:
256,192,60608,1,2,0:0:0:0:
109,192,60758,1,2,0:0:0:0:
448,192,60908,1,2,0:0:0:0:
475,192,61058,1,2,0:0:0:0:
109,192,61208,1,2,0:0:0:0:
182,192,61358,1,2,0:0:0:0:
402,192,61508,1,2,0:0:0:0:
329,192,61658,1,2,0:0:0:0:
256,192,61808,1,2,0:0:0:0:
64,192,61958,1,2,0:0:0:0:
192,192,62108,1,2,0:0:0:0:
320,192,62258,1,2,0:0:0:0:
448,192,62408,1,2,0:0:0:0:
109,192,62558,1,2,0:0:0:0:
256,192,62708,1,2,0:0:0:0:
109,192,62858,1,2,0:0:0:0:
256,192,63008,1,2,0:0:0:0:
475,192,63158,1,2,0:0:0:0:
329,192,63308,1,2,0:0:0:0:
475,192,63458,1,2,0:0:0:0:
329,192,63608,1,2,0:0:0:0:
109,192,63758,1,2,0:0:0:0:
402,192,63908,1,2,0:0:0:0:
109,192,64058,1,2,0:0:0:0:
402,192,64208,1,2,0:0:0:0:
320,192,64358,1,2,0:0:0:0:
36,192,64508,1,2,0:0:0:0:
329,192,64658,1,2,0:0:0:0:
36,192,64808,1,2,0:0:0:0:
448,192,64958,1,2,0:0:0:0:
192,192,65108,1,2,0:0:0:0:
64,192,65258,1,2,0:0:0:0:
320,192,65408,1,2,0:0:0:0:
448,192,65558,1,2,0:0:0:0:
192,192,65708,1,2,0:0:0:0:
192,192,65858,1,2,0:0:0:0:
448,192,66008,1,2,0:0:0:0:
320,192,66158,1,2,0:0:0:0:
192,192,66308,1,2,0:0:0:0:
320,192,66458,1,2,0:0:0:0:
448,192,66608,1,2,0:0:0:0:
64,192,66758,1,2,0:0:0:0:
192,192,66908,1,2,0:0:0:0:
320,192,67058,1,2,0:0:0:0:
109,192,67208,1,2,0:0:0:0:
402,192,67358,1,2,0:0:0:0:
109,192,67508,1,2,0:0:0:0:
402,192,67658,1,2,0:0:0:0:
182,192,67808,1,2,0:0:0:0:
329,192,67958,1,2,0:0:0:0:
182,192,68108,1,2,0:0:0:0:
329,192,68258,1,2,0:0:0:0:
64,192,68408,1,2,0:0:0:0:
475,192,68558,1,2,0:0:0:0:
36,192,68708,1,2,0:0:0:0:
448,192,68858,1,2,0:0:0:0:
109,192,69008,1,2,0:0:0:0:
256,192,69158,1,2,0:0:0:0:
109,192,69308,1,2,0:0:0:0:
256,192,69458,1,2,0:0:0:0:
64,192,69608,1,2,0:0:0:0:
109,192,69758,1,2,0:0:0:0:
448,192,69908,1,2,0:0:0:0:
402,192,70058,1,2,0:0:0:0:
64,192,70208,1,2,0:0:0:0:
109,192,70358,1,2,0:0:0:0:
320,192,70508,1,2,0:0:0:0:
320,192,70658,1,2,0:0:0:0:
64,192,70808,1,2,0:0:0:0:
192,192,70958,1,2,0:0:0:0:
320,192,71108,1,2,0:0:0:0:
192,192,71258,1,2,0:0:0:0:
64,192,71408,1,2,0:0:0:0:
448,192,71558,1,2,0:0:0:0:
320,192,71708,1,2,0:0:0:0:
192,192,71858,1,2,0:0:0:0:
448,192,72008,1,2,0:0:0:0:
320,192,72158,1,2,0:0:0:0:
192,192,72308,1,2,0:0:0:0:
64,192,72458,1,2,0:0:0:0:
448,192,72608,1,2,0:0:0:0:
320,192,72758,1,2,0:0:0:0:
192,192,72908,1,2,0:0:0:0:
64,192,73058,1,2,0:0:0:0:
448,192,73208,1,2,0:0:0:0:
320,192,73358,1,2,0:0:0:0:
192,192,73508,1,2,0:0:0:0:
64,192,73658,1,2,0:0:0:0:
448,192,73808,1,2,0:0:0:0:
320,192,73958,1,2,0:0:0:0:
192,192,74108,1,2,0:0:0:0:
64,192,74258,1,2,0:0:0:0:
192,192,74408,1,2,0:0:0:0:
320,192,74708,1,2,0:0:0:0:
448,192,74858,1,2,0:0:0:0:
64,192,75158,1,2,0:0:0:0:
192,192,75308,1,2,0:0:0:0:
320,192,75458,1,2,0:0:0:0:
448,192,75608,1,2,0:0:0:0:
192,192,75908,1,2,0:0:0:0:
64,192,76058,1,2,0:0:0:0:
448,192,76358,1,2,0:0:0:0:
320,192,76508,1,2,0:0:0:0:
192,192,76658,1,2,0:0:0:0:
64,192,76808,1,2,0:0:0:0:
320,192,77108,1,2,0:0:0:0:
192,192,77258,1,2,0:0:0:0:
448,192,77558,1,2,0:0:0:0:
320,192,77708,1,2,0:0:0:0:
64,192,77858,1,2,0:0:0:0:
192,192,78008,1,2,0:0:0:0:
448,192,78308,1,2,0:0:0:0:
320,192,78458,1,2,0:0:0:0:
64,192,78758,1,2,0:0:0:0:
192,192,78908,1,2,0:0:0:0:
320,192,79058,1,2,0:0:0:0:
64,192,79208,1,2,0:0:0:0:
192,192,79358,1,2,0:0:0:0:
320,192,79508,1,2,0:0:0:0:
448,192,79658,1,2,0:0:0:0:
64,192,79808,1,2,0:0:0:0:
448,192,79958,1,2,0:0:0:0:
192,192,80108,1,2,0:0:0:0:
448,192,80258,1,2,0:0:0:0:
320,192,80408,1,2,0:0:0:0:
64,192,80558,1,2,0:0:0:0:
448,192,80708,1,2,0:0:0:0:
64,192,80858,1,2,0:0:0:0:
320,192,81008,1,2,0:0:0:0:
64,192,81158,1,2,0:0:0:0:
192,192,81308,1,2,0:0:0:0:
448,192,81458,1,2,0:0:0:0:
64,192,81608,1,2,0:0:0:0:
192,192,81758,1,2,0:0:0:0:
448,192,81908,1,2,0:0:0:0:
320,192,82058,1,2,0:0:0:0:
64,192,82208,1,2,0:0:0:0:
192,192,82358,1,2,0:0:0:0:
448,192,82508,1,2,0:0:0:0:
320,192,82658,1,2,0:0:0:0:
192,192,82808,1,2,0:0:0:0:
64,192,82808,1,4,0:0:0:0:
64,192,83108,1,4,0:0:0:0:
192,192,83108,1,2,0:0:0:0:
320,192,83408,1,2,0:0:0:0:
448,192,83408,1,4,0:0:0:0:
320,192,83708,1,2,0:0:0:0:
448,192,83708,1,4,0:0:0:0:
192,192,84008,1,2,0:0:0:0:
320,192,84008,1,2,0:0:0:0:
192,192,86408,1,0,0:0:0:0:
448,192,86558,1,0,0:0:0:0:
64,192,86708,1,0,0:0:0:0:
448,192,86858,1,0,0:0:0:0:
448,192,87008,1,0,0:0:0:0:
64,192,87158,1,0,0:0:0:0:
64,192,87308,1,0,0:0:0:0:
192,192,87458,1,0,0:0:0:0:
192,192,87608,1,0,0:0:0:0:
320,192,87758,1,0,0:0:0:0:
320,192,87908,1,0,0:0:0:0:
64,192,88058,1,0,0:0:0:0:
320,192,88208,1,0,0:0:0:0:
192,192,88358,1,0,0:0:0:0:
448,192,88508,1,0,0:0:0:0:
320,192,88658,1,0,0:0:0:0:
320,192,88808,1,0,0:0:0:0:
448,192,88958,1,0,0:0:0:0:
64,192,89108,1,0,0:0:0:0:
192,192,89258,1,0,0:0:0:0:
192,192,89408,1,0,0:0:0:0:
448,192,89558,1,0,0:0:0:0:
448,192,89708,1,0,0:0:0:0:
320,192,89858,1,0,0:0:0:0:
320,192,90008,1,0,0:0:0:0:
64,192,90158,1,0,0:0:0:0:
448,192,90308,1,0,0:0:0:0:
64,192,90458,1,0,0:0:0:0:
320,192,90608,1,0,0:0:0:0:
192,192,90758,1,0,0:0:0:0:
320,192,90908,1,0,0:0:0:0:
64,192,91058,1,0,0:0:0:0:
320,192,91208,1,0,0:0:0:0:
192,192,91508,1,0,0:0:0:0:
192,192,91658,1,0,0:0:0:0:
448,192,91958,1,0,0:0:0:0:
64,192,92108,1,0,0:0:0:0:
320,192,92258,1,0,0:0:0:0:
320,192,92408,1,0,0:0:0:0:
192,192,92708,1,0,0:0:0:0:
192,192,92858,1,0,0:0:0:0:
64,192,93158,1,0,0:0:0:0:
192,192,93308,1,0,0:0:0:0:
448,192,93458,1,0,0:0:0:0:
448,192,93608,1,0,0:0:0:0:
192,192,93908,1,0,0:0:0:0:
320,192,94058,1,0,0:0:0:0:
64,192,94358,1,0,0:0:0:0:
192,192,94508,1,0,0:0:0:0:
320,192,94658,1,0,0:0:0:0:
448,192,94808,128,0,96008:0:0:0:0:
64,192,94808,1,0,0:0:0:0:
192,192,94958,1,0,0:0:0:0:
320,192,95108,1,0,0:0:0:0:
64,192,96008,1,2,0:0:0:0:
192,192,96233,1,2,0:0:0:0:
448,192,96458,1,2,0:0:0:0:
320,192,96608,1,2,0:0:0:0:
192,192,96758,1,2,0:0:0:0:
448,192,96908,1,2,0:0:0:0:
64,192,97058,1,2,0:0:0:0:
320,192,97208,1,2,0:0:0:0:
448,192,97433,1,2,0:0:0:0:
192,192,97583,1,2,0:0:0:0:
64,192,97808,128,2,98258:0:0:0:0:
192,192,98258,1,2,0:0:0:0:
320,192,98408,1,2,0:0:0:0:
64,192,98858,1,2,0:0:0:0:
192,192,99008,1,2,0:0:0:0:
320,192,99158,1,2,0:0:0:0:
192,192,99308,1,2,0:0:0:0:
320,192,99458,1,2,0:0:0:0:
448,192,99608,1,2,0:0:0:0:
192,192,99833,1,2,0:0:0:0:
192,192,100058,1,2,0:0:0:0:
320,192,100283,1,2,0:0:0:0:
64,192,100508,1,2,0:0:0:0:
64,192,100658,1,2,0:0:0:0:
192,192,100808,1,2,0:0:0:0:
448,192,100808,1,2,0:0:0:0:
448,192,101033,1,2,0:0:0:0:
64,192,101258,1,2,0:0:0:0:
192,192,101483,1,2,0:0:0:0:
320,192,101708,1,2,0:0:0:0:
320,192,101858,1,2,0:0:0:0:
64,192,102008,1,2,0:0:0:0:
448,192,102008,1,2,0:0:0:0:
64,192,102233,1,2,0:0:0:0:
448,192,102458,1,2,0:0:0:0:
192,192,102683,1,2,0:0:0:0:
64,192,102908,1,2,0:0:0:0:
64,192,103058,1,2,0:0:0:0:
192,192,103208,1,2,0:0:0:0:
448,192,103208,1,2,0:0:0:0:
320,192,103433,1,2,0:0:0:0:
192,192,103658,1,2,0:0:0:0:
448,192,103883,1,2,0:0:0:0:
320,192,104108,1,2,0:0:0:0:
64,192,104258,1,2,0:0:0:0:
192,192,104408,1,2,0:0:0:0:
448,192,104633,1,2,0:0:0:0:
64,192,104858,1,2,0:0:0:0:
192,192,105008,1,2,0:0:0:0:
192,192,105233,1,2,0:0:0:0:
192,192,105458,1,2,0:0:0:0:
448,192,106208,128,2,106508:0:0:0:0:
64,192,106508,1,2,0:0:0:0:
192,192,106658,128,2,106808:0:0:0:0:
448,192,106808,1,2,0:0:0:0:
192,192,107033,1,2,0:0:0:0:
448,192,107258,1,2,0:0:0:0:
192,192,107408,1,2,0:0:0:0:
320,192,107558,1,2,0:0:0:0:
64,192,107708,1,2,0:0:0:0:
448,192,107858,1,2,0:0:0:0:
192,192,108008,1,2,0:0:0:0:
64,192,108233,1,2,0:0:0:0:
320,192,108383,1,2,0:0:0:0:
448,192,108608,128,2,109058:0:0:0:0:
192,192,109058,1,2,0:0:0:0:
64,192,109208,1,2,0:0:0:0:
448,192,109658,1,2,0:0:0:0:
320,192,109808,1,2,0:0:0:0:
192,192,109958,1,2,0:0:0:0:
320,192,110108,1,2,0:0:0:0:
192,192,110258,1,2,0:0:0:0:
64,192,110408,1,2,0:0:0:0:
320,192,110633,1,2,0:0:0:0:
320,192,110858,1,2,0:0:0:0:
192,192,111083,1,2,0:0:0:0:
448,192,111308,1,2,0:0:0:0:
448,192,111458,1,2,0:0:0:0:
320,192,111608,1,2,0:0:0:0:
64,192,111833,1,2,0:0:0:0:
448,192,112058,1,2,0:0:0:0:
320,192,112283,1,2,0:0:0:0:
192,192,112508,1,2,0:0:0:0:
192,192,112658,1,2,0:0:0:0:
448,192,112808,1,2,0:0:0:0:
320,192,113033,1,2,0:0:0:0:
64,192,113258,1,2,0:0:0:0:
320,192,113483,1,2,0:0:0:0:
448,192,113708,1,2,0:0:0:0:
448,192,113858,1,2,0:0:0:0:
64,192,114008,1,2,0:0:0:0:
192,192,114233,1,2,0:0:0:0:
320,192,114458,1,2,0:0:0:0:
64,192,114683,1,2,0:0:0:0:
192,192,114908,1,2,0:0:0:0:
448,192,115058,1,2,0:0:0:0:
320,192,115208,1,2,0:0:0:0:
64,192,115433,1,2,0:0:0:0:
448,192,115658,1,2,0:0:0:0:
320,192,115808,1,2,0:0:0:0:
320,192,116033,1,2,0:0:0:0:
320,192,116258,1,2,0:0:0:0:
64,192,116408,1,2,0:0:0:0:
192,192,116633,1,2,0:0:0:0:
448,192,116858,1,2,0:0:0:0:
320,192,117008,1,2,0:0:0:0:
192,192,117158,1,2,0:0:0:0:
448,192,117308,1,2,0:0:0:0:
64,192,117458,1,2,0:0:0:0:
320,192,117608,1,2,0:0:0:0:
448,192,117833,1,2,0:0:0:0:
192,192,117983,1,2,0:0:0:0:
64,192,118208,128,2,118658:0:0:0:0:
320,192,118658,1,2,0:0:0:0:
448,192,118808,1,2,0:0:0:0:
64,192,119258,1,2,0:0:0:0:
192,192,119408,1,2,0:0:0:0:
320,192,119558,1,2,0:0:0:0:
192,192,119708,1,2,0:0:0:0:
320,192,119858,1,2,0:0:0:0:
448,192,120008,1,2,0:0:0:0:
192,192,120233,1,2,0:0:0:0:
192,192,120458,1,2,0:0:0:0:
320,192,120683,1,2,0:0:0:0:
64,192,120908,1,2,0:0:0:0:
64,192,121058,1,2,0:0:0:0:
448,192,121208,1,2,0:0:0:0:
320,192,121358,1,2,0:0:0:0:
64,192,121508,1,2,0:0:0:0:
192,192,121658,1,2,0:0:0:0:
448,192,121808,1,2,0:0:0:0:
320,192,121958,1,2,0:0:0:0:
64,192,122108,1,2,0:0:0:0:
320,192,122258,1,2,0:0:0:0:
448,192,122408,1,2,0:0:0:0:
64,192,122558,1,2,0:0:0:0:
192,192,122708,1,2,0:0:0:0:
320,192,122858,1,2,0:0:0:0:
448,192,123008,1,2,0:0:0:0:
320,192,123158,1,2,0:0:0:0:
192,192,123308,1,2,0:0:0:0:
64,192,123458,1,2,0:0:0:0:
448,192,123608,1,2,0:0:0:0:
320,192,123758,1,2,0:0:0:0:
64,192,123908,1,2,0:0:0:0:
192,192,124058,1,2,0:0:0:0:
448,192,124208,1,2,0:0:0:0:
320,192,124358,1,2,0:0:0:0:
192,192,124508,1,2,0:0:0:0:
320,192,124658,1,2,0:0:0:0:
64,192,124808,1,2,0:0:0:0:
448,192,124808,1,4,0:0:0:0:
448,192,125108,1,4,0:0:0:0:
64,192,125108,1,2,0:0:0:0:
320,192,125408,1,4,0:0:0:0:
192,192,125408,1,2,0:0:0:0:
320,192,125708,1,4,0:0:0:0:
192,192,125708,1,2,0:0:0:0:
448,192,126008,128,2,130808:0:0:0:0:
64,192,126008,128,2,130808:0:0:0:0:
