osu file format v14

[General]
AudioFilename: Paradise Ghost.mp3
AudioLeadIn: 0
PreviewTime: 55208
Countdown: 0
SampleSet: Soft
StackLeniency: 0.7
Mode: 3
LetterboxInBreaks: 0
SpecialStyle: 0
WidescreenStoryboard: 1

[Editor]
DistanceSpacing: 1
BeatDivisor: 8
GridSize: 16
TimelineZoom: 1.8

[Metadata]
Title:PARADISE GHOST
TitleUnicode:PARADISE GHOST
Artist:Ryu* Vs. L.E.D.-G Vs. ZUN
ArtistUnicode:Ryu☆ Vs. L.E.D.-G Vs. ZUN
Creator:Adinata28
Version:4K Hyper
Source:
Tags:byakko+ randombemani mash-up bemani beatmania iidx 18 resort anthem paradise lost touhou
BeatmapID:720648
BeatmapSetID:324336

[Difficulty]
HPDrainRate:7.5
CircleSize:4
OverallDifficulty:7.5
ApproachRate:5
SliderMultiplier:1.4
SliderTickRate:1

[Events]
//Background and Video events
0,0,"Background.jpg",0,0
//Break Periods
//Storyboard Layer 0 (Background)
//Storyboard Layer 1 (Fail)
//Storyboard Layer 2 (Pass)
//Storyboard Layer 3 (Foreground)
//Storyboard Sound Samples

[TimingPoints]
8,300,4,2,4,40,1,0
12008,-100,4,2,4,10,0,0
19208,-100,4,2,4,40,0,0
43508,-100,4,2,4,10,0,0
50408,-100,4,2,4,40,0,0
55208,-100,4,2,4,40,0,1
74408,-100,4,2,4,40,0,0
85958,-100,4,2,4,10,0,0
96008,-100,4,2,4,40,0,0

[HitObjects]
448,192,158,128,0,2408:0:0:0:0:
192,192,1808,128,0,2408:0:0:0:0:
320,192,2408,1,4,0:0:0:0:
64,192,2408,1,2,0:0:0:0:
320,192,2708,1,2,0:0:0:0:
64,192,3008,1,2,0:0:0:0:
448,192,3008,1,8,0:0:0:0:
320,192,3308,1,2,0:0:0:0:
64,192,3458,1,2,0:0:0:0:
192,192,3608,1,2,0:0:0:0:
320,192,3758,1,2,0:0:0:0:
448,192,3758,1,8,0:0:0:0:
192,192,3908,1,2,0:0:0:0:
64,192,4208,1,8,0:0:0:0:
192,192,4208,1,2,0:0:0:0:
320,192,4508,1,2,0:0:0:0:
64,192,4658,1,2,0:0:0:0:
448,192,4658,1,8,0:0:0:0:
320,192,4808,1,2,0:0:0:0:
320,192,5108,1,2,0:0:0:0:
192,192,5258,1,2,0:0:0:0:
64,192,5408,1,2,0:0:0:0:
448,192,5408,1,8,0:0:0:0:
320,192,5708,1,2,0:0:0:0:
192,192,5858,1,2,0:0:0:0:
320,192,6008,1,2,0:0:0:0:
448,192,6158,1,8,0:0:0:0:
64,192,6158,1,2,0:0:0:0:
320,192,6308,1,2,0:0:0:0:
64,192,6608,1,2,0:0:0:0:
448,192,6608,1,8,0:0:0:0:
192,192,7208,1,4,0:0:0:0:
320,192,7208,1,2,0:0:0:0:
64,192,7208,1,2,0:0:0:0:
192,192,7508,1,2,0:0:0:0:
192,192,7658,1,2,0:0:0:0:
64,192,7808,1,2,0:0:0:0:
448,192,7808,1,8,0:0:0:0:
192,192,8108,1,2,0:0:0:0:
320,192,8258,1,2,0:0:0:0:
64,192,8558,1,8,0:0:0:0:
320,192,8558,1,2,0:0:0:0:
192,192,8708,1,2,0:0:0:0:
64,192,9008,1,8,0:0:0:0:
448,192,9008,1,2,0:0:0:0:
192,192,9308,1,2,0:0:0:0:
320,192,9458,1,2,0:0:0:0:
64,192,9608,1,4,0:0:0:0:
192,192,9608,1,2,0:0:0:0:
448,192,9608,1,2,0:0:0:0:
192,192,9908,1,2,0:0:0:0:
320,192,9908,1,8,0:0:0:0:
192,192,10208,1,2,0:0:0:0:
192,192,10508,1,2,0:0:0:0:
320,192,10658,1,8,0:0:0:0:
64,192,10658,1,2,0:0:0:0:
320,192,10958,1,2,0:0:0:0:
448,192,11108,1,2,0:0:0:0:
192,192,11108,1,8,0:0:0:0:
64,192,11408,1,2,0:0:0:0:
192,192,11408,128,2,12008:0:0:0:0:
320,192,11408,1,8,0:0:0:0:
448,192,12008,128,2,12608:0:0:0:0:
320,192,12008,1,4,0:0:0:0:
64,192,12008,1,2,0:0:0:0:
320,192,12608,128,0,13208:0:0:0:0:
192,192,13208,128,0,13808:0:0:0:0:
320,192,13808,128,0,14108:0:0:0:0:
192,192,14108,128,0,14408:0:0:0:0:
64,192,14408,128,0,15608:0:0:0:0:
192,192,15608,128,0,16808:0:0:0:0:
64,192,16808,1,2,0:0:0:0:
448,192,16808,1,2,0:0:0:0:
320,192,16808,128,4,19208:0:0:0:0:
64,192,18608,128,0,19208:0:0:0:0:
192,192,19208,1,2,0:0:0:0:
448,192,19208,1,4,0:0:0:0:
320,192,19358,1,2,0:0:0:0:
192,192,19508,1,2,0:0:0:0:
64,192,19658,1,2,0:0:0:0:
320,192,19808,1,2,0:0:0:0:
448,192,19808,1,4,0:0:0:0:
192,192,19958,1,2,0:0:0:0:
320,192,20108,1,2,0:0:0:0:
448,192,20258,1,2,0:0:0:0:
64,192,20408,1,2,0:0:0:0:
320,192,20408,1,4,0:0:0:0:
192,192,20483,1,2,0:0:0:0:
320,192,20558,1,2,0:0:0:0:
448,192,20633,1,2,0:0:0:0:
320,192,20708,1,2,0:0:0:0:
192,192,20783,1,2,0:0:0:0:
64,192,20858,1,2,0:0:0:0:
192,192,20933,1,2,0:0:0:0:
320,192,21008,1,4,0:0:0:0:
448,192,21008,1,2,0:0:0:0:
64,192,21158,1,2,0:0:0:0:
192,192,21195,1,2,0:0:0:0:
320,192,21233,1,2,0:0:0:0:
448,192,21270,1,2,0:0:0:0:
192,192,21308,1,2,0:0:0:0:
64,192,21383,1,2,0:0:0:0:
448,192,21458,1,2,0:0:0:0:
320,192,21495,1,2,0:0:0:0:
192,192,21533,1,2,0:0:0:0:
64,192,21570,1,2,0:0:0:0:
448,192,21608,1,4,0:0:0:0:
320,192,21608,1,2,0:0:0:0:
192,192,21908,1,0,0:0:0:0:
448,192,21908,1,4,0:0:0:0:
64,192,22208,1,0,0:0:0:0:
320,192,22208,1,4,0:0:0:0:
192,192,22508,1,0,0:0:0:0:
320,192,22508,1,4,0:0:0:0:
64,192,22808,1,0,0:0:0:0:
448,192,22808,1,4,0:0:0:0:
192,192,23108,1,0,0:0:0:0:
320,192,23108,1,4,0:0:0:0:
64,192,23408,1,0,0:0:0:0:
448,192,23408,1,4,0:0:0:0:
320,192,23708,1,4,0:0:0:0:
192,192,23708,1,0,0:0:0:0:
64,192,24008,1,2,0:0:0:0:
320,192,24008,1,2,0:0:0:0:
192,192,24158,1,2,0:0:0:0:
320,192,24308,1,2,0:0:0:0:
448,192,24308,1,2,0:0:0:0:
64,192,24458,1,2,0:0:0:0:
192,192,24608,1,2,0:0:0:0:
448,192,24608,1,2,0:0:0:0:
320,192,24758,1,2,0:0:0:0:
64,192,24908,1,2,0:0:0:0:
192,192,24908,1,2,0:0:0:0:
320,192,25058,1,2,0:0:0:0:
64,192,25208,1,2,0:0:0:0:
448,192,25208,1,2,0:0:0:0:
192,192,25358,1,2,0:0:0:0:
320,192,25508,1,2,0:0:0:0:
448,192,25508,1,2,0:0:0:0:
192,192,25658,1,2,0:0:0:0:
64,192,25808,1,2,0:0:0:0:
320,192,25808,1,4,0:0:0:0:
192,192,25958,1,2,0:0:0:0:
448,192,26108,1,4,0:0:0:0:
64,192,26108,1,2,0:0:0:0:
320,192,26258,1,2,0:0:0:0:
448,192,26408,1,4,0:0:0:0:
192,192,26408,1,2,0:0:0:0:
320,192,26558,1,2,0:0:0:0:
64,192,26708,1,2,0:0:0:0:
192,192,26708,1,2,0:0:0:0:
320,192,26858,1,2,0:0:0:0:
448,192,27008,1,2,0:0:0:0:
64,192,27008,1,2,0:0:0:0:
192,192,27158,1,2,0:0:0:0:
64,192,27308,1,2,0:0:0:0:
320,192,27308,1,2,0:0:0:0:
448,192,27458,1,2,0:0:0:0:
192,192,27608,1,2,0:0:0:0:
320,192,27608,1,2,0:0:0:0:
64,192,27758,1,2,0:0:0:0:
192,192,27908,1,2,0:0:0:0:
448,192,27908,1,2,0:0:0:0:
320,192,28058,1,2,0:0:0:0:
64,192,28208,1,4,0:0:0:0:
192,192,28208,1,2,0:0:0:0:
320,192,28358,1,2,0:0:0:0:
192,192,28508,1,4,0:0:0:0:
448,192,28508,1,2,0:0:0:0:
320,192,28658,1,2,0:0:0:0:
64,192,28808,1,4,0:0:0:0:
192,192,28808,1,2,0:0:0:0:
448,192,28958,1,2,0:0:0:0:
320,192,29108,1,2,0:0:0:0:
192,192,29108,1,2,0:0:0:0:
448,192,29258,1,2,0:0:0:0:
64,192,29408,1,2,0:0:0:0:
320,192,29408,1,2,0:0:0:0:
192,192,29558,1,2,0:0:0:0:
320,192,29708,1,2,0:0:0:0:
448,192,29708,1,2,0:0:0:0:
192,192,29858,1,2,0:0:0:0:
64,192,30008,1,2,0:0:0:0:
320,192,30008,1,2,0:0:0:0:
192,192,30158,1,2,0:0:0:0:
64,192,30308,1,2,0:0:0:0:
448,192,30308,1,2,0:0:0:0:
320,192,30458,1,2,0:0:0:0:
64,192,30608,1,4,0:0:0:0:
448,192,30608,1,2,0:0:0:0:
320,192,30908,1,4,0:0:0:0:
192,192,30908,1,2,0:0:0:0:
320,192,31208,1,4,0:0:0:0:
192,192,31208,1,2,0:0:0:0:
64,192,31358,1,2,0:0:0:0:
192,192,31508,1,2,0:0:0:0:
448,192,31508,1,2,0:0:0:0:
320,192,31658,1,2,0:0:0:0:
64,192,31808,1,2,0:0:0:0:
192,192,31808,1,2,0:0:0:0:
320,192,31958,1,2,0:0:0:0:
448,192,32108,1,2,0:0:0:0:
64,192,32108,1,2,0:0:0:0:
192,192,32258,1,2,0:0:0:0:
320,192,32408,1,4,0:0:0:0:
64,192,32408,1,2,0:0:0:0:
192,192,32558,1,2,0:0:0:0:
320,192,32708,1,4,0:0:0:0:
448,192,32708,1,2,0:0:0:0:
192,192,32858,1,2,0:0:0:0:
64,192,33008,1,2,0:0:0:0:
320,192,33008,1,4,0:0:0:0:
192,192,33158,1,2,0:0:0:0:
448,192,33308,1,2,0:0:0:0:
64,192,33308,1,2,0:0:0:0:
320,192,33458,1,2,0:0:0:0:
192,192,33608,1,2,0:0:0:0:
448,192,33608,1,2,0:0:0:0:
64,192,33683,1,2,0:0:0:0:
192,192,33758,1,2,0:0:0:0:
320,192,33833,1,2,0:0:0:0:
448,192,33908,1,2,0:0:0:0:
64,192,34058,1,2,0:0:0:0:
192,192,34133,1,2,0:0:0:0:
320,192,34208,1,2,0:0:0:0:
448,192,34283,1,2,0:0:0:0:
320,192,34358,1,2,0:0:0:0:
192,192,34508,1,2,0:0:0:0:
64,192,34658,1,2,0:0:0:0:
448,192,34808,1,2,0:0:0:0:
320,192,34883,1,2,0:0:0:0:
192,192,34958,1,2,0:0:0:0:
64,192,35033,1,2,0:0:0:0:
192,192,35108,1,2,0:0:0:0:
320,192,35258,1,2,0:0:0:0:
192,192,35333,1,2,0:0:0:0:
64,192,35408,1,4,0:0:0:0:
448,192,35408,1,2,0:0:0:0:
192,192,35708,1,2,0:0:0:0:
320,192,35708,1,4,0:0:0:0:
64,192,36008,1,2,0:0:0:0:
192,192,36083,1,2,0:0:0:0:
448,192,36158,1,2,0:0:0:0:
320,192,36233,1,2,0:0:0:0:
192,192,36308,1,2,0:0:0:0:
448,192,36458,1,2,0:0:0:0:
320,192,36533,1,2,0:0:0:0:
64,192,36608,1,2,0:0:0:0:
192,192,36683,1,2,0:0:0:0:
320,192,36758,1,2,0:0:0:0:
448,192,36908,1,2,0:0:0:0:
320,192,37058,1,2,0:0:0:0:
64,192,37208,1,2,0:0:0:0:
192,192,37283,1,2,0:0:0:0:
320,192,37358,1,2,0:0:0:0:
192,192,37433,1,2,0:0:0:0:
64,192,37508,1,2,0:0:0:0:
448,192,37658,1,2,0:0:0:0:
320,192,37733,1,2,0:0:0:0:
192,192,37808,1,4,0:0:0:0:
64,192,37808,1,2,0:0:0:0:
320,192,37883,1,2,0:0:0:0:
448,192,37958,1,2,0:0:0:0:
192,192,38108,1,4,0:0:0:0:
320,192,38108,1,2,0:0:0:0:
64,192,38258,1,2,0:0:0:0:
320,192,38408,1,4,0:0:0:0:
192,192,38408,1,2,0:0:0:0:
448,192,38558,1,2,0:0:0:0:
320,192,38558,1,2,0:0:0:0:
192,192,38708,1,2,0:0:0:0:
64,192,38708,1,2,0:0:0:0:
320,192,38858,1,2,0:0:0:0:
448,192,38858,1,2,0:0:0:0:
64,192,39008,1,2,0:0:0:0:
192,192,39008,1,2,0:0:0:0:
320,192,39158,1,2,0:0:0:0:
192,192,39158,1,2,0:0:0:0:
64,192,39308,1,2,0:0:0:0:
448,192,39308,1,2,0:0:0:0:
192,192,39458,1,2,0:0:0:0:
320,192,39458,1,2,0:0:0:0:
64,192,39608,1,2,0:0:0:0:
192,192,39608,1,2,0:0:0:0:
320,192,39758,1,2,0:0:0:0:
448,192,39758,1,2,0:0:0:0:
64,192,39908,1,2,0:0:0:0:
192,192,39908,1,2,0:0:0:0:
448,192,40058,1,2,0:0:0:0:
192,192,40058,1,2,0:0:0:0:
320,192,40208,1,4,0:0:0:0:
64,192,40208,1,2,0:0:0:0:
192,192,40358,1,2,0:0:0:0:
448,192,40358,1,2,0:0:0:0:
192,192,40508,1,2,0:0:0:0:
320,192,40508,1,4,0:0:0:0:
64,192,40658,1,2,0:0:0:0:
448,192,40658,1,2,0:0:0:0:
192,192,40808,1,2,0:0:0:0:
320,192,40808,1,4,0:0:0:0:
64,192,40958,1,2,0:0:0:0:
320,192,40958,1,2,0:0:0:0:
64,192,41108,1,2,0:0:0:0:
448,192,41108,1,2,0:0:0:0:
192,192,41258,1,2,0:0:0:0:
448,192,41258,1,2,0:0:0:0:
448,192,41408,1,2,0:0:0:0:
320,192,41408,1,2,0:0:0:0:
64,192,41558,1,2,0:0:0:0:
192,192,41558,1,2,0:0:0:0:
64,192,41708,1,2,0:0:0:0:
320,192,41708,1,2,0:0:0:0:
192,192,41783,1,2,0:0:0:0:
320,192,41858,1,2,0:0:0:0:
448,192,41858,1,2,0:0:0:0:
64,192,42008,1,2,0:0:0:0:
192,192,42008,1,4,0:0:0:0:
64,192,42158,1,2,0:0:0:0:
320,192,42158,1,2,0:0:0:0:
448,192,42308,1,4,0:0:0:0:
64,192,42308,1,2,0:0:0:0:
192,192,42458,1,2,0:0:0:0:
320,192,42458,1,2,0:0:0:0:
320,192,42608,1,2,0:0:0:0:
448,192,42608,1,4,0:0:0:0:
64,192,42758,1,2,0:0:0:0:
192,192,42758,1,2,0:0:0:0:
320,192,42908,1,2,0:0:0:0:
448,192,42908,1,4,0:0:0:0:
64,192,43058,1,2,0:0:0:0:
192,192,43095,1,2,0:0:0:0:
320,192,43133,1,2,0:0:0:0:
448,192,43170,1,2,0:0:0:0:
64,192,43208,1,4,0:0:0:0:
192,192,43208,1,2,0:0:0:0:
320,192,43508,1,0,0:0:0:0:
192,192,43808,1,0,0:0:0:0:
64,192,43958,1,0,0:0:0:0:
192,192,44108,1,0,0:0:0:0:
448,192,44258,1,0,0:0:0:0:
320,192,44408,1,0,0:0:0:0:
64,192,44558,1,0,0:0:0:0:
192,192,44708,1,0,0:0:0:0:
448,192,44858,1,0,0:0:0:0:
320,192,45008,1,0,0:0:0:0:
192,192,45158,1,0,0:0:0:0:
448,192,45308,1,0,0:0:0:0:
320,192,45383,1,0,0:0:0:0:
192,192,45458,1,0,0:0:0:0:
64,192,45533,1,0,0:0:0:0:
320,192,45608,1,0,0:0:0:0:
192,192,45833,1,0,0:0:0:0:
64,192,46058,1,0,0:0:0:0:
448,192,46208,1,0,0:0:0:0:
192,192,46358,1,0,0:0:0:0:
320,192,46508,1,0,0:0:0:0:
192,192,46658,1,0,0:0:0:0:
320,192,46808,1,0,0:0:0:0:
448,192,47033,1,0,0:0:0:0:
64,192,47258,1,0,0:0:0:0:
448,192,47408,1,0,0:0:0:0:
192,192,47558,1,0,0:0:0:0:
320,192,47708,1,0,0:0:0:0:
448,192,47858,1,0,0:0:0:0:
64,192,48008,128,0,48608:0:0:0:0:
192,192,48008,1,0,0:0:0:0:
320,192,48233,1,0,0:0:0:0:
448,192,48458,1,0,0:0:0:0:
192,192,48608,128,0,49208:0:0:0:0:
320,192,48608,1,0,0:0:0:0:
64,192,48833,1,0,0:0:0:0:
448,192,49058,1,0,0:0:0:0:
64,192,49208,1,0,0:0:0:0:
320,192,49208,128,0,49808:0:0:0:0:
192,192,49433,1,0,0:0:0:0:
64,192,49658,1,0,0:0:0:0:
448,192,49808,128,0,50408:0:0:0:0:
192,192,49808,1,0,0:0:0:0:
320,192,50033,1,0,0:0:0:0:
192,192,50258,1,0,0:0:0:0:
64,192,50408,1,4,0:0:0:0:
192,192,50558,1,2,0:0:0:0:
320,192,50558,1,2,0:0:0:0:
64,192,50708,1,2,0:0:0:0:
448,192,50708,1,2,0:0:0:0:
192,192,50858,1,2,0:0:0:0:
320,192,50858,1,2,0:0:0:0:
64,192,51008,1,2,0:0:0:0:
448,192,51008,1,2,0:0:0:0:
320,192,51158,1,2,0:0:0:0:
64,192,51158,1,2,0:0:0:0:
448,192,51308,1,2,0:0:0:0:
320,192,51308,1,2,0:0:0:0:
192,192,51458,1,2,0:0:0:0:
448,192,51458,1,2,0:0:0:0:
64,192,51608,1,2,0:0:0:0:
448,192,51608,1,4,0:0:0:0:
192,192,51758,1,2,0:0:0:0:
320,192,51758,1,2,0:0:0:0:
64,192,51908,1,2,0:0:0:0:
448,192,51908,1,2,0:0:0:0:
192,192,52058,1,2,0:0:0:0:
64,192,52058,1,2,0:0:0:0:
320,192,52208,1,2,0:0:0:0:
448,192,52208,1,2,0:0:0:0:
64,192,52358,1,2,0:0:0:0:
192,192,52358,1,2,0:0:0:0:
320,192,52508,1,2,0:0:0:0:
448,192,52508,1,2,0:0:0:0:
64,192,52658,1,2,0:0:0:0:
320,192,52658,1,2,0:0:0:0:
192,192,52808,1,4,0:0:0:0:
320,192,52883,1,2,0:0:0:0:
448,192,52958,1,2,0:0:0:0:
64,192,53033,1,2,0:0:0:0:
192,192,53108,1,2,0:0:0:0:
320,192,53183,1,2,0:0:0:0:
448,192,53258,1,2,0:0:0:0:
64,192,53333,1,2,0:0:0:0:
320,192,53333,1,2,0:0:0:0:
192,192,53408,1,4,0:0:0:0:
448,192,53483,1,2,0:0:0:0:
320,192,53558,1,2,0:0:0:0:
192,192,53633,1,2,0:0:0:0:
64,192,53708,1,2,0:0:0:0:
192,192,53745,1,2,0:0:0:0:
320,192,53783,1,2,0:0:0:0:
448,192,53820,1,2,0:0:0:0:
64,192,53858,1,2,0:0:0:0:
192,192,53895,1,2,0:0:0:0:
320,192,53933,1,2,0:0:0:0:
448,192,53970,1,2,0:0:0:0:
192,192,54008,1,4,0:0:0:0:
64,192,54008,1,2,0:0:0:0:
320,192,54233,1,4,0:0:0:0:
64,192,54458,1,2,0:0:0:0:
192,192,54608,1,4,0:0:0:0:
320,192,54833,1,4,0:0:0:0:
64,192,55058,1,2,0:0:0:0:
192,192,55208,1,2,0:0:0:0:
448,192,55208,1,2,0:0:0:0:
320,192,55283,1,2,0:0:0:0:
448,192,55358,1,2,0:0:0:0:
320,192,55433,1,2,0:0:0:0:
64,192,55508,1,2,0:0:0:0:
192,192,55583,1,2,0:0:0:0:
320,192,55658,1,2,0:0:0:0:
192,192,55733,1,2,0:0:0:0:
448,192,55808,1,2,0:0:0:0:
320,192,55883,1,2,0:0:0:0:
64,192,55958,1,2,0:0:0:0:
320,192,56108,1,2,0:0:0:0:
192,192,56108,1,2,0:0:0:0:
192,192,56258,1,2,0:0:0:0:
320,192,56258,1,2,0:0:0:0:
448,192,56408,1,2,0:0:0:0:
320,192,56483,1,2,0:0:0:0:
64,192,56558,1,2,0:0:0:0:
192,192,56633,1,2,0:0:0:0:
448,192,56708,1,2,0:0:0:0:
320,192,56783,1,2,0:0:0:0:
192,192,56858,1,2,0:0:0:0:
64,192,56933,1,2,0:0:0:0:
192,192,57008,1,2,0:0:0:0:
64,192,57158,1,2,0:0:0:0:
192,192,57308,1,2,0:0:0:0:
320,192,57458,1,2,0:0:0:0:
64,192,57608,1,2,0:0:0:0:
192,192,57683,1,2,0:0:0:0:
320,192,57758,1,2,0:0:0:0:
448,192,57833,1,2,0:0:0:0:
320,192,57908,1,2,0:0:0:0:
192,192,57983,1,2,0:0:0:0:
64,192,58058,1,2,0:0:0:0:
192,192,58133,1,2,0:0:0:0:
320,192,58208,1,2,0:0:0:0:
192,192,58283,1,2,0:0:0:0:
320,192,58358,1,2,0:0:0:0:
448,192,58433,1,2,0:0:0:0:
320,192,58508,1,2,0:0:0:0:
192,192,58583,1,2,0:0:0:0:
64,192,58658,1,2,0:0:0:0:
192,192,58733,1,2,0:0:0:0:
320,192,58808,1,2,0:0:0:0:
448,192,58883,1,2,0:0:0:0:
320,192,58958,1,2,0:0:0:0:
192,192,59033,1,2,0:0:0:0:
64,192,59108,1,2,0:0:0:0:
448,192,59183,1,2,0:0:0:0:
320,192,59258,1,2,0:0:0:0:
192,192,59333,1,2,0:0:0:0:
320,192,59408,1,4,0:0:0:0:
448,192,59483,1,2,0:0:0:0:
64,192,59558,1,2,0:0:0:0:
192,192,59633,1,2,0:0:0:0:
320,192,59708,1,4,0:0:0:0:
64,192,59783,1,2,0:0:0:0:
192,192,59858,1,2,0:0:0:0:
320,192,59933,1,2,0:0:0:0:
448,192,60008,1,2,0:0:0:0:
192,192,60083,1,2,0:0:0:0:
320,192,60158,1,2,0:0:0:0:
64,192,60233,1,2,0:0:0:0:
192,192,60308,1,2,0:0:0:0:
448,192,60383,1,2,0:0:0:0:
64,192,60458,1,2,0:0:0:0:
448,192,60533,1,2,0:0:0:0:
64,192,60608,1,2,0:0:0:0:
192,192,60683,1,2,0:0:0:0:
320,192,60758,1,2,0:0:0:0:
64,192,60908,1,2,0:0:0:0:
448,192,60908,1,2,0:0:0:0:
64,192,61058,1,2,0:0:0:0:
448,192,61058,1,2,0:0:0:0:
320,192,61208,1,2,0:0:0:0:
192,192,61283,1,2,0:0:0:0:
64,192,61358,1,2,0:0:0:0:
320,192,61433,1,2,0:0:0:0:
192,192,61508,1,2,0:0:0:0:
320,192,61583,1,2,0:0:0:0:
448,192,61658,1,2,0:0:0:0:
320,192,61733,1,2,0:0:0:0:
192,192,61808,1,2,0:0:0:0:
448,192,61958,1,2,0:0:0:0:
320,192,62108,1,2,0:0:0:0:
192,192,62258,1,2,0:0:0:0:
64,192,62408,1,4,0:0:0:0:
448,192,62408,1,2,0:0:0:0:
320,192,62483,1,2,0:0:0:0:
192,192,62558,1,2,0:0:0:0:
64,192,62633,1,2,0:0:0:0:
192,192,62708,1,2,0:0:0:0:
320,192,62783,1,2,0:0:0:0:
448,192,62858,1,2,0:0:0:0:
320,192,62933,1,2,0:0:0:0:
192,192,63008,1,2,0:0:0:0:
64,192,63083,1,2,0:0:0:0:
192,192,63158,1,2,0:0:0:0:
320,192,63233,1,2,0:0:0:0:
192,192,63308,1,2,0:0:0:0:
64,192,63383,1,2,0:0:0:0:
320,192,63458,1,2,0:0:0:0:
192,192,63533,1,2,0:0:0:0:
448,192,63608,1,2,0:0:0:0:
320,192,63683,1,2,0:0:0:0:
192,192,63758,1,2,0:0:0:0:
64,192,63833,1,2,0:0:0:0:
320,192,63908,1,2,0:0:0:0:
192,192,63983,1,2,0:0:0:0:
320,192,64058,1,2,0:0:0:0:
448,192,64133,1,2,0:0:0:0:
320,192,64208,1,2,0:0:0:0:
192,192,64283,1,2,0:0:0:0:
320,192,64358,1,2,0:0:0:0:
448,192,64433,1,2,0:0:0:0:
192,192,64508,1,2,0:0:0:0:
320,192,64583,1,2,0:0:0:0:
64,192,64658,1,2,0:0:0:0:
192,192,64733,1,2,0:0:0:0:
448,192,64808,1,2,0:0:0:0:
64,192,64883,1,2,0:0:0:0:
320,192,64958,1,2,0:0:0:0:
192,192,65033,1,2,0:0:0:0:
448,192,65108,1,2,0:0:0:0:
64,192,65183,1,2,0:0:0:0:
192,192,65258,1,2,0:0:0:0:
320,192,65333,1,2,0:0:0:0:
192,192,65408,1,2,0:0:0:0:
64,192,65483,1,2,0:0:0:0:
192,192,65558,1,2,0:0:0:0:
448,192,65708,1,2,0:0:0:0:
320,192,65708,1,2,0:0:0:0:
320,192,65858,1,2,0:0:0:0:
448,192,65858,1,2,0:0:0:0:
64,192,66008,1,2,0:0:0:0:
192,192,66083,1,2,0:0:0:0:
448,192,66158,1,2,0:0:0:0:
320,192,66233,1,2,0:0:0:0:
192,192,66308,1,2,0:0:0:0:
320,192,66383,1,2,0:0:0:0:
64,192,66458,1,2,0:0:0:0:
192,192,66533,1,2,0:0:0:0:
320,192,66608,1,2,0:0:0:0:
64,192,66758,1,2,0:0:0:0:
192,192,66908,1,2,0:0:0:0:
320,192,67058,1,2,0:0:0:0:
448,192,67208,1,2,0:0:0:0:
192,192,67283,1,2,0:0:0:0:
320,192,67358,1,2,0:0:0:0:
64,192,67433,1,2,0:0:0:0:
192,192,67508,1,2,0:0:0:0:
320,192,67583,1,2,0:0:0:0:
448,192,67658,1,2,0:0:0:0:
192,192,67733,1,2,0:0:0:0:
64,192,67808,1,2,0:0:0:0:
320,192,67883,1,2,0:0:0:0:
448,192,67958,1,2,0:0:0:0:
192,192,68033,1,2,0:0:0:0:
64,192,68108,1,2,0:0:0:0:
320,192,68183,1,2,0:0:0:0:
448,192,68258,1,2,0:0:0:0:
64,192,68333,1,2,0:0:0:0:
192,192,68408,1,2,0:0:0:0:
320,192,68483,1,2,0:0:0:0:
448,192,68558,1,2,0:0:0:0:
320,192,68633,1,2,0:0:0:0:
192,192,68708,1,2,0:0:0:0:
64,192,68783,1,2,0:0:0:0:
320,192,68858,1,2,0:0:0:0:
192,192,68933,1,2,0:0:0:0:
448,192,69008,1,2,0:0:0:0:
320,192,69083,1,2,0:0:0:0:
64,192,69158,1,2,0:0:0:0:
192,192,69233,1,2,0:0:0:0:
448,192,69308,1,2,0:0:0:0:
320,192,69383,1,2,0:0:0:0:
64,192,69458,1,2,0:0:0:0:
192,192,69533,1,2,0:0:0:0:
448,192,69608,1,2,0:0:0:0:
64,192,69683,1,2,0:0:0:0:
192,192,69758,1,2,0:0:0:0:
320,192,69833,1,2,0:0:0:0:
192,192,69908,1,2,0:0:0:0:
320,192,69983,1,2,0:0:0:0:
448,192,70058,1,2,0:0:0:0:
320,192,70133,1,2,0:0:0:0:
64,192,70208,1,2,0:0:0:0:
192,192,70283,1,2,0:0:0:0:
320,192,70358,1,2,0:0:0:0:
192,192,70508,1,2,0:0:0:0:
64,192,70508,1,2,0:0:0:0:
64,192,70658,1,2,0:0:0:0:
192,192,70658,1,2,0:0:0:0:
448,192,70808,1,2,0:0:0:0:
320,192,70883,1,2,0:0:0:0:
64,192,70958,1,2,0:0:0:0:
192,192,71033,1,2,0:0:0:0:
448,192,71108,1,2,0:0:0:0:
320,192,71183,1,2,0:0:0:0:
192,192,71258,1,2,0:0:0:0:
64,192,71333,1,2,0:0:0:0:
192,192,71408,1,2,0:0:0:0:
448,192,71408,1,4,0:0:0:0:
320,192,71558,1,2,0:0:0:0:
192,192,71708,1,2,0:0:0:0:
448,192,71708,1,4,0:0:0:0:
64,192,71858,1,2,0:0:0:0:
448,192,72008,1,2,0:0:0:0:
192,192,72083,1,2,0:0:0:0:
320,192,72158,1,2,0:0:0:0:
64,192,72233,1,2,0:0:0:0:
320,192,72308,1,2,0:0:0:0:
192,192,72383,1,2,0:0:0:0:
64,192,72458,1,2,0:0:0:0:
192,192,72533,1,2,0:0:0:0:
320,192,72608,1,2,0:0:0:0:
64,192,72683,1,2,0:0:0:0:
192,192,72758,1,2,0:0:0:0:
320,192,72833,1,2,0:0:0:0:
448,192,72908,1,2,0:0:0:0:
320,192,72983,1,2,0:0:0:0:
192,192,73058,1,2,0:0:0:0:
320,192,73133,1,2,0:0:0:0:
448,192,73208,1,4,0:0:0:0:
64,192,73283,1,2,0:0:0:0:
192,192,73358,1,2,0:0:0:0:
320,192,73433,1,2,0:0:0:0:
192,192,73508,1,2,0:0:0:0:
320,192,73583,1,2,0:0:0:0:
448,192,73658,1,2,0:0:0:0:
192,192,73733,1,2,0:0:0:0:
320,192,73808,1,2,0:0:0:0:
64,192,73883,1,2,0:0:0:0:
192,192,73958,1,2,0:0:0:0:
320,192,74033,1,2,0:0:0:0:
448,192,74108,1,2,0:0:0:0:
192,192,74183,1,2,0:0:0:0:
320,192,74258,1,2,0:0:0:0:
64,192,74333,1,2,0:0:0:0:
192,192,74408,1,2,0:0:0:0:
320,192,74558,1,2,0:0:0:0:
64,192,74708,1,2,0:0:0:0:
192,192,74708,1,2,0:0:0:0:
320,192,74858,1,2,0:0:0:0:
192,192,75008,1,2,0:0:0:0:
448,192,75008,1,2,0:0:0:0:
320,192,75158,1,2,0:0:0:0:
64,192,75308,1,2,0:0:0:0:
448,192,75308,1,2,0:0:0:0:
192,192,75458,1,2,0:0:0:0:
320,192,75608,1,2,0:0:0:0:
448,192,75608,1,2,0:0:0:0:
192,192,75758,1,2,0:0:0:0:
64,192,75908,1,2,0:0:0:0:
320,192,75908,1,2,0:0:0:0:
448,192,76058,1,2,0:0:0:0:
192,192,76208,1,4,0:0:0:0:
320,192,76208,1,2,0:0:0:0:
64,192,76358,1,2,0:0:0:0:
192,192,76508,1,4,0:0:0:0:
448,192,76508,1,2,0:0:0:0:
320,192,76658,1,2,0:0:0:0:
64,192,76808,1,2,0:0:0:0:
192,192,76808,1,4,0:0:0:0:
320,192,76958,1,2,0:0:0:0:
448,192,77108,1,2,0:0:0:0:
64,192,77108,1,2,0:0:0:0:
192,192,77258,1,2,0:0:0:0:
320,192,77408,1,2,0:0:0:0:
448,192,77408,1,2,0:0:0:0:
192,192,77558,1,2,0:0:0:0:
64,192,77708,1,2,0:0:0:0:
320,192,77708,1,2,0:0:0:0:
192,192,77858,1,2,0:0:0:0:
64,192,78008,1,2,0:0:0:0:
448,192,78008,1,2,0:0:0:0:
320,192,78158,1,2,0:0:0:0:
448,192,78308,1,2,0:0:0:0:
192,192,78308,1,2,0:0:0:0:
64,192,78458,1,2,0:0:0:0:
192,192,78608,1,2,0:0:0:0:
320,192,78608,1,4,0:0:0:0:
64,192,78908,1,2,0:0:0:0:
448,192,78908,1,4,0:0:0:0:
64,192,79208,1,2,0:0:0:0:
320,192,79208,1,2,0:0:0:0:
192,192,79358,1,2,0:0:0:0:
448,192,79358,1,2,0:0:0:0:
64,192,79508,1,2,0:0:0:0:
320,192,79508,1,2,0:0:0:0:
192,192,79658,1,2,0:0:0:0:
320,192,79658,1,2,0:0:0:0:
448,192,79808,1,2,0:0:0:0:
64,192,79808,1,2,0:0:0:0:
192,192,79958,1,2,0:0:0:0:
320,192,79958,1,2,0:0:0:0:
64,192,80108,1,2,0:0:0:0:
448,192,80108,1,2,0:0:0:0:
192,192,80258,1,2,0:0:0:0:
448,192,80258,1,2,0:0:0:0:
320,192,80408,1,2,0:0:0:0:
448,192,80408,1,2,0:0:0:0:
64,192,80558,1,2,0:0:0:0:
192,192,80558,1,2,0:0:0:0:
64,192,80708,1,2,0:0:0:0:
320,192,80708,1,2,0:0:0:0:
64,192,80858,1,2,0:0:0:0:
448,192,80858,1,2,0:0:0:0:
192,192,81008,1,2,0:0:0:0:
320,192,81008,1,2,0:0:0:0:
64,192,81158,1,2,0:0:0:0:
448,192,81158,1,2,0:0:0:0:
192,192,81308,1,2,0:0:0:0:
320,192,81308,1,2,0:0:0:0:
64,192,81458,1,2,0:0:0:0:
448,192,81458,1,2,0:0:0:0:
192,192,81608,1,2,0:0:0:0:
320,192,81683,1,2,0:0:0:0:
448,192,81758,1,2,0:0:0:0:
64,192,81833,1,2,0:0:0:0:
192,192,81908,1,2,0:0:0:0:
320,192,81983,1,2,0:0:0:0:
192,192,82058,1,2,0:0:0:0:
64,192,82133,1,2,0:0:0:0:
192,192,82208,1,2,0:0:0:0:
320,192,82283,1,2,0:0:0:0:
448,192,82358,1,2,0:0:0:0:
320,192,82433,1,2,0:0:0:0:
192,192,82508,1,2,0:0:0:0:
64,192,82583,1,2,0:0:0:0:
192,192,82658,1,2,0:0:0:0:
320,192,82733,1,2,0:0:0:0:
448,192,82808,1,4,0:0:0:0:
192,192,82808,1,2,0:0:0:0:
64,192,82958,1,2,0:0:0:0:
192,192,83033,1,2,0:0:0:0:
320,192,83108,1,4,0:0:0:0:
64,192,83108,1,2,0:0:0:0:
448,192,83258,1,2,0:0:0:0:
320,192,83333,1,2,0:0:0:0:
192,192,83408,1,4,0:0:0:0:
448,192,83408,1,2,0:0:0:0:
320,192,83558,1,2,0:0:0:0:
192,192,83633,1,2,0:0:0:0:
64,192,83708,1,4,0:0:0:0:
320,192,83708,1,2,0:0:0:0:
448,192,83858,128,2,84008:0:0:0:0:
320,192,84008,128,2,86408:0:0:0:0:
64,192,84008,1,2,0:0:0:0:
192,192,86408,1,0,0:0:0:0:
64,192,86558,1,0,0:0:0:0:
448,192,86708,1,0,0:0:0:0:
192,192,86858,1,0,0:0:0:0:
64,192,87008,1,0,0:0:0:0:
320,192,87158,1,0,0:0:0:0:
448,192,87308,1,0,0:0:0:0:
192,192,87458,1,0,0:0:0:0:
320,192,87608,1,0,0:0:0:0:
64,192,87758,1,0,0:0:0:0:
192,192,87908,1,0,0:0:0:0:
448,192,88058,1,0,0:0:0:0:
192,192,88208,1,0,0:0:0:0:
320,192,88358,1,0,0:0:0:0:
64,192,88508,1,0,0:0:0:0:
192,192,88658,1,0,0:0:0:0:
448,192,88808,1,0,0:0:0:0:
64,192,88958,1,0,0:0:0:0:
448,192,89108,1,0,0:0:0:0:
192,192,89258,1,0,0:0:0:0:
64,192,89408,1,0,0:0:0:0:
320,192,89558,1,0,0:0:0:0:
192,192,89708,1,0,0:0:0:0:
448,192,89858,1,0,0:0:0:0:
320,192,90008,1,0,0:0:0:0:
64,192,90158,1,0,0:0:0:0:
448,192,90308,1,0,0:0:0:0:
64,192,90458,1,0,0:0:0:0:
192,192,90608,1,0,0:0:0:0:
320,192,90758,1,0,0:0:0:0:
192,192,90908,1,0,0:0:0:0:
448,192,91058,1,0,0:0:0:0:
64,192,91208,1,0,0:0:0:0:
448,192,91358,1,0,0:0:0:0:
320,192,91508,1,0,0:0:0:0:
192,192,91658,1,0,0:0:0:0:
448,192,91808,1,0,0:0:0:0:
64,192,91958,1,0,0:0:0:0:
448,192,92108,1,0,0:0:0:0:
192,192,92258,1,0,0:0:0:0:
64,192,92408,1,0,0:0:0:0:
448,192,92558,1,0,0:0:0:0:
192,192,92708,1,0,0:0:0:0:
320,192,92858,1,0,0:0:0:0:
64,192,93008,1,0,0:0:0:0:
448,192,93158,1,0,0:0:0:0:
320,192,93308,1,0,0:0:0:0:
64,192,93458,1,0,0:0:0:0:
192,192,93608,1,0,0:0:0:0:
448,192,93758,1,0,0:0:0:0:
192,192,93908,1,0,0:0:0:0:
64,192,94058,1,0,0:0:0:0:
448,192,94358,1,0,0:0:0:0:
320,192,94508,1,0,0:0:0:0:
192,192,94658,1,0,0:0:0:0:
448,192,94808,1,0,0:0:0:0:
64,192,94808,128,0,96008:0:0:0:0:
320,192,94958,1,0,0:0:0:0:
192,192,95108,1,0,0:0:0:0:
448,192,95258,1,0,0:0:0:0:
320,192,95408,1,0,0:0:0:0:
192,192,96008,1,2,0:0:0:0:
448,192,96233,1,2,0:0:0:0:
192,192,96458,1,2,0:0:0:0:
320,192,96608,1,2,0:0:0:0:
448,192,96758,1,2,0:0:0:0:
192,192,96908,1,2,0:0:0:0:
64,192,97058,1,2,0:0:0:0:
320,192,97208,1,2,0:0:0:0:
448,192,97433,1,2,0:0:0:0:
192,192,97658,1,2,0:0:0:0:
64,192,97808,128,0,98258:0:0:0:0:
320,192,98258,1,2,0:0:0:0:
448,192,98408,1,2,0:0:0:0:
192,192,98633,1,2,0:0:0:0:
448,192,98858,1,2,0:0:0:0:
320,192,99008,1,2,0:0:0:0:
192,192,99158,1,2,0:0:0:0:
320,192,99308,1,2,0:0:0:0:
192,192,99458,1,2,0:0:0:0:
64,192,99608,1,2,0:0:0:0:
320,192,99833,1,2,0:0:0:0:
320,192,100058,1,2,0:0:0:0:
192,192,100283,1,2,0:0:0:0:
448,192,100508,1,2,0:0:0:0:
448,192,100658,1,2,0:0:0:0:
64,192,100808,1,2,0:0:0:0:
320,192,100808,1,2,0:0:0:0:
64,192,101033,1,2,0:0:0:0:
448,192,101258,1,2,0:0:0:0:
320,192,101483,1,2,0:0:0:0:
192,192,101708,1,2,0:0:0:0:
64,192,101858,1,2,0:0:0:0:
448,192,101858,1,4,0:0:0:0:
64,192,102008,1,2,0:0:0:0:
448,192,102008,1,4,0:0:0:0:
320,192,102233,1,2,0:0:0:0:
64,192,102458,1,2,0:0:0:0:
320,192,102683,1,2,0:0:0:0:
448,192,102908,1,2,0:0:0:0:
64,192,103058,1,2,0:0:0:0:
320,192,103058,1,4,0:0:0:0:
320,192,103208,1,4,0:0:0:0:
64,192,103208,1,2,0:0:0:0:
448,192,103658,1,4,0:0:0:0:
192,192,103658,1,2,0:0:0:0:
64,192,103808,1,2,0:0:0:0:
320,192,103808,1,4,0:0:0:0:
320,192,104258,1,4,0:0:0:0:
64,192,104258,1,2,0:0:0:0:
192,192,104408,1,2,0:0:0:0:
448,192,104408,1,4,0:0:0:0:
64,192,104558,1,2,0:0:0:0:
320,192,104708,1,2,0:0:0:0:
448,192,104708,1,2,0:0:0:0:
192,192,104858,1,2,0:0:0:0:
448,192,105008,1,2,0:0:0:0:
320,192,105083,1,2,0:0:0:0:
192,192,105158,1,2,0:0:0:0:
64,192,105233,1,2,0:0:0:0:
192,192,105308,1,2,0:0:0:0:
448,192,105383,1,2,0:0:0:0:
320,192,105458,1,2,0:0:0:0:
192,192,105533,1,2,0:0:0:0:
64,192,105608,1,2,0:0:0:0:
64,192,106208,1,2,0:0:0:0:
192,192,106245,1,2,0:0:0:0:
320,192,106283,1,2,0:0:0:0:
448,192,106320,1,2,0:0:0:0:
192,192,106433,1,2,0:0:0:0:
64,192,106508,1,2,0:0:0:0:
448,192,106658,1,2,0:0:0:0:
320,192,106695,1,2,0:0:0:0:
192,192,106733,1,2,0:0:0:0:
64,192,106770,1,2,0:0:0:0:
448,192,106808,1,4,0:0:0:0:
192,192,106958,1,2,0:0:0:0:
64,192,107108,1,2,0:0:0:0:
320,192,107108,1,2,0:0:0:0:
448,192,107258,1,2,0:0:0:0:
192,192,107408,1,2,0:0:0:0:
320,192,107408,1,2,0:0:0:0:
64,192,107558,1,2,0:0:0:0:
192,192,107708,1,2,0:0:0:0:
448,192,107708,1,2,0:0:0:0:
320,192,107858,1,2,0:0:0:0:
64,192,108008,1,2,0:0:0:0:
448,192,108008,1,2,0:0:0:0:
192,192,108158,1,2,0:0:0:0:
320,192,108308,1,2,0:0:0:0:
448,192,108308,1,2,0:0:0:0:
192,192,108458,1,2,0:0:0:0:
64,192,108608,1,2,0:0:0:0:
320,192,108608,1,4,0:0:0:0:
448,192,108758,1,2,0:0:0:0:
192,192,108908,1,2,0:0:0:0:
320,192,108908,1,4,0:0:0:0:
64,192,109058,1,2,0:0:0:0:
192,192,109208,1,4,0:0:0:0:
448,192,109208,1,2,0:0:0:0:
320,192,109358,1,2,0:0:0:0:
64,192,109508,1,2,0:0:0:0:
192,192,109508,1,2,0:0:0:0:
448,192,109658,1,2,0:0:0:0:
320,192,109808,1,2,0:0:0:0:
64,192,109808,1,2,0:0:0:0:
192,192,109958,1,2,0:0:0:0:
320,192,110108,1,2,0:0:0:0:
448,192,110108,1,2,0:0:0:0:
192,192,110258,1,2,0:0:0:0:
64,192,110408,1,2,0:0:0:0:
448,192,110408,1,2,0:0:0:0:
320,192,110558,1,2,0:0:0:0:
64,192,110708,1,2,0:0:0:0:
192,192,110708,1,2,0:0:0:0:
320,192,110858,1,2,0:0:0:0:
448,192,111008,1,2,0:0:0:0:
192,192,111008,1,4,0:0:0:0:
320,192,111158,1,2,0:0:0:0:
448,192,111308,1,2,0:0:0:0:
64,192,111308,1,4,0:0:0:0:
192,192,111458,1,2,0:0:0:0:
320,192,111608,1,2,0:0:0:0:
448,192,111608,1,4,0:0:0:0:
192,192,111758,1,2,0:0:0:0:
64,192,111908,1,2,0:0:0:0:
320,192,111908,1,2,0:0:0:0:
448,192,112058,1,2,0:0:0:0:
192,192,112208,1,2,0:0:0:0:
320,192,112208,1,2,0:0:0:0:
64,192,112358,1,2,0:0:0:0:
448,192,112508,1,2,0:0:0:0:
192,192,112508,1,2,0:0:0:0:
320,192,112658,1,2,0:0:0:0:
64,192,112808,1,2,0:0:0:0:
192,192,112808,1,2,0:0:0:0:
320,192,112958,1,2,0:0:0:0:
64,192,113108,1,2,0:0:0:0:
448,192,113108,1,2,0:0:0:0:
192,192,113258,1,2,0:0:0:0:
320,192,113408,1,2,0:0:0:0:
448,192,113408,1,4,0:0:0:0:
192,192,113558,1,2,0:0:0:0:
64,192,113708,1,2,0:0:0:0:
448,192,113708,1,4,0:0:0:0:
320,192,113858,1,2,0:0:0:0:
64,192,114008,1,4,0:0:0:0:
192,192,114008,1,2,0:0:0:0:
320,192,114158,1,2,0:0:0:0:
448,192,114308,1,2,0:0:0:0:
64,192,114308,1,2,0:0:0:0:
320,192,114458,1,2,0:0:0:0:
448,192,114608,1,2,0:0:0:0:
192,192,114608,1,2,0:0:0:0:
64,192,114758,1,2,0:0:0:0:
320,192,114908,1,2,0:0:0:0:
192,192,114908,1,2,0:0:0:0:
448,192,115058,1,2,0:0:0:0:
320,192,115208,1,2,0:0:0:0:
64,192,115208,1,4,0:0:0:0:
192,192,115358,1,2,0:0:0:0:
448,192,115508,1,2,0:0:0:0:
64,192,115508,1,4,0:0:0:0:
320,192,115658,1,2,0:0:0:0:
192,192,115808,1,2,0:0:0:0:
64,192,115808,1,4,0:0:0:0:
320,192,115958,1,2,0:0:0:0:
448,192,116108,1,4,0:0:0:0:
192,192,116108,1,2,0:0:0:0:
64,192,116258,1,2,0:0:0:0:
320,192,116408,1,2,0:0:0:0:
192,192,116408,1,2,0:0:0:0:
448,192,116558,1,2,0:0:0:0:
320,192,116708,1,2,0:0:0:0:
64,192,116708,1,2,0:0:0:0:
192,192,116858,1,2,0:0:0:0:
448,192,117008,1,2,0:0:0:0:
320,192,117008,1,2,0:0:0:0:
64,192,117158,1,2,0:0:0:0:
192,192,117308,1,2,0:0:0:0:
448,192,117308,1,2,0:0:0:0:
320,192,117458,1,2,0:0:0:0:
192,192,117608,1,2,0:0:0:0:
64,192,117608,1,2,0:0:0:0:
320,192,117758,1,2,0:0:0:0:
448,192,117908,1,2,0:0:0:0:
64,192,117908,1,2,0:0:0:0:
192,192,118058,1,2,0:0:0:0:
448,192,118208,1,4,0:0:0:0:
320,192,118208,1,2,0:0:0:0:
192,192,118358,1,2,0:0:0:0:
64,192,118508,1,2,0:0:0:0:
320,192,118508,1,4,0:0:0:0:
192,192,118658,1,2,0:0:0:0:
448,192,118808,1,4,0:0:0:0:
64,192,118808,1,2,0:0:0:0:
320,192,118958,1,2,0:0:0:0:
64,192,119108,1,2,0:0:0:0:
192,192,119108,1,2,0:0:0:0:
320,192,119258,1,2,0:0:0:0:
448,192,119408,1,2,0:0:0:0:
192,192,119408,1,2,0:0:0:0:
64,192,119558,1,2,0:0:0:0:
192,192,119708,1,2,0:0:0:0:
320,192,119708,1,2,0:0:0:0:
448,192,119858,1,2,0:0:0:0:
64,192,120008,1,2,0:0:0:0:
320,192,120008,1,2,0:0:0:0:
192,192,120158,1,2,0:0:0:0:
448,192,120308,1,2,0:0:0:0:
320,192,120308,1,2,0:0:0:0:
192,192,120458,1,2,0:0:0:0:
448,192,120608,1,2,0:0:0:0:
64,192,120608,1,4,0:0:0:0:
320,192,120758,1,2,0:0:0:0:
192,192,120908,1,2,0:0:0:0:
64,192,120908,1,4,0:0:0:0:
320,192,121058,1,2,0:0:0:0:
192,192,121208,1,4,0:0:0:0:
448,192,121208,1,2,0:0:0:0:
64,192,121358,1,2,0:0:0:0:
320,192,121358,1,2,0:0:0:0:
448,192,121508,1,2,0:0:0:0:
192,192,121508,1,2,0:0:0:0:
64,192,121658,1,2,0:0:0:0:
448,192,121658,1,2,0:0:0:0:
320,192,121808,1,2,0:0:0:0:
192,192,121808,1,2,0:0:0:0:
64,192,121958,1,2,0:0:0:0:
448,192,121958,1,2,0:0:0:0:
192,192,122108,1,2,0:0:0:0:
320,192,122108,1,2,0:0:0:0:
64,192,122258,1,2,0:0:0:0:
320,192,122258,1,2,0:0:0:0:
192,192,122408,1,2,0:0:0:0:
448,192,122408,1,2,0:0:0:0:
64,192,122558,1,2,0:0:0:0:
192,192,122558,1,2,0:0:0:0:
320,192,122708,1,2,0:0:0:0:
448,192,122708,1,2,0:0:0:0:
64,192,122858,1,2,0:0:0:0:
192,192,122858,1,2,0:0:0:0:
320,192,123008,1,2,0:0:0:0:
448,192,123008,1,4,0:0:0:0:
64,192,123158,1,2,0:0:0:0:
192,192,123158,1,2,0:0:0:0:
192,192,123308,1,2,0:0:0:0:
448,192,123308,1,4,0:0:0:0:
64,192,123458,1,2,0:0:0:0:
320,192,123458,1,2,0:0:0:0:
448,192,123608,1,4,0:0:0:0:
320,192,123683,1,2,0:0:0:0:
192,192,123758,1,2,0:0:0:0:
64,192,123833,1,2,0:0:0:0:
192,192,123908,1,2,0:0:0:0:
320,192,123983,1,2,0:0:0:0:
448,192,124058,1,2,0:0:0:0:
320,192,124133,1,2,0:0:0:0:
64,192,124208,1,2,0:0:0:0:
192,192,124283,1,2,0:0:0:0:
320,192,124358,1,2,0:0:0:0:
448,192,124433,1,2,0:0:0:0:
320,192,124508,1,2,0:0:0:0:
192,192,124583,1,2,0:0:0:0:
64,192,124658,1,2,0:0:0:0:
192,192,124733,1,2,0:0:0:0:
448,192,124808,1,4,0:0:0:0:
320,192,124808,1,2,0:0:0:0:
64,192,124958,1,2,0:0:0:0:
192,192,125033,1,2,0:0:0:0:
320,192,125108,1,4,0:0:0:0:
64,192,125108,1,2,0:0:0:0:
448,192,125258,1,2,0:0:0:0:
320,192,125333,1,2,0:0:0:0:
192,192,125408,1,4,0:0:0:0:
448,192,125408,1,2,0:0:0:0:
320,192,125558,1,2,0:0:0:0:
192,192,125633,1,2,0:0:0:0:
64,192,125708,1,4,0:0:0:0:
320,192,125708,1,2,0:0:0:0:
448,192,126008,128,2,130808:0:0:0:0:
64,192,126008,128,2,130808:0:0:0:0:
