osu file format v9

[General]
AudioFilename: 21.PARADISE LOST.MP3
AudioLeadIn: 0
PreviewTime: 55525
Countdown: 1
SampleSet: Normal
StackLeniency: 0.7
Mode: 2
LetterboxInBreaks: 1

[Editor]
DistanceSpacing: 1
BeatDivisor: 4
GridSize: 8

[Metadata]
Title:PARADISE LOST
Artist:Ryu* Vs. L.E.D.-G
Creator:Kuzino
Version:2Q
Source:beatmania IIDX
Tags:qqqqzx 2Q 4Q CtB

[Difficulty]
HPDrainRate:7
CircleSize:4
OverallDifficulty:7
ApproachRate:9
SliderMultiplier:1.6
SliderTickRate:1

[Events]
//Background and Video events
0,0,"ggg.jpg"
//Break Periods
2,12525,18925
2,43725,45325
2,84525,86125
//Storyboard Layer 0 (Background)
//Storyboard Layer 1 (Fail)
//Storyboard Layer 2 (Pass)
//Storyboard Layer 3 (Foreground)
//Storyboard Sound Samples
//Background Colour Transformations
3,100,163,162,255

[TimingPoints]
2725,300,4,1,0,50,1,0
11200,-100,4,1,0,5,0,0
11350,-100,4,1,0,50,0,0
11650,-100,4,1,0,5,0,0
11800,-100,4,1,0,50,0,0
19375,-100,4,1,0,40,0,0
20650,-100,4,1,0,60,0,0
21400,-100,4,1,0,70,0,0
21920,-100,4,1,2,80,0,0
22000,-100,4,2,0,80,0,0
24250,-100,4,1,0,80,0,0
43525,-100,4,1,1,80,0,0
43562,-100,4,1,0,80,0,0
45850,-100,4,1,0,50,0,0
50650,-100,4,1,0,60,0,0
51850,-100,4,1,0,70,0,0
53050,-100,4,1,0,80,0,0
54325,-100,4,2,0,80,0,0
54850,-100,4,1,0,80,0,0
55000,-100,4,2,0,80,0,0
55150,-100,4,1,0,80,0,0
55300,-100,4,2,0,80,0,0
55525,-83.3333333333333,4,1,0,80,0,1
63925,-83.3333333333333,4,1,0,80,0,0
65125,-83.3333333333333,4,1,0,80,0,1
72325,-100,4,1,0,80,0,0
84325,-100,4,1,1,80,0,0
86425,-100,4,2,0,80,0,0
96250,-100,4,1,0,60,0,0
105887,-100,4,1,2,80,0,0
105962,-100,4,1,0,60,0,0
107125,-83.3333333333333,4,1,0,80,0,1
126325,-100,4,1,0,80,0,0

[Colours]
Combo1 : 0,128,192
Combo2 : 0,255,255
Combo3 : 5,5,240
Combo4 : 128,128,255

[HitObjects]
472,192,2725,1,0
128,352,3025,1,0
384,352,3325,1,0
40,192,3625,1,4
392,192,3925,6,0,B|312:192,2,80
93,118,4525,2,0,B|184:96|216:192,1,160
93,118,4975,1,0
32,266,5125,6,0,B|93:118,1,160
104,336,5725,1,0
400,272,6025,1,0
328,296,6175,1,0
256,320,6325,1,0
184,296,6475,1,0
112,272,6625,1,0
256,216,6925,1,0
448,32,7525,5,4
256,104,7825,1,0
64,32,8125,1,0
400,120,8425,6,0,B|432:144|440:200,1,80
112,120,8875,2,0,B|80:144|72:200,1,80
336,264,9325,5,0
336,264,9475,2,0,B|168:264,1,160
336,312,9925,6,0,B|496:312,2,160,4|0|0
128,296,10675,1,0
64,280,10825,1,0
0,264,10975,1,0
256,224,11125,6,0,B|336:184,2,80
72,120,11575,2,0,B|-8:160,2,80
176,104,12025,1,0
280,80,12175,2,0,B|288:32,2,40,0|0|4
40,192,19525,6,0,B|24:272,1,80
256,160,19825,2,0,B|224:72,1,80
477,333,20125,2,0,B|400:312,1,80
40,192,20425,1,0
40,192,20575,1,0
120,192,20725,5,0
176,168,20800,1,0
240,152,20875,1,0
304,160,20950,1,0
352,192,21025,1,0
408,224,21100,1,0
464,256,21175,1,0
408,296,21250,1,0
344,320,21325,1,0
488,168,21475,6,0,B|520:144,3,26.6666666666667
224,80,21775,6,0,B|232:56,4,20,0|0|0|0|4
368,112,22225,1,2
0,96,22525,6,0,B|48:96|48:96|75:112,1,80,0|2
256,88,22825,2,0,B|208:88|208:88|180:71,1,80,0|2
120,192,23125,1,0
64,248,23275,2,0,B|112:288|184:272|202:192,1,160,2|2
400,72,23725,6,0,B|479:64,1,80,2|0
104,328,24025,2,0,B|24:321,1,80,2|0
320,328,24325,6,0,B|368:320|376:264,1,80,4|2
493,164,24625,2,0,B|488:120|440:112,1,80,0|2
368,192,24925,1,0
368,192,25000,1,0
368,192,25075,1,2
144,192,25225,2,0,B|224:192,1,80,0|2
0,64,25525,6,0,B|64:0,1,80,0|2
504,320,25825,2,0,B|447:376,1,80,0|2
64,312,26125,5,2
448,192,26275,1,2
64,72,26425,1,0
256,192,26575,1,2
479,27,26725,6,0,B|440:32|416:72,1,80,4|2
32,312,27025,2,0,B|56:352|95:356,1,80,0|2
256,192,27325,1,0
256,192,27400,1,0
256,192,27475,2,0,B|176:192,2,80,2|0|2
504,32,27925,6,0,B|464:32|464:32|432:56,1,80,0|2
184,328,28225,2,0,B|216:352|216:352|256:352,1,80,0|2
416,80,28525,5,2
416,304,28675,1,0
96,192,28825,1,2
280,192,28975,1,2
32,352,29125,6,0,B|110:337,1,80,4|2
296,48,29425,2,0,B|217:33,1,80,2|0
64,192,29725,1,2
64,192,29800,1,0
64,192,29875,1,0
376,192,30025,2,0,B|280:192,1,80,2|0
168,112,30325,5,0
80,64,30475,1,2
344,272,30625,5,0
432,320,30775,1,2
160,48,30925,6,0,B|81:34,1,80,2|0
352,352,31225,2,0,B|430:337,1,80,2|0
32,192,31525,6,0,B|120:192,1,80,4|2
224,192,31825,1,2
280,192,31900,1,0
336,192,31975,1,0
480,128,32125,6,0,B|480:88|480:88|456:56,1,80,2|0
200,248,32425,2,0,B|200:288|200:288|224:320,1,80,0|2
480,248,32726,2,0,B|480:288|480:288|456:320,1,80,0|2
224,64,33025,2,0,B|200:96|200:96|200:136,1,80,2|0
0,88,33325,5,0
256,192,33475,1,2
0,296,33625,1,2
424,272,33925,6,0,B|328:280,1,80,4|2
48,192,34225,1,0
48,192,34375,1,2
216,112,34525,2,0,B|295:118,1,80,2|0
496,192,34825,1,2
496,192,34900,1,0
496,192,34975,1,0
416,120,35125,6,0,B|448:40,1,80,0|2
94,265,35425,2,0,B|80:344,1,80,2|0
416,264,35725,6,2,B|445:338,1,80
94,118,36025,2,0,B|80:40,1,80,2|0
32,192,36325,5,4
168,192,36475,1,2
296,192,36625,2,0,B|336:192,2,40,0|0|2
104,80,36925,5,0
224,72,37075,1,2
416,320,37225,5,0
288,312,37375,1,2
152,144,37525,6,0,B|176:104|160:64,1,80,0|2
360,240,37825,2,0,B|336:280|352:320,1,80,0|2
112,192,38125,5,2
256,192,38275,1,0
400,192,38425,1,2
16,352,38725,6,0,B|0:248,1,80,4|0
160,320,39025,2,0,B|160:224,1,80
336,320,39325,2,0,B|360:224,1,80
472,360,39625,2,0,B|512:280,1,80
256,312,39925,6,0,B|152:328,1,80,4|0
344,240,40225,2,0,B|248:240,1,80
424,168,40525,2,0,B|328:144,1,80,2|0
512,96,40825,2,0,B|432:56,1,80,2|0
39,34,41125,5,4
64,48,41200,1,0
88,64,41275,1,0
112,80,41350,1,0
144,96,41425,1,0
176,104,41500,1,0
208,112,41575,1,0
248,112,41650,1,0
272,104,41725,1,0
312,96,41800,1,0
336,88,41875,1,0
376,80,41950,1,0
408,72,42025,1,0
440,72,42100,1,0
480,80,42175,1,0
496,93,42250,1,0
509,108,42325,1,0
40,208,42475,6,0,B|16:248,3,26.6666666666667
344,208,42775,1,0
152,304,42925,5,0
480,304,43075,2,0,B|488:352,3,26.6666666666667
256,72,43375,2,0,B|272:40,4,20,0|0|0|0|4
200,72,45925,6,2,B|248:72|248:72|264:88|264:88|328:88,2,120
432,32,46525,2,0,B|480:32|480:32|512:56,1,80,0|2
80,160,46825,2,0,B|32:160|32:160|0:136,1,80,2|0
256,192,47125,6,2,B|280:144|240:128|264:72,2,120
72,232,47725,2,0,B|48:192|88:144,1,80,0|2
448,160,48025,2,0,B|472:200|432:248,1,80,2|0
176,296,48325,6,2,B|48:336,2,120
336,296,48925,2,2,B|464:336,2,120
120,240,49525,2,2,B|88:184|104:112,2,120
392,240,50125,2,2,B|424:184|408:112,2,120
184,256,50725,6,0,B|184:296|224:336,1,80
328,256,51025,2,0,B|328:296|288:336,1,80
136,272,51325,2,0,B|152:312|152:352,1,80
376,272,51625,2,0,B|360:312|360:352,1,80
64,288,51925,2,0,B|48:336|0:360,1,80
448,288,52225,2,0,B|464:336|512:360,1,80
256,240,52525,5,0
128,192,52675,1,0
256,136,52825,1,0
384,192,52975,1,0
36,81,53125,5,0
64,56,53200,1,0
96,40,53275,1,0
136,32,53350,1,0
168,24,53425,1,0
208,24,53500,1,0
256,24,53575,1,0
304,24,53650,1,0
344,24,53725,1,0
376,32,53800,1,0
416,40,53875,1,0
448,56,53950,1,0
472,80,54025,6,0,B|488:104,8,20,0|0|0|0|0|0|0|0|2
120,192,54550,1,2
392,192,54775,1,2
72,176,54925,6,0,B|48:216|72:264,1,80,2|0
440,176,55225,2,0,B|464:216|440:264,1,80,2|0
64,344,55525,6,0,B|24:312|24:240,1,96.0000022888184,6|0
216,264,55750,2,0,B|256:232|256:160,1,96.0000022888184,2|0
80,160,55975,1,2
392,232,56125,6,0,B|297:247,1,96.0000022888184,2|0
160,336,56426,2,0,B|254:320,1,96.0000022888184,0|2
472,288,56725,6,2,B|504:256|504:192|456:160,2,144.000003433228
288,232,57325,1,0
272,184,57400,2,2,B|264:128|304:88,1,96.0000022888184
344,72,57625,2,0,B|296:64|248:16,1,96.0000022888184,2|0
192,80,57925,5,2
96,112,58150,1,2
0,144,58375,1,2
344,72,58525,5,2
80,192,58750,1,2
304,344,58975,1,2
464,344,59125,6,0,B|513:321|506:266,1,96.0000022888184,2|0
272,280,59350,2,0,B|256:184,1,96.0000022888184,2|0
256,185,59575,1,2
0,280,59725,6,0,B|96:280,1,96.0000022888184,2|0
304,344,60025,2,0,B|208:344,1,96.0000022888184,0|2
48,128,60325,6,0,B|48:80|48:80|88:40,1,96.0000022888184,6|0
208,104,60550,2,0,B|312:104,1,96.0000022888184,2|0
432,48,60775,2,0,B|466:82|466:82|466:130,1,96.0000022888184,2|0
488,192,61075,6,0,B|376:192,2,96.0000022888184,2|2|0
416,344,61525,5,2
312,296,61675,1,0
248,272,61750,1,2
176,336,61900,1,0
120,312,61975,1,2
72,272,62050,1,0
32,224,62125,6,0,B|16:168|64:128,1,96.0000022888184,0|2
280,72,62425,2,0,B|296:128|248:168,1,96.0000022888184,2|0
432,96,62725,5,2
328,192,62950,1,2
192,296,63175,5,2
192,296,63250,1,0
192,296,63325,1,2
432,96,63550,1,2
136,48,63775,5,2
136,48,63850,1,0
136,48,63925,1,2
432,296,64150,1,2
72,296,64375,1,2
72,296,64450,1,0
72,296,64525,5,2
360,72,64750,1,2
40,104,64975,1,2
56,200,65125,6,0,B|112:208|160:168,1,96.0000022888184,6|0
176,216,65350,2,0,B|184:112,1,96.0000022888184,2|0
183,120,65575,1,2
512,352,65725,6,0,B|416:352,1,96.0000022888184,2|0
192,296,66025,2,0,B|288:296,1,96.0000022888184,0|2
464,112,66325,6,2,B|464:168|464:168|488:200|488:200|488:256,2,144.000003433228
288,168,66925,1,0
288,168,67000,1,0
288,168,67075,2,0,B|288:64,2,96.0000022888184,2|2|0
48,272,67525,6,2,B|136:296|168:216,1,144.000003433228
128,192,67825,2,0,B|112:128,1,48.0000011444092
184,136,67975,2,0,B|195:78,1,48.0000011444092,2|0
144,64,68125,2,0,B|272:80,1,96.0000022888184,2|0
296,56,68350,2,0,B|280:112|312:168,1,96.0000022888184,2|0
344,168,68575,1,0
392,152,68650,1,0
432,152,68725,5,2
472,176,68800,1,0
488,216,68875,1,0
456,256,68950,2,2,B|384:256|328:320,1,144.000003433228
64,312,69325,5,2
64,312,69400,1,0
64,312,69475,2,2,B|104:208,1,96.0000022888184
128,80,69775,1,0
128,80,69850,1,0
128,80,69925,6,2,B|40:112|0:40,2,144.000003433228,6|2|2
216,120,70525,1,0
272,88,70600,2,2,B|264:144|296:176,1,96.0000022888184
344,208,70825,2,0,B|400:208,1,48.0000011444092,2|0
312,248,70975,2,0,B|256:248,1,48.0000011444092,2|0
344,296,71125,6,2,B|384:368|472:336,2,144.000003433228
200,328,71725,1,2
200,328,71800,1,0
200,328,71875,2,2,B|160:240,1,96.0000022888184
120,152,72175,1,2
432,96,72325,5,2
256,192,72550,1,2
80,288,72775,5,2
80,288,72850,1,0
80,288,72925,1,2
432,96,73150,1,2
256,72,73375,5,2
256,72,73450,1,0
256,72,73525,1,2
480,240,73750,1,2
184,320,73975,1,2
184,320,74050,1,0
184,320,74125,5,2
352,32,74350,1,2
0,112,74575,1,2
24,200,74725,6,0,B|72:208|120:168,1,80,6|0
160,120,75025,1,2
208,128,75100,1,0
248,152,75175,1,0
272,192,75250,1,0
272,232,75325,2,0,B|264:280|272:328,1,80,2|0
472,240,75625,2,0,B|480:192|472:144,1,80,2|2
472,32,75925,6,0,B|432:48|368:32,1,80,2|0
312,32,76225,1,2
264,56,76300,1,0
224,88,76375,1,0
192,128,76450,1,0
184,176,76525,2,0,B|184:224|216:256,1,80,2|0
112,264,76825,2,0,B|112:312|80:344,1,80,0|2
320,184,77125,6,0,B|320:136|352:104,1,80,2|0
360,88,77350,2,0,B|416:80,1,40
432,96,77500,1,0
464,128,77575,1,0
488,168,77650,1,0
464,208,77725,2,0,B|480:248|464:304,1,80,2|0
272,368,78025,2,0,B|256:328|272:272,1,80,0|2
120,352,78325,6,0,B|80:264,1,80,0|2
120,208,78625,1,0
112,248,78700,1,0
86,279,78775,1,0
48,288,78850,1,0
8,280,78925,2,0,B|-8:240|0:200,1,80,2|2
240,56,79225,2,0,B|256:96|248:136,1,80,2|0
88,24,79525,5,4
176,80,79675,1,0
264,136,79825,1,0
368,192,79975,1,0
472,136,80125,1,2
368,192,80275,1,0
264,248,80425,1,2
152,304,80575,1,0
440,360,80725,5,4
328,304,80875,1,0
224,248,81025,1,0
128,192,81175,1,0
32,248,81325,1,2
128,192,81475,1,0
224,136,81625,1,2
328,80,81775,1,0
408,136,81925,6,0,B|448:136,3,40,4|0|0|0
488,152,82225,1,2
512,184,82300,1,0
512,224,82375,1,0
488,256,82450,1,0
448,264,82525,2,0,B|432:312,3,40
376,312,82825,1,2
344,296,82900,1,0
304,288,82975,1,0
264,296,83050,1,0
232,320,83125,5,0
40,216,83275,2,0,B|16:184,3,26.6666666666667
256,96,83575,1,0
40,320,83725,5,2
256,48,83875,2,0,B|264:0,3,26.6666666666667,2|0|0|2
472,320,84175,2,0,B|480:352,4,20,0|0|0|0|4
40,32,86725,6,0,B|24:72|40:120,1,80,0|2
400,192,87025,1,0
40,336,87175,2,0,B|24:296|40:248,1,80,0|2
256,192,87475,1,0
480,192,87625,6,0,B|400:192,1,80,0|2
32,192,87925,2,0,B|112:192,1,80,0|2
336,320,88225,2,0,B|376:352|432:328,1,80,0|2
168,88,88525,2,0,B|133:72|93:104,1,80,0|2
400,192,88825,1,0
400,192,88975,1,2
184,280,89125,6,0,B|136:368,2,80,2|0|0
328,104,89575,2,0,B|376:16,2,80,2|0|0
208,192,90025,1,0
208,192,90175,1,2
144,144,90325,6,0,B|120:112|120:112|80:112,1,80,0|2
368,240,90625,2,0,B|392:272|392:272|432:272,1,80,0|2
168,120,90925,2,0,B|112:32,1,80,0|2
344,264,91225,2,0,B|400:352,1,80,0|2
208,192,91525,5,2
416,80,91675,2,0,B|440:40|488:32,1,80,0|0
208,192,91975,1,2
408,192,92125,2,0,B|453:180|492:208,1,80,0|0
208,192,92425,1,2
424,296,92575,2,0,B|463:319|469:358,1,80
128,192,92875,6,0,B|48:192,2,80,0|2|0
344,120,93325,2,0,B|344:80|344:80|328:40,1,80,0|2
168,264,93625,2,0,B|168:304|168:304|184:344,1,80,0|2
328,264,93925,6,0,B|408:280|456:368,1,160,2|0
352,192,94375,2,0,B|512:192,1,160,2|0
328,120,94825,2,0,B|408:104|456:16,1,160,2|0
256,192,95275,5,2
136,120,95425,1,0
16,192,95575,1,0
256,112,95725,2,0,B|232:72|176:72,1,80,2|0
269,311,96025,2,0,B|312:312|336:272,1,80,0|2
112,192,96325,6,2,B|-8:192,2,120,6|2|2
400,192,96925,1,2
400,192,97000,1,0
112,192,97150,1,2
112,192,97225,1,0
256,192,97375,1,2
256,112,97525,6,0,B|288:72|360:96,1,80,2|0
464,72,97750,2,0,B|488:168,1,80,2|0
256,112,97975,1,2
256,272,98125,2,0,B|224:312|152:288,1,80,2|0
48,312,98350,2,0,B|24:216,1,80,2|0
256,272,98575,1,2
0,128,98725,6,0,B|32:160|88:152,1,80,0|2
168,152,99025,1,0
216,176,99100,2,2,B|256:192|296:176,1,80
344,152,99325,1,0
432,152,99475,1,0
432,152,99550,2,2,B|474:159|506:127,1,80
505,127,99775,1,0
456,72,99925,6,2,B|400:72|400:72|384:64|384:64|320:64,1,120
56,72,100375,2,2,B|112:72|112:72|128:64|128:64|192:64,1,120
256,128,100750,1,0
256,128,100825,2,2,B|256:208,1,80
304,272,101125,5,4
184,304,101275,1,2
56,336,101425,1,0
96,296,101500,1,0
104,256,101575,1,2
64,224,101650,1,0
8,216,101725,2,0,B|56:208|96:176,1,80,0|2
136,200,101950,2,0,B|144:96,1,80,0|2
8,120,102175,1,6
200,88,102325,6,0,B|240:32|312:40,1,120,4|2
408,40,102625,1,0
272,112,102775,2,0,B|256:160,1,40,2|2
496,192,103000,2,0,B|512:144,1,40,0|2
288,240,103225,1,2
288,240,103375,1,6
360,312,103525,6,0,B|312:328|264:288,1,80,4|2
224,320,103750,2,0,B|200:232,1,80,0|2
152,216,103975,1,4
104,192,104050,1,0
48,200,104125,2,2,B|64:128|0:96,2,120,6|2|2
440,112,104725,6,0,B|352:104,1,80
72,112,105025,2,0,B|160:104,1,80
392,192,105325,5,0
392,240,105400,1,0
376,288,105475,1,0
344,320,105550,1,0
256,328,105625,1,0
168,320,105700,1,0
136,288,105775,1,0
120,240,105850,1,0
120,192,105925,1,4
448,328,106525,6,0,B|472:312,3,26.6666666666667,4|0|0|0
416,328,106750,1,0
384,328,106825,1,0
64,328,106975,2,0,B|40:312,4,20,0|0|0|0|4
352,312,107275,5,2
256,328,107425,1,0
208,288,107500,1,0
208,240,107575,1,2
256,200,107650,1,0
304,192,107725,6,0,B|240:184|216:112,1,96.0000022888184,0|2
288,120,107950,2,0,B|264:80|280:24,1,96.0000022888184,0|2
344,16,108175,1,2
128,184,108325,6,2,B|80:120|112:32,2,144.000003433228
0,240,108925,1,0
56,280,109000,1,0
120,288,109075,1,0
184,272,109150,2,0,B|216:224|288:224,1,96.0000022888184,2|0
312,240,109375,1,2
312,312,109525,6,0,B|296:256,1,48.0000011444092,4|0
384,296,109675,2,0,B|384:240,1,48.0000011444092,2|0
456,296,109825,2,0,B|512:216,1,96.0000022888184,2|2
456,144,110125,2,2,B|368:184|320:96,1,144.000003433228
376,72,110425,2,0,B|280:64,1,96.0000022888184,0|2
152,136,110725,6,0,B|200:112|192:40,1,96.0000022888184,2|0
48,64,110950,2,0,B|0:88|8:160,1,96.0000022888184,2|0
56,200,111175,2,0,B|160:200,1,96.0000022888184,2|0
296,192,111400,2,0,B|312:248|264:288,1,96.0000022888184,2|0
80,320,111625,2,2,B|136:312|168:376,1,96.0000022888184
376,328,111925,6,0,B|408:288|400:232,1,96.0000022888184,4|2
512,144,112225,1,0
456,176,112300,1,0
392,184,112375,1,2
336,168,112450,1,0
296,128,112525,2,0,B|280:80|296:32,1,96.0000022888184,0|2
336,32,112750,1,2
200,152,112900,1,2
200,152,112975,2,0,B|216:200|200:248,1,96.0000022888184,0|2
176,312,113275,5,0
112,312,113350,1,0
56,288,113425,1,2
16,248,113500,1,0
0,200,113575,1,0
24,104,113725,1,0
72,64,113800,2,2,B|120:64|152:112,1,96.0000022888184
208,88,114025,2,2,B|232:144|208:200,1,96.0000022888184
256,320,114325,6,0,B|400:296,1,144.000003433228,4|2
456,336,114625,2,0,B|464:232,1,96.0000022888184,0|2
288,88,114925,2,0,B|280:192,1,96.0000022888184,4|2
336,224,115150,2,2,B|272:176|192:208,1,144.000003433228
0,104,115525,6,0,B|-20:156|3:196,1,96.0000022888184,2|0
160,343,115748,2,0,B|184:304|163:251,1,96.0000022888184,6|0
0,336,115975,1,2
312,80,116125,6,0,B|336:120|312:184,1,96.0000022888184,6|0
200,224,116350,2,0,B|176:264|200:328,1,96.0000022888184,2|0
256,368,116575,1,2
408,320,116725,6,0,B|440:280|424:216,1,96.0000022888184,4|2
504,144,117025,1,0
472,176,117100,1,0
424,184,117175,1,2
376,168,117250,1,0
352,128,117325,2,0,B|336:72|360:24,1,96.0000022888184,0|2
384,40,117550,2,0,B|264:64,1,96.0000022888184
288,56,117775,1,2
32,160,117925,6,0,B|184:128,1,144.000003433228,0|2
256,128,118225,2,0,B|272:176|256:232,1,96.0000022888184,0|2
480,320,118525,2,0,B|328:352,1,144.000003433228,0|2
256,352,118825,2,0,B|240:304|256:248,1,96.0000022888184,0|2
264,48,119125,5,4
264,48,119200,1,0
264,48,119275,1,2
384,96,119425,2,0,B|392:160,1,48.0000011444092,0|2
504,192,119650,1,0
504,192,119725,2,2,B|472:272|376:272,1,144.000003433228
280,248,120025,2,0,B|296:296|280:344,1,96.0000022888184,0|2
112,312,120325,5,0
56,272,120400,1,0
48,224,120475,1,0
96,176,120550,1,2
0,64,120700,1,0
0,64,120775,1,2
216,152,120925,1,0
216,152,121000,2,0,B|328:136,1,96.0000022888184,2|0
272,104,121225,2,2,B|384:88,1,96.0000022888184
456,368,121525,6,0,B|456:320|512:288,1,96.0000022888184,4|0
360,304,121825,2,0,B|360:256|392:200,1,96.0000022888184
256,288,122125,2,0,B|256:192,1,96.0000022888184
152,304,122425,2,0,B|152:257|126:213,1,96.0000022888184
56,384,122725,6,0,B|57:337|6:308,1,96.0000022888184,4|0
360,120,123025,2,0,B|453:141,1,96.0000022888184
152,120,123325,2,0,B|58:141,1,96.0000022888184
456,384,123625,2,0,B|456:337|506:308,1,96.0000022888184,0|0
8,320,123925,5,4
72,304,124000,1,0
136,296,124075,1,0
200,288,124150,1,0
264,288,124225,1,0
328,288,124300,1,0
392,296,124375,1,0
456,312,124450,1,0
512,336,124525,1,4
456,312,124600,1,0
392,296,124675,1,0
328,288,124750,1,0
264,288,124825,1,0
200,288,124900,1,0
136,296,124975,1,0
72,304,125050,1,0
8,320,125125,1,4
448,192,125275,6,0,B|456:144,3,32.0000007629395
136,64,125575,1,0
376,64,125725,1,0
64,192,125875,2,0,B|56:144,3,32.0000007629395
256,288,126175,2,0,B|256:328,4,24.0000005722046,0|0|0|0|4
