osu file format v5

[General]
AudioFilename: in the Sky.mp3
AudioLeadIn: 0
PreviewTime: -1
Countdown: 0
SampleSet: Normal
StackLeniency: 0.7
Mode: 0
LetterboxInBreaks: 1
EditorDistanceSpacing: 0.600000023841858

[Metadata]
Title:in the Sky
Artist:Ryu
Creator:Takuma
Version:Normal
Source:
Tags:

[Difficulty]
HPDrainRate:5
CircleSize:4
OverallDifficulty:6
SliderMultiplier:1.4
SliderTickRate:1

[Events]
//Background and Video events
0,0,"in the Sky-bg.png"
//Break Periods
2,28199,28433
2,39866,49766
2,63866,68615
//Storyboard Layer 0 (Background)
//Storyboard Layer 1 (Failing)
//Storyboard Layer 2 (Passing)
//Storyboard Layer 3 (Foreground)
//Storyboard Sound Samples
//Background Colour Transformations
3,100,163,162,255

[TimingPoints]
10,333.333333333333,4,1,0,80,1,0
17333,-100,4,2,0,80,0,0
22666,-100,4,1,0,80,0,0
27999,-100,4,2,0,10,0,0
28333,-100,4,1,0,80,0,0
55999,-200,4,2,0,10,0,0
58666,-100,4,2,0,80,0,0
61333,-100,4,1,0,80,0,0
91998,-100,4,2,0,100,0,0

[Colours]
Combo1 : 255,128,64
Combo2 : 128,128,255
Combo3 : 0,128,64
Combo4 : 255,0,128

[HitObjects]
256,192,6009,1,0
256,192,6343,1,0
256,48,6676,2,0,B|104:48,1,140
37,48,7176,1,0
37,128,7343,1,0
117,128,7509,2,0,B|117:208,1,70
184,320,8009,6,0,B|248:264|344:296,1,140
392,320,8509,1,0
472,288,8676,2,0,B|528:232|488:144,1,140
360,56,9343,6,0,B|208:56,1,140
224,144,9843,1,0
136,144,10010,2,0,B|136:288,1,140
288,352,10676,6,0,B|336:312|384:376|432:336,3,140,0|0|0|4
464,272,11843,1,0
464,272,12010,1,4
464,104,12343,5,0
296,104,12676,1,0
296,272,13010,1,0
296,104,13343,1,4
128,104,13676,6,0,B|128:184,1,70
128,272,14010,2,0,B|128:352,1,70
128,272,14343,1,0
296,272,14676,5,4
436,272,15010,2,0,B|276:272,1,140,0|4
296,131,15676,2,0,B|296:271,1,140
296,352,16176,2,4,B|216:376|168:296,2,140
96,232,17176,5,0
96,232,17343,2,0,B|-8:168|64:32,1,210,2|0
128,8,18010,1,2
408,192,18676,6,0,B|192:192,1,210,2|0
198,192,19343,1,2
200,360,19676,1,2
32,360,20009,6,0,B|0:296|72:264|24:208,3,140,2|0|2|2
136,88,21343,1,2
216,88,21509,1,0
296,88,21676,2,0,B|336:152|296:224,1,140,2|2
440,312,22343,1,4
272,312,22676,6,0,B|152:376|64:304,1,210
16,248,23343,2,0,B|48:144|192:152,1,210
264,152,24009,1,0
432,152,24676,6,0,B|432:304,2,140
432,64,25676,1,0
344,64,26009,2,0,B|344:216,1,140
256,192,26759,12,0,28009
256,192,29343,6,0,B|336:192,3,70
408,192,30176,1,0
408,104,30509,1,0
408,104,30676,2,0,B|336:104,3,70
256,104,31509,1,0
168,104,31843,1,0
168,104,32009,2,0,B|168:184,3,70
168,256,32843,1,0
80,256,33176,1,0
256,192,33343,12,4,34343
256,192,34676,5,0
336,192,35009,1,0
256,192,35343,1,0
256,272,35676,1,0
168,272,36009,5,0
168,192,36343,1,0
168,112,36676,1,0
80,112,37009,1,0
80,24,37343,5,4
168,24,37676,1,0
248,24,38009,1,0
248,112,38343,1,0
256,192,38676,12,6,39676
64,192,50676,6,0,B|64:120,3,70
64,40,51510,1,0
144,40,51843,2,0,B|216:40,4,70
144,120,52843,1,0
224,120,53176,1,0
224,120,53343,6,4,B|320:120|328:200,1,140
352,272,54010,2,0,B|264:272,1,70,0|4
200,272,54510,1,4
200,272,54843,1,4
200,272,55176,1,4
200,272,55510,1,4
112,368,55843,5,0
112,368,56010,2,4,B|400:368,1,280
264,256,57676,6,0,B|224:200|304:176|256:104,1,140,2|2
96,120,58676,6,0,B|96:264,1,140
96,344,59343,1,0
96,344,59676,1,0
176,344,60010,2,0,B|176:200,1,140
176,32,60676,2,0,B|320:32,1,140
480,32,61343,6,0,B|480:176,1,140,2|2
480,256,62010,1,2
480,256,62343,1,2
392,256,62676,2,0,B|392:112,1,140,2|2
240,48,63343,1,2
240,48,63676,1,2
256,192,69676,5,0
256,192,70010,1,0
256,192,70343,1,0
168,192,70676,6,0,B|24:192,2,140
168,104,71676,1,0
168,104,71843,2,0,B|312:104,1,140
392,104,72510,6,0,B|464:104,2,70
392,104,73010,1,0
392,184,73343,6,0,B|392:328,2,140
304,184,74343,1,0
304,184,74510,2,0,B|152:184,1,140
80,184,75176,6,0,B|80:256,2,70
80,184,75676,1,4
80,96,76010,6,0,B|96:16|200:24,1,140,4|0
264,24,76676,1,0
224,96,77010,1,0
224,96,77176,2,0,B|240:176|352:160,1,140
416,152,77843,2,0,B|480:200,4,70
416,152,78676,5,0
368,216,79009,1,0
320,280,79343,1,0
272,216,79676,1,0
272,216,79843,1,0
256,192,80009,12,6,81343
256,192,81676,5,2
256,192,82009,1,2
256,104,82343,1,2
256,104,82509,2,0,B|160:40|56:112,2,210,2|2|2
256,104,83676,1,4
336,104,84009,1,6
416,104,84343,6,0,B|416:184,2,70,2|0|2
336,104,85009,1,0
336,104,85176,2,0,B|336:256,1,140,2|2
336,328,85843,2,0,B|256:328,1,70,6|2
266,328,86176,2,0,B|184:328,1,70,2|4
112,328,86676,5,4
112,328,86843,1,0
48,272,87176,1,4
112,216,87509,1,4
48,160,87843,5,0
48,160,88009,2,0,B|48:72|160:88,1,140,4|0
142,86,88509,1,4
224,80,88843,2,0,B|288:136,1,70,4|0
328,192,89343,6,0,B|384:192,4,35
184,192,90009,6,0,B|128:192,4,35
184,360,90676,6,0,B|184:288,1,70
264,288,91176,1,0
344,288,91509,1,0
344,200,91843,1,0
344,200,92009,1,4
