osu file format v5

[General]
AudioFilename: in the Sky.mp3
AudioLeadIn: 0
PreviewTime: -1
Countdown: 0
SampleSet: Normal
StackLeniency: 0.7
Mode: 0
LetterboxInBreaks: 1
EditorDistanceSpacing: 1

[Metadata]
Title:in the Sky
Artist:Ryu
Creator:Takuma
Version:Hard
Source:
Tags:

[Difficulty]
HPDrainRate:6
CircleSize:4
OverallDifficulty:8
SliderMultiplier:1.6
SliderTickRate:1

[Events]
//Background and Video events
0,0,"in the Sky-bg.png"
//Break Periods
2,28199,28433
2,39866,49766
//Storyboard Layer 0 (Background)
//Storyboard Layer 1 (Failing)
//Storyboard Layer 2 (Passing)
//Storyboard Layer 3 (Foreground)
//Storyboard Sound Samples
//Background Colour Transformations
3,100,163,162,255

[TimingPoints]
10,333.333333333333,4,1,0,80,1,0
17333,-100,4,2,0,80,0,0
22666,-100,4,1,0,80,0,0
27999,-100,4,2,0,10,0,0
28333,-100,4,1,0,80,0,0
55999,-200,4,2,0,10,0,0
58666,-100,4,2,0,80,0,0
61333,-100,4,1,0,80,0,0
63999,-100,4,2,0,80,0,0
66666,-100,4,1,0,80,0,0
67999,1333.33333333333,4,1,0,80,1,0
68332,333.333333333333,4,1,0,100,1,0
91998,-100,4,2,0,100,0,0

[Colours]
Combo1 : 255,128,64
Combo2 : 128,128,255
Combo3 : 0,128,64
Combo4 : 255,0,128

[HitObjects]
256,192,6009,1,0
256,192,6343,1,0
184,192,6676,6,0,L|24:192,1,160
24,192,7176,1,0
8,112,7343,1,0
80,72,7509,1,0
136,120,7676,1,0
248,56,8009,2,0,B|328:48|408:88,1,160
480,96,8509,1,0
440,160,8676,1,0
512,184,8843,1,0
456,240,9009,2,0,B|368:240,1,80
296,240,9343,5,0
248,56,9676,1,0
200,240,10010,1,0
160,56,10343,1,0
112,240,10676,1,0
24,240,10843,1,0
24,240,10926,1,0
72,168,11093,1,0
72,168,11176,1,0
8,112,11343,2,0,B|40:32|136:24,1,160,0|4
216,32,11843,5,0
304,40,12010,1,4
440,128,12343,1,0
360,128,12510,1,0
400,200,12676,1,0
320,200,12843,1,0
240,200,13010,2,0,B|152:200|128:96,1,160,0|4
40,240,13676,5,0
16,312,13843,1,0
80,360,14010,1,0
152,336,14176,1,0
232,336,14343,2,0,B|328:336,1,80
392,336,14676,1,4
448,104,15010,6,0,B|448:272,1,160,0|4
64,268,15676,2,0,B|64:104,1,160,0|0
64,108,16176,1,4
224,106,16510,1,4
225,265,16843,2,0,B|281:321|305:233|376:292,1,160,4|0
440,328,17343,5,2
440,248,17510,1,0
440,88,17843,1,0
360,88,18010,1,2
280,88,18176,2,0,B|248:128|280:160,1,80
192,296,18676,6,0,B|112:320|48:240,1,160,2|0
40,160,19176,1,0
112,192,19343,2,0,B|136:232|192:224,2,80,2|0|2
256,56,20009,1,0
256,56,20343,1,0
416,56,20676,1,2
416,216,21009,1,2
334,163,21176,1,0
256,216,21343,2,0,B|256:304,1,80,2|0
256,376,21676,2,0,B|168:376,2,80,2|0|2
144,264,22343,1,4
64,264,22509,1,0
64,184,22676,6,0,B|64:104|168:72,1,160
320,32,23343,1,0
256,72,23509,1,0
320,120,23676,1,0
480,120,24009,2,0,B|528:192|480:272,3,160
336,344,25343,1,0
232,224,25676,1,0
128,344,26009,2,0,B|-48:344,2,160
256,192,26759,12,0,28009
256,192,29343,5,0
336,192,29509,1,0
256,192,29676,1,0
336,192,29843,1,0
417,54,30176,2,0,B|246:54,1,160
176,56,30676,5,0
120,112,30843,1,0
176,56,31009,1,0
120,112,31176,1,0
16,232,31509,2,0,B|184:232,1,160
232,176,32009,5,0
304,200,32176,1,0
304,280,32343,1,0
232,312,32509,1,0
384,344,32843,2,0,B|392:264|504:256,1,160
500,176,33343,6,2,B|500:8,3,160,2|2|2|6
344,56,34676,5,4
264,56,34843,1,0
264,136,35009,1,0
184,136,35176,1,0
56,40,35509,2,0,B|56:208,1,160
56,280,36009,5,0
136,280,36176,2,0,B|136:192,2,80
136,360,36676,1,0
216,360,36843,2,0,B|296:360|280:288|360:288,1,160
464,192,37343,5,4
326,192,37676,2,0,B|240:192,2,80
320,48,38343,1,0
240,64,38509,1,0
176,112,38676,2,6,B|104:160|16:112,2,160,2|6|6
256,328,39676,5,6
64,192,50676,6,0,B|64:104,1,80
136,152,51010,2,0,B|136:56,2,80
136,232,51510,1,0
136,232,51843,1,0
136,312,52010,6,0,B|224:312,1,80
216,232,52343,2,0,B|304:232,1,80
304,312,52676,2,0,B|392:312|416:208,1,160
416,56,53343,6,0,B|480:56,4,40
336,56,53843,1,0
336,136,54010,2,0,B|336:184,4,40
256,136,54510,1,0
256,216,54676,1,4
184,176,54843,1,0
184,256,55010,1,4
112,216,55176,1,0
112,296,55343,1,4
40,256,55510,1,0
40,336,55676,1,4
112,376,55843,1,0
112,376,56010,2,4,B|440:376,1,320
264,256,57676,6,0,B|224:200|304:176|264:96,1,160,2|2
192,48,58676,5,0
32,48,59010,1,0
32,208,59343,1,0
192,208,59676,1,0
192,368,60010,2,0,B|192:200,1,160
192,48,60676,1,0
272,48,60843,1,0
272,128,61010,2,0,B|360:128,1,80
432,128,61343,5,2
512,264,61676,1,2
352,264,62010,1,2
272,128,62343,1,2
192,264,62676,2,0,B|24:264,2,160,2|2|2
192,184,63510,1,0
112,184,63676,1,4
112,104,63843,1,0
32,104,64010,5,0
192,104,64343,1,0
192,264,64676,1,0
352,264,65010,1,0
352,104,65343,2,0,B|520:104,1,160
512,104,65843,1,0
512,104,66010,2,0,B|512:272,1,160
512,344,66510,1,0
432,344,66676,5,2
272,344,67010,1,2
272,184,67343,1,2
112,184,67676,1,2
31,53,67999,2,2,B|102:21|118:91|192:48,1,160,2|0
296,88,69665,5,0
296,88,69998,1,0
296,88,70331,1,0
456,88,70665,6,0,B|456:256,1,160
376,248,71165,1,0
376,328,71331,2,0,B|208:328,1,160
136,320,71831,2,0,B|48:320|16:224,2,160
144,240,72665,1,0
192,176,72831,1,0
256,216,72998,1,0
320,168,73165,1,0
376,232,73331,6,0,B|472:224|464:104,3,160
424,48,74498,2,0,B|352:-8|264:40,1,160
200,72,74998,1,0
120,72,75165,2,0,B|120:160,1,80
40,184,75498,2,0,B|40:88,2,80,0|4|0
40,264,75998,5,4
200,264,76331,1,0
40,328,76665,1,0
200,328,76998,1,0
200,384,77165,2,0,B|32:384,2,160
272,352,77998,1,0
320,288,78165,1,0
320,208,78331,1,0
256,160,78498,1,0
200,104,78665,6,0,B|144:168|48:136,2,160
352,56,79665,1,0
352,56,79831,2,0,B|448:64|352:136|464:152,1,160
496,224,80331,1,4
440,280,80498,1,0
384,216,80665,1,4
336,280,80831,1,0
240,280,80998,1,4
288,216,81165,1,0
320,144,81331,6,0,B|152:144,2,160,2|2|2
192,48,82331,1,2
192,48,82498,2,0,B|16:48,1,160,2|2
32,128,82998,1,0
112,128,83165,1,0
32,128,83331,1,2
32,208,83498,1,2
32,288,83665,2,0,B|32:384,2,80,2|2|6
192,288,84331,5,2
192,128,84665,1,2
352,128,84998,1,2
432,128,85165,2,0,B|432:40,2,80,2|0|2
424,288,85831,2,0,B|512:288,1,80,2|2
504,368,86165,1,4
424,368,86331,2,0,B|336:368,1,80,2|2
256,368,86665,5,4
256,368,86831,1,0
256,0,87165,2,0,B|256:168,1,160,4|4
16,192,87831,1,0
104,192,87998,2,4,B|192:192,1,80
470,191,88498,1,0
184,192,88831,1,4
184,272,88998,1,4
280,32,89331,6,0,B|328:32,2,40,4|0|0
200,32,89665,1,0
200,112,89831,1,0
120,112,89998,2,0,B|120:24,2,80
40,112,90498,1,0
40,112,90581,1,0
40,112,90665,1,0
40,192,90831,5,4
256,192,91165,1,4
472,192,91498,1,4
256,192,91831,1,4
256,192,91998,1,4
