osu file format v13

[General]
AudioFilename: Ryu - We're so Happy.mp3
AudioLeadIn: 0
PreviewTime: 57334
Countdown: 0
SampleSet: Soft
StackLeniency: 0.7
Mode: 3
LetterboxInBreaks: 0
SpecialStyle: 0
WidescreenStoryboard: 0

[Editor]
DistanceSpacing: 2
BeatDivisor: 4
GridSize: 8
TimelineZoom: 1

[Metadata]
Title:We're so Happy
TitleUnicode:We're so Happy
Artist:Ryu*
ArtistUnicode:Ryu☆
Creator:Spy
Version:victorica's 4K HD+
Source:jubeat saucer
Tags:plus ミライダガッキ FutureTomTom Ver.2 BEMANI KONAMI Mayumi Morinaga senya 森永真由美 moimoi QuanTUM richardfeder Simple_Star mingmichael Kuo Kyoka qoot8123
BeatmapID:314892
BeatmapSetID:120838

[Difficulty]
HPDrainRate:8
CircleSize:4
OverallDifficulty:7
ApproachRate:5
SliderMultiplier:1.4
SliderTickRate:1

[Events]
//Background and Video events
0,0,"BG.jpg",0,0
//Break Periods
//Storyboard Layer 0 (Background)
//Storyboard Layer 1 (Fail)
//Storyboard Layer 2 (Pass)
//Storyboard Layer 3 (Foreground)
//Storyboard Sound Samples
//Background Colour Transformations
3,100,163,162,255

[TimingPoints]
1551,324.324324324324,4,2,0,30,1,0
57334,-100,4,2,0,30,0,1
78091,-100,4,2,0,30,0,0
101442,-100,4,2,0,30,0,1
122199,-100,4,2,0,30,0,0

[HitObjects]
64,192,1551,5,0,0:0:0:0:
192,192,1713,1,0,0:0:0:0:
320,192,1875,1,0,0:0:0:0:
448,192,2037,1,0,0:0:0:0:
448,192,2361,1,0,0:0:0:0:
64,192,2361,1,0,0:0:0:0:
64,192,2523,1,0,0:0:0:0:
192,192,2686,1,0,0:0:0:0:
320,192,2848,1,0,0:0:0:0:
64,192,2848,1,0,0:0:0:0:
192,192,3010,1,0,0:0:0:0:
320,192,3172,1,0,0:0:0:0:
448,192,3334,1,0,0:0:0:0:
64,192,3334,1,0,0:0:0:0:
448,192,3659,1,0,0:0:0:0:
320,192,3659,1,0,0:0:0:0:
320,192,3821,1,0,0:0:0:0:
192,192,3983,1,0,0:0:0:0:
64,192,4145,1,0,0:0:0:0:
448,192,4145,1,0,0:0:0:0:
192,192,4307,1,0,0:0:0:0:
320,192,4469,1,0,0:0:0:0:
448,192,4632,1,0,0:0:0:0:
192,192,4956,1,0,0:0:0:0:
64,192,4956,128,0,5442:0:0:0:0:
320,192,5118,1,0,0:0:0:0:
448,192,5280,1,0,0:0:0:0:
192,192,5442,1,0,0:0:0:0:
448,192,5442,1,0,0:0:0:0:
320,192,5605,1,0,0:0:0:0:
192,192,5767,1,0,0:0:0:0:
64,192,5929,1,0,0:0:0:0:
448,192,5929,1,0,0:0:0:0:
64,192,6253,128,0,6740:0:0:0:0:
192,192,6253,1,0,0:0:0:0:
448,192,6253,1,0,0:0:0:0:
192,192,6415,1,0,0:0:0:0:
320,192,6578,1,0,0:0:0:0:
448,192,6740,1,0,0:0:0:30:cymbol.wav
192,192,6740,1,0,0:0:0:0:
192,192,6902,1,0,0:0:0:0:
320,192,7064,1,0,0:0:0:0:
448,192,7226,1,0,0:0:0:0:
448,192,7550,1,0,0:0:0:0:
320,192,7550,1,0,0:0:0:0:
192,192,7713,1,0,0:0:0:0:
320,192,7875,1,0,0:0:0:0:
448,192,8037,1,0,0:0:0:0:
64,192,8037,1,0,0:0:0:0:
320,192,8199,1,0,0:0:0:0:
192,192,8361,1,0,0:0:0:0:
64,192,8523,1,0,0:0:0:0:
448,192,8523,1,0,0:0:0:0:
320,192,8848,1,0,0:0:0:0:
448,192,8848,1,0,0:0:0:0:
192,192,9010,1,0,0:0:0:0:
64,192,9172,1,0,0:0:0:0:
192,192,9334,1,0,0:0:0:0:
448,192,9334,1,0,0:0:0:0:
320,192,9496,1,0,0:0:0:0:
192,192,9659,1,0,0:0:0:0:
64,192,9821,1,0,0:0:0:0:
448,192,9821,1,0,0:0:0:0:
192,192,10145,1,0,0:0:0:0:
448,192,10145,1,0,0:0:0:0:
320,192,10469,1,0,0:0:0:0:
448,192,10469,1,0,0:0:0:0:
192,192,10632,1,0,0:0:0:0:
64,192,10632,1,0,0:0:0:0:
64,192,10794,1,0,0:0:0:0:
192,192,10956,1,0,0:0:0:0:
320,192,11118,1,0,0:0:0:0:
448,192,11118,1,0,0:0:0:0:
448,192,11442,1,0,0:0:0:0:
192,192,11442,1,0,0:0:0:0:
320,192,11605,1,0,0:0:0:0:
192,192,11767,1,0,0:0:0:0:
320,192,11929,128,0,12091:0:0:0:0:
64,192,12091,1,0,0:0:0:0:
192,192,12253,128,0,12578:0:0:0:0:
320,192,12578,1,0,0:0:0:0:
448,192,12740,128,0,13226:0:0:0:0:
64,192,13226,1,0,0:0:0:40:bassdrum.wav
192,192,13226,1,0,0:0:0:70:cymbol.wav
320,192,13388,1,0,0:0:0:30:hihat.wav
448,192,13550,1,0,0:0:0:40:bassdrum.wav
192,192,13550,1,0,0:0:0:0:
320,192,13713,1,0,0:0:0:30:hihat.wav
64,192,13875,1,0,0:0:0:40:bassdrum.wav
192,192,13875,1,0,0:0:0:0:
320,192,14037,1,0,0:0:0:30:hihat.wav
64,192,14199,1,0,0:0:0:40:bassdrum.wav
448,192,14199,1,0,0:0:0:0:
320,192,14361,1,0,0:0:0:30:hihat.wav
64,192,14523,1,0,0:0:0:40:bassdrum.wav
192,192,14523,1,0,0:0:0:0:
320,192,14686,1,0,0:0:0:30:hihat.wav
192,192,14848,1,0,0:0:0:40:bassdrum.wav
448,192,14848,1,0,0:0:0:0:
64,192,15010,1,0,0:0:0:30:hihat.wav
192,192,15172,1,0,0:0:0:40:bassdrum.wav
320,192,15172,1,0,0:0:0:0:
448,192,15334,1,0,0:0:0:30:hihat.wav
320,192,15496,1,0,0:0:0:40:bassdrum.wav
64,192,15496,1,0,0:0:0:0:
448,192,15659,1,0,0:0:0:30:hihat.wav
64,192,15821,1,0,0:0:0:40:bassdrum.wav
192,192,15821,1,0,0:0:0:0:
320,192,15983,1,0,0:0:0:30:hihat.wav
64,192,16145,1,0,0:0:0:40:bassdrum.wav
448,192,16145,1,0,0:0:0:0:
320,192,16307,1,0,0:0:0:30:hihat.wav
64,192,16469,1,0,0:0:0:40:bassdrum.wav
192,192,16469,1,0,0:0:0:0:
448,192,16632,1,0,0:0:0:30:hihat.wav
64,192,16794,1,0,0:0:0:40:bassdrum.wav
320,192,16794,1,0,0:0:0:0:
64,192,16956,1,0,0:0:0:30:hihat.wav
192,192,17118,1,0,0:0:0:40:bassdrum.wav
320,192,17118,1,0,0:0:0:0:
320,192,17280,1,0,0:0:0:30:hihat.wav
448,192,17442,1,0,0:0:0:40:bassdrum.wav
64,192,17442,1,0,0:0:0:0:
192,192,17605,1,0,0:0:0:30:hihat.wav
320,192,17767,1,0,0:0:0:40:bassdrum.wav
448,192,17767,1,0,0:0:0:0:
320,192,17929,1,0,0:0:0:30:hihat.wav
192,192,18091,1,0,0:0:0:40:bassdrum.wav
448,192,18091,1,0,0:0:0:0:
64,192,18253,1,0,0:0:0:30:hihat.wav
320,192,18415,1,0,0:0:0:40:bassdrum.wav
448,192,18415,1,0,0:0:0:70:cymbol.wav
64,192,18578,1,0,0:0:0:30:hihat.wav
192,192,18740,1,0,0:0:0:40:bassdrum.wav
448,192,18740,1,0,0:0:0:0:
320,192,18902,1,0,0:0:0:30:hihat.wav
192,192,19064,1,0,0:0:0:40:bassdrum.wav
64,192,19064,1,0,0:0:0:0:
448,192,19226,1,0,0:0:0:30:hihat.wav
64,192,19388,1,0,0:0:0:40:bassdrum.wav
320,192,19388,1,0,0:0:0:0:
192,192,19550,1,0,0:0:0:30:hihat.wav
320,192,19713,1,0,0:0:0:40:bassdrum.wav
448,192,19713,1,0,0:0:0:0:
192,192,19875,1,0,0:0:0:30:hihat.wav
320,192,20037,1,0,0:0:0:40:bassdrum.wav
64,192,20037,1,0,0:0:0:0:
192,192,20199,1,0,0:0:0:30:hihat.wav
320,192,20361,1,0,0:0:0:40:bassdrum.wav
448,192,20361,1,0,0:0:0:0:
64,192,20523,1,0,0:0:0:30:hihat.wav
192,192,20686,1,0,0:0:0:40:bassdrum.wav
448,192,20686,1,0,0:0:0:0:
320,192,20848,1,0,0:0:0:30:hihat.wav
448,192,21010,1,0,0:0:0:40:bassdrum.wav
64,192,21010,1,0,0:0:0:0:
320,192,21172,1,0,0:0:0:30:hihat.wav
192,192,21334,1,0,0:0:0:40:bassdrum.wav
448,192,21334,1,0,0:0:0:0:
64,192,21496,1,0,0:0:0:30:hihat.wav
320,192,21659,1,0,0:0:0:40:bassdrum.wav
448,192,21659,1,0,0:0:0:0:
192,192,21821,1,0,0:0:0:30:hihat.wav
320,192,21983,1,0,0:0:0:40:bassdrum.wav
448,192,21983,1,0,0:0:0:0:
64,192,22145,1,0,0:0:0:0:
320,192,22307,1,0,0:0:0:0:
448,192,22307,1,0,0:0:0:0:
320,192,22469,1,0,0:0:0:0:
448,192,22469,128,0,22794:0:0:0:0:
192,192,22632,1,0,0:0:0:0:
64,192,22794,1,0,0:0:0:0:
320,192,22956,128,0,23118:0:0:0:0:
192,192,22956,1,0,0:0:0:0:
448,192,23118,1,0,0:0:0:0:
64,192,23118,1,0,0:0:0:0:
64,192,23280,128,0,23442:0:0:0:0:
320,192,23280,1,0,0:0:0:0:
192,192,23442,1,0,0:0:0:0:
448,192,23442,1,0,0:0:0:0:
192,192,23605,1,0,0:0:0:40:bassdrum.wav
320,192,23605,1,0,0:0:0:70:cymbol.wav
448,192,23605,1,0,0:0:0:0:
64,192,23767,1,0,0:0:0:30:hihat.wav
320,192,23929,1,0,0:0:0:40:bassdrum.wav
448,192,23929,1,0,0:0:0:0:
192,192,24091,1,0,0:0:0:30:hihat.wav
320,192,24253,1,0,0:0:0:40:bassdrum.wav
448,192,24253,1,0,0:0:0:0:
64,192,24415,1,0,0:0:0:30:hihat.wav
192,192,24578,1,0,0:0:0:40:bassdrum.wav
448,192,24578,1,0,0:0:0:0:
64,192,24740,1,0,0:0:0:30:hihat.wav
192,192,24902,1,0,0:0:0:40:bassdrum.wav
448,192,24902,1,0,0:0:0:0:
320,192,25064,1,0,0:0:0:30:hihat.wav
448,192,25226,1,0,0:0:0:40:bassdrum.wav
64,192,25226,1,0,0:0:0:0:
320,192,25388,1,0,0:0:0:30:hihat.wav
192,192,25550,1,0,0:0:0:40:bassdrum.wav
64,192,25550,1,0,0:0:0:0:
448,192,25713,1,0,0:0:0:30:hihat.wav
64,192,25875,1,0,0:0:0:40:bassdrum.wav
320,192,25875,1,0,0:0:0:0:
192,192,26037,1,0,0:0:0:30:hihat.wav
320,192,26199,1,0,0:0:0:40:bassdrum.wav
448,192,26199,1,0,0:0:0:0:
448,192,26361,1,0,0:0:0:30:hihat.wav
64,192,26523,1,0,0:0:0:40:bassdrum.wav
192,192,26523,1,0,0:0:0:0:
320,192,26686,1,0,0:0:0:30:hihat.wav
192,192,26848,1,0,0:0:0:40:bassdrum.wav
448,192,26848,1,0,0:0:0:0:
64,192,27010,1,0,0:0:0:30:hihat.wav
320,192,27172,1,0,0:0:0:40:bassdrum.wav
448,192,27172,1,0,0:0:0:0:
192,192,27334,1,0,0:0:0:30:hihat.wav
64,192,27496,1,0,0:0:0:40:bassdrum.wav
448,192,27496,1,0,0:0:0:0:
192,192,27659,1,0,0:0:0:30:hihat.wav
320,192,27821,1,0,0:0:0:40:bassdrum.wav
448,192,27821,1,0,0:0:0:0:
448,192,27983,1,0,0:0:0:30:hihat.wav
64,192,28145,1,0,0:0:0:40:bassdrum.wav
192,192,28145,1,0,0:0:0:0:
320,192,28307,1,0,0:0:0:30:hihat.wav
64,192,28469,1,0,0:0:0:40:bassdrum.wav
448,192,28469,1,0,0:0:0:0:
192,192,28632,1,0,0:0:0:30:hihat.wav
320,192,28794,1,0,0:0:0:40:bassdrum.wav
448,192,28794,1,0,0:0:0:70:cymbol.wav
320,192,28956,1,0,0:0:0:30:hihat.wav
448,192,29118,1,0,0:0:0:40:bassdrum.wav
192,192,29118,1,0,0:0:0:0:
64,192,29280,1,0,0:0:0:30:hihat.wav
320,192,29442,1,0,0:0:0:40:bassdrum.wav
448,192,29442,1,0,0:0:0:0:
192,192,29605,1,0,0:0:0:30:hihat.wav
64,192,29767,1,0,0:0:0:40:bassdrum.wav
448,192,29767,1,0,0:0:0:0:
192,192,29929,1,0,0:0:0:30:hihat.wav
320,192,30091,1,0,0:0:0:40:bassdrum.wav
448,192,30091,1,0,0:0:0:0:
192,192,30253,128,0,30415:0:0:0:30:hihat.wav
320,192,30415,1,0,0:0:0:40:bassdrum.wav
448,192,30415,1,0,0:0:0:0:
64,192,30578,128,0,30740:0:0:0:30:hihat.wav
320,192,30740,1,0,0:0:0:40:bassdrum.wav
448,192,30740,1,0,0:0:0:0:
192,192,30902,128,0,31064:0:0:0:30:hihat.wav
320,192,31064,1,0,0:0:0:40:bassdrum.wav
448,192,31064,1,0,0:0:0:0:
64,192,31226,128,0,31388:0:0:0:30:hihat.wav
320,192,31388,1,0,0:0:0:40:bassdrum.wav
320,192,31550,128,0,31713:0:0:0:0:
192,192,31875,128,0,32037:0:0:0:0:
448,192,32037,128,0,32118:0:0:0:0:
64,192,32199,128,0,32280:0:0:0:0:
320,192,32361,128,0,32442:0:0:0:0:
64,192,32442,128,0,32523:0:0:0:0:
448,192,32523,128,0,32605:0:0:0:0:
192,192,32605,128,0,32686:0:0:0:0:
320,192,32686,128,0,32848:0:0:0:0:
64,192,32686,1,0,0:0:0:0:
448,192,32848,1,0,0:0:0:0:
64,192,33010,128,0,33496:0:0:0:0:
320,192,33172,128,0,33334:0:0:0:0:
192,192,33496,1,0,0:0:0:0:
448,192,33496,128,0,33659:0:0:0:0:
320,192,33578,128,0,33821:0:0:0:0:
64,192,33659,128,0,33821:0:0:0:0:
448,192,33821,128,0,33983:0:0:0:0:
192,192,33821,128,0,33983:0:0:0:0:
320,192,33983,1,0,0:0:0:40:bassdrum.wav
64,192,33983,128,0,34145:0:0:0:70:cymbol.wav
192,192,34145,128,0,34307:0:0:0:0:
320,192,34307,128,0,34469:0:0:0:0:
448,192,34469,128,0,34632:0:0:0:0:
192,192,34794,128,0,34956:0:0:0:0:
192,192,35118,128,0,35280:0:0:0:0:
320,192,35442,128,0,35605:0:0:0:0:
192,192,35767,128,0,35929:0:0:0:0:
64,192,36091,128,0,36253:0:0:0:0:
448,192,36253,128,0,36415:0:0:0:0:
64,192,36578,128,0,36740:0:0:0:0:
192,192,36740,128,0,36902:0:0:0:0:
320,192,36902,128,0,37064:0:0:0:0:
448,192,37064,128,0,37226:0:0:0:0:
192,192,37388,128,0,37550:0:0:0:0:
192,192,37713,128,0,37875:0:0:0:0:
320,192,38037,128,0,38199:0:0:0:0:
448,192,38361,128,0,38523:0:0:0:0:
192,192,38686,128,0,38848:0:0:0:0:
320,192,38848,128,0,39010:0:0:0:0:
448,192,39172,128,0,39334:0:0:0:0:
64,192,39334,128,0,39496:0:0:0:0:
192,192,39496,128,0,39659:0:0:0:0:
320,192,39659,128,0,39821:0:0:0:0:
448,192,39983,128,0,40145:0:0:0:0:
320,192,40307,128,0,40469:0:0:0:0:
64,192,40632,128,0,40794:0:0:0:0:
320,192,40956,128,0,41118:0:0:0:0:
192,192,41280,128,0,41605:0:0:0:0:
320,192,41442,128,0,41605:0:0:0:0:
64,192,41767,128,0,42415:0:0:0:0:
192,192,41929,128,0,42415:0:0:0:0:
320,192,42091,128,0,42415:0:0:0:0:
448,192,42253,128,0,42415:0:0:0:0:
320,192,42578,1,0,0:0:0:0:
64,192,42902,1,0,0:0:0:0:
448,192,43064,1,0,0:0:0:0:
320,192,43145,1,0,0:0:0:0:
192,192,43226,1,0,0:0:0:0:
64,192,43307,1,0,0:0:0:0:
192,192,43388,1,0,0:0:0:0:
320,192,43469,1,0,0:0:0:0:
448,192,43550,1,0,0:0:0:0:
320,192,43632,1,0,0:0:0:0:
192,192,43713,1,0,0:0:0:0:
64,192,43794,1,0,0:0:0:0:
192,192,43875,1,0,0:0:0:0:
320,192,43956,1,0,0:0:0:0:
192,192,44037,1,0,0:0:0:0:
320,192,44118,1,0,0:0:0:0:
448,192,44199,1,0,0:0:0:0:
320,192,44280,1,0,0:0:0:0:
192,192,44361,1,0,0:0:0:40:bassdrum.wav
64,192,44361,128,0,44523:0:0:0:0:
448,192,44361,1,0,0:0:0:70:cymbol.wav
192,192,44523,1,0,0:0:0:40:bassdrum.wav
320,192,44523,128,0,44686:0:0:0:0:
448,192,44686,1,0,0:0:0:40:bassdrum.wav
192,192,44686,128,0,44848:0:0:0:0:
64,192,44767,1,0,0:0:0:40:bassdrum.wav
320,192,44848,128,0,45010:0:0:0:0:
448,192,44929,1,0,0:0:0:40:bassdrum.wav
192,192,45091,1,0,0:0:0:40:bassdrum.wav
64,192,45172,1,0,0:0:0:40:bassdrum.wav
448,192,45172,128,0,45334:0:0:0:0:
320,192,45334,1,0,0:0:0:40:bassdrum.wav
192,192,45334,1,0,0:0:0:70:cymbol.wav
64,192,45496,128,0,45659:0:0:0:0:
192,192,45659,1,0,0:0:0:40:bassdrum.wav
448,192,45659,128,0,45821:0:0:0:70:cymbol.wav
320,192,45821,1,0,0:0:0:40:bassdrum.wav
64,192,45821,128,0,45983:0:0:0:0:
192,192,45983,1,0,0:0:0:40:bassdrum.wav
320,192,45983,128,0,46145:0:0:0:0:
448,192,46064,1,0,0:0:0:40:bassdrum.wav
192,192,46145,128,0,46307:0:0:0:0:
64,192,46226,1,0,0:0:0:40:bassdrum.wav
448,192,46388,1,0,0:0:0:40:bassdrum.wav
320,192,46469,1,0,0:0:0:40:bassdrum.wav
64,192,46469,128,0,46632:0:0:0:0:
192,192,46632,1,0,0:0:0:40:bassdrum.wav
448,192,46632,1,0,0:0:0:70:cymbol.wav
320,192,46794,128,0,46956:0:0:0:0:
64,192,46956,1,0,0:0:0:40:bassdrum.wav
448,192,46956,1,0,0:0:0:70:cymbol.wav
192,192,46956,128,0,47118:0:0:0:0:
320,192,47118,1,0,0:0:0:40:bassdrum.wav
64,192,47118,128,0,47280:0:0:0:0:
448,192,47280,1,0,0:0:0:40:bassdrum.wav
192,192,47280,128,0,47442:0:0:0:0:
320,192,47361,1,0,0:0:0:40:bassdrum.wav
64,192,47442,128,0,47605:0:0:0:0:
448,192,47523,1,0,0:0:0:40:bassdrum.wav
320,192,47686,1,0,0:0:0:40:bassdrum.wav
448,192,47767,1,0,0:0:0:40:bassdrum.wav
192,192,47767,128,0,47929:0:0:0:0:
320,192,47929,1,0,0:0:0:40:bassdrum.wav
64,192,47929,1,0,0:0:0:70:cymbol.wav
320,192,48091,1,0,0:0:0:40:bassdrum.wav
64,192,48091,1,0,0:0:0:0:
448,192,48091,128,0,48253:0:0:0:0:
64,192,48253,128,0,48415:0:0:0:40:bassdrum.wav
192,192,48253,1,0,0:0:0:70:cymbol.wav
320,192,48415,1,0,0:0:0:40:bassdrum.wav
192,192,48415,128,0,48578:0:0:0:0:
448,192,48578,1,0,0:0:0:40:bassdrum.wav
320,192,48578,128,0,48740:0:0:0:0:
64,192,48659,1,0,0:0:0:40:bassdrum.wav
448,192,48740,128,0,48902:0:0:0:0:
192,192,48821,1,0,0:0:0:40:bassdrum.wav
64,192,48983,1,0,0:0:0:40:bassdrum.wav
192,192,49064,1,0,0:0:0:40:bassdrum.wav
320,192,49064,128,0,49226:0:0:0:0:
64,192,49226,1,0,0:0:0:40:bassdrum.wav
448,192,49388,1,0,0:0:0:40:bassdrum.wav
192,192,49388,128,0,49550:0:0:0:70:cymbol.wav
448,192,49550,1,0,0:0:0:40:bassdrum.wav
320,192,49550,128,0,49713:0:0:0:70:cymbol.wav
192,192,49713,1,0,0:0:0:40:bassdrum.wav
64,192,49713,128,0,49875:0:0:0:0:
320,192,49875,1,0,0:0:0:40:bassdrum.wav
448,192,49875,128,0,50037:0:0:0:0:
64,192,50037,1,0,0:0:0:40:bassdrum.wav
192,192,50037,128,0,50199:0:0:0:0:
448,192,50199,1,0,0:0:0:40:bassdrum.wav
320,192,50199,128,0,50361:0:0:0:0:
192,192,50361,1,0,0:0:0:40:bassdrum.wav
64,192,50361,128,0,50523:0:0:0:0:
320,192,50523,1,0,0:0:0:40:bassdrum.wav
448,192,50523,128,0,50686:0:0:0:0:
64,192,50686,1,0,0:0:0:40:bassdrum.wav
192,192,50686,128,0,50848:0:0:0:0:
320,192,50848,128,0,51010:0:0:0:40:bassdrum.wav
448,192,50848,1,0,0:0:0:70:cymbol.wav
192,192,51010,1,0,0:0:0:40:bassdrum.wav
64,192,51010,128,0,51172:0:0:0:0:
320,192,51172,1,0,0:0:0:40:bassdrum.wav
448,192,51172,128,0,51334:0:0:0:0:
64,192,51334,1,0,0:0:0:40:bassdrum.wav
192,192,51334,128,0,51496:0:0:0:0:
448,192,51496,1,0,0:0:0:40:bassdrum.wav
320,192,51496,128,0,51659:0:0:0:0:
192,192,51659,1,0,0:0:0:40:bassdrum.wav
64,192,51659,128,0,51821:0:0:0:0:
448,192,51821,1,0,0:0:0:40:bassdrum.wav
192,192,51821,128,0,51983:0:0:0:0:
320,192,51983,1,0,0:0:0:40:bassdrum.wav
448,192,51983,128,0,52145:0:0:0:0:
64,192,52145,1,0,0:0:0:40:bassdrum.wav
192,192,52226,1,0,0:0:0:40:bassdrum.wav
320,192,52307,1,0,0:0:0:40:bassdrum.wav
448,192,52388,1,0,0:0:0:40:bassdrum.wav
64,192,52469,1,0,0:0:0:40:bassdrum.wav
192,192,52550,1,0,0:0:0:40:bassdrum.wav
320,192,52632,1,0,0:0:0:40:bassdrum.wav
448,192,52713,1,0,0:0:0:40:bassdrum.wav
64,192,52794,1,0,0:0:0:40:bassdrum.wav
192,192,52875,1,0,0:0:0:40:bassdrum.wav
320,192,52956,1,0,0:0:0:40:bassdrum.wav
448,192,53037,1,0,0:0:0:40:bassdrum.wav
64,192,53118,1,0,0:0:0:40:bassdrum.wav
192,192,53199,1,0,0:0:0:40:bassdrum.wav
320,192,53280,1,0,0:0:0:40:bassdrum.wav
448,192,53361,1,0,0:0:0:40:bassdrum.wav
64,192,53442,1,0,0:0:0:40:bassdrum.wav
320,192,53523,1,0,0:0:0:40:bassdrum.wav
192,192,53605,1,0,0:0:0:40:bassdrum.wav
448,192,53686,1,0,0:0:0:40:bassdrum.wav
64,192,53767,1,0,0:0:0:40:bassdrum.wav
320,192,53848,1,0,0:0:0:40:bassdrum.wav
448,192,53929,1,0,0:0:0:40:bassdrum.wav
192,192,54010,1,0,0:0:0:40:bassdrum.wav
320,192,54091,1,0,0:0:0:40:bassdrum.wav
64,192,54172,1,0,0:0:0:40:bassdrum.wav
192,192,54253,1,0,0:0:0:40:bassdrum.wav
448,192,54334,1,0,0:0:0:40:bassdrum.wav
192,192,54415,1,0,0:0:0:40:bassdrum.wav
64,192,54496,1,0,0:0:0:40:bassdrum.wav
320,192,54578,1,0,0:0:0:40:bassdrum.wav
192,192,54659,1,0,0:0:0:40:bassdrum.wav
448,192,54740,1,0,0:0:0:0:
64,192,56037,1,0,0:0:0:40:bassdrum.wav
192,192,56078,1,0,0:0:0:40:bassdrum.wav
320,192,56118,1,0,0:0:0:40:bassdrum.wav
448,192,56159,1,0,0:0:0:40:bassdrum.wav
64,192,56199,1,0,0:0:0:0:
64,192,56361,1,0,0:0:0:40:bassdrum.wav
320,192,56361,1,0,0:0:0:70:cymbol.wav
192,192,56686,1,0,0:0:0:40:bassdrum.wav
448,192,56686,1,0,0:0:0:70:cymbol.wav
64,192,57010,1,0,0:0:0:40:bassdrum.wav
192,192,57010,1,0,0:0:0:70:cymbol.wav
320,192,57010,1,0,0:0:0:0:
320,192,57334,1,0,0:0:0:40:bassdrum.wav
192,192,57334,1,0,0:0:0:70:cymbol.wav
64,192,57334,1,0,0:0:0:0:
448,192,57496,1,0,0:0:0:30:hihat.wav
192,192,57659,1,0,0:0:0:40:bassdrum.wav
64,192,57659,1,0,0:0:0:0:
320,192,57821,1,0,0:0:0:30:hihat.wav
192,192,57983,1,0,0:0:0:40:bassdrum.wav
64,192,57983,1,0,0:0:0:0:
448,192,58145,1,0,0:0:0:30:hihat.wav
64,192,58307,1,0,0:0:0:40:bassdrum.wav
320,192,58307,1,0,0:0:0:0:
192,192,58469,1,0,0:0:0:30:hihat.wav
320,192,58632,1,0,0:0:0:40:bassdrum.wav
64,192,58632,1,0,0:0:0:0:
192,192,58794,1,0,0:0:0:30:hihat.wav
320,192,58956,1,0,0:0:0:40:bassdrum.wav
448,192,58956,1,0,0:0:0:0:
192,192,59118,1,0,0:0:0:30:hihat.wav
64,192,59280,1,0,0:0:0:40:bassdrum.wav
320,192,59280,1,0,0:0:0:0:
192,192,59442,1,0,0:0:0:30:hihat.wav
448,192,59442,1,0,0:0:0:0:
320,192,59605,1,0,0:0:0:40:bassdrum.wav
448,192,59605,1,0,0:0:0:0:
64,192,59767,1,0,0:0:0:30:hihat.wav
320,192,59929,1,0,0:0:0:40:bassdrum.wav
448,192,59929,1,0,0:0:0:0:
448,192,60091,1,0,0:0:0:30:hihat.wav
192,192,60091,1,0,0:0:0:0:
64,192,60253,1,0,0:0:0:40:bassdrum.wav
192,192,60253,1,0,0:0:0:0:
320,192,60415,1,0,0:0:0:30:hihat.wav
320,192,60578,1,0,0:0:0:40:bassdrum.wav
448,192,60578,1,0,0:0:0:0:
192,192,60740,1,0,0:0:0:30:hihat.wav
320,192,60902,1,0,0:0:0:40:bassdrum.wav
448,192,60902,1,0,0:0:0:0:
64,192,61064,1,0,0:0:0:30:hihat.wav
320,192,61064,1,0,0:0:0:0:
320,192,61226,1,0,0:0:0:40:bassdrum.wav
448,192,61226,1,0,0:0:0:0:
64,192,61388,1,0,0:0:0:30:hihat.wav
448,192,61388,1,0,0:0:0:0:
64,192,61550,1,0,0:0:0:40:bassdrum.wav
192,192,61550,1,0,0:0:0:0:
192,192,61713,1,0,0:0:0:30:hihat.wav
448,192,61713,1,0,0:0:0:0:
320,192,61875,1,0,0:0:0:40:bassdrum.wav
448,192,61875,1,0,0:0:0:0:
64,192,62037,1,0,0:0:0:30:hihat.wav
320,192,62037,1,0,0:0:0:0:
192,192,62199,1,0,0:0:0:40:bassdrum.wav
448,192,62199,1,0,0:0:0:0:
64,192,62361,1,0,0:0:0:30:hihat.wav
320,192,62523,1,0,0:0:0:40:bassdrum.wav
448,192,62523,1,0,0:0:0:70:cymbol.wav
192,192,62686,1,0,0:0:0:30:hihat.wav
320,192,62848,1,0,0:0:0:40:bassdrum.wav
448,192,62848,1,0,0:0:0:0:
64,192,63010,1,0,0:0:0:30:hihat.wav
192,192,63172,1,0,0:0:0:40:bassdrum.wav
64,192,63172,1,0,0:0:0:0:
320,192,63334,1,0,0:0:0:30:hihat.wav
192,192,63496,1,0,0:0:0:40:bassdrum.wav
64,192,63496,1,0,0:0:0:0:
448,192,63659,1,0,0:0:0:30:hihat.wav
192,192,63821,1,0,0:0:0:40:bassdrum.wav
64,192,63821,1,0,0:0:0:0:
64,192,63983,1,0,0:0:0:30:hihat.wav
320,192,63983,1,0,0:0:0:0:
320,192,64145,1,0,0:0:0:40:bassdrum.wav
448,192,64145,1,0,0:0:0:0:
192,192,64307,1,0,0:0:0:30:hihat.wav
448,192,64307,1,0,0:0:0:0:
192,192,64469,1,0,0:0:0:40:bassdrum.wav
64,192,64469,1,0,0:0:0:0:
448,192,64632,1,0,0:0:0:30:hihat.wav
192,192,64632,1,0,0:0:0:0:
320,192,64794,1,0,0:0:0:40:bassdrum.wav
64,192,64794,1,0,0:0:0:0:
192,192,64956,1,0,0:0:0:30:hihat.wav
320,192,65118,1,0,0:0:0:40:bassdrum.wav
448,192,65118,1,0,0:0:0:0:
64,192,65280,1,0,0:0:0:30:hihat.wav
192,192,65280,1,0,0:0:0:0:
320,192,65442,1,0,0:0:0:40:bassdrum.wav
448,192,65442,1,0,0:0:0:0:
64,192,65605,1,0,0:0:0:30:hihat.wav
320,192,65605,1,0,0:0:0:0:
320,192,65767,1,0,0:0:0:40:bassdrum.wav
448,192,65767,1,0,0:0:0:0:
64,192,65929,1,0,0:0:0:30:hihat.wav
320,192,65929,1,0,0:0:0:0:
192,192,66091,1,0,0:0:0:40:bassdrum.wav
64,192,66091,1,0,0:0:0:0:
192,192,66253,1,0,0:0:0:30:hihat.wav
448,192,66253,1,0,0:0:0:0:
320,192,66415,1,0,0:0:0:40:bassdrum.wav
448,192,66415,1,0,0:0:0:0:
192,192,66578,1,0,0:0:0:30:hihat.wav
320,192,66740,1,0,0:0:0:40:bassdrum.wav
448,192,66740,1,0,0:0:0:0:
64,192,66902,1,0,0:0:0:30:hihat.wav
320,192,66902,1,0,0:0:0:0:
320,192,67064,1,0,0:0:0:40:bassdrum.wav
448,192,67064,1,0,0:0:0:0:
64,192,67226,1,0,0:0:0:30:hihat.wav
320,192,67226,1,0,0:0:0:0:
192,192,67388,1,0,0:0:0:40:bassdrum.wav
448,192,67388,1,0,0:0:0:0:
64,192,67550,1,0,0:0:0:30:hihat.wav
320,192,67713,1,0,0:0:0:40:bassdrum.wav
448,192,67713,1,0,0:0:0:70:cymbol.wav
192,192,67875,1,0,0:0:0:30:hihat.wav
448,192,68037,1,0,0:0:0:40:bassdrum.wav
64,192,68037,1,0,0:0:0:0:
192,192,68199,1,0,0:0:0:30:hihat.wav
320,192,68361,1,0,0:0:0:40:bassdrum.wav
448,192,68361,1,0,0:0:0:0:
192,192,68523,1,0,0:0:0:30:hihat.wav
64,192,68686,1,0,0:0:0:40:bassdrum.wav
320,192,68686,1,0,0:0:0:0:
448,192,68848,1,0,0:0:0:30:hihat.wav
192,192,68848,1,0,0:0:0:0:
192,192,69010,1,0,0:0:0:40:bassdrum.wav
64,192,69010,1,0,0:0:0:0:
192,192,69172,1,0,0:0:0:30:hihat.wav
448,192,69172,1,0,0:0:0:0:
320,192,69334,1,0,0:0:0:40:bassdrum.wav
64,192,69334,1,0,0:0:0:0:
192,192,69496,1,0,0:0:0:30:hihat.wav
320,192,69659,1,0,0:0:0:40:bassdrum.wav
448,192,69659,1,0,0:0:0:0:
64,192,69821,1,0,0:0:0:30:hihat.wav
320,192,69821,1,0,0:0:0:0:
192,192,69983,1,0,0:0:0:40:bassdrum.wav
448,192,69983,1,0,0:0:0:0:
64,192,70145,1,0,0:0:0:30:hihat.wav
64,192,70307,1,0,0:0:0:40:bassdrum.wav
192,192,70307,1,0,0:0:0:0:
448,192,70469,1,0,0:0:0:30:hihat.wav
320,192,70469,1,0,0:0:0:0:
320,192,70632,1,0,0:0:0:40:bassdrum.wav
192,192,70632,1,0,0:0:0:0:
192,192,70794,1,0,0:0:0:30:hihat.wav
64,192,70794,1,0,0:0:0:0:
192,192,70956,1,0,0:0:0:40:bassdrum.wav
320,192,70956,1,0,0:0:0:0:
448,192,71118,1,0,0:0:0:30:hihat.wav
192,192,71280,1,0,0:0:0:40:bassdrum.wav
64,192,71280,1,0,0:0:0:0:
320,192,71442,1,0,0:0:0:30:hihat.wav
192,192,71605,1,0,0:0:0:40:bassdrum.wav
448,192,71605,1,0,0:0:0:0:
64,192,71767,1,0,0:0:0:30:hihat.wav
320,192,71767,1,0,0:0:0:0:
320,192,71929,1,0,0:0:0:40:bassdrum.wav
448,192,71929,1,0,0:0:0:0:
448,192,72091,1,0,0:0:0:30:hihat.wav
192,192,72091,1,0,0:0:0:0:
192,192,72253,1,0,0:0:0:40:bassdrum.wav
64,192,72253,1,0,0:0:0:0:
448,192,72415,1,0,0:0:0:30:hihat.wav
192,192,72415,1,0,0:0:0:0:
64,192,72578,1,0,0:0:0:40:bassdrum.wav
320,192,72578,1,0,0:0:0:0:
192,192,72740,1,0,0:0:0:30:hihat.wav
320,192,72902,1,0,0:0:0:40:bassdrum.wav
448,192,72902,1,0,0:0:0:70:cymbol.wav
192,192,73064,1,0,0:0:0:30:hihat.wav
448,192,73064,1,0,0:0:0:0:
448,192,73226,1,0,0:0:0:40:bassdrum.wav
64,192,73226,1,0,0:0:0:0:
192,192,73388,1,0,0:0:0:30:hihat.wav
448,192,73388,1,0,0:0:0:0:
64,192,73550,1,0,0:0:0:40:bassdrum.wav
192,192,73550,1,0,0:0:0:0:
192,192,73713,1,0,0:0:0:30:hihat.wav
448,192,73713,1,0,0:0:0:0:
64,192,73875,1,0,0:0:0:40:bassdrum.wav
320,192,73875,1,0,0:0:0:0:
448,192,74037,1,0,0:0:0:30:hihat.wav
192,192,74199,1,0,0:0:0:40:bassdrum.wav
64,192,74199,1,0,0:0:0:0:
320,192,74361,1,0,0:0:0:30:hihat.wav
192,192,74523,1,0,0:0:0:40:bassdrum.wav
64,192,74523,1,0,0:0:0:0:
448,192,74686,1,0,0:0:0:30:hihat.wav
320,192,74848,1,0,0:0:0:40:bassdrum.wav
448,192,74848,1,0,0:0:0:0:
192,192,75010,1,0,0:0:0:30:hihat.wav
320,192,75172,1,0,0:0:0:40:bassdrum.wav
448,192,75172,1,0,0:0:0:0:
64,192,75334,1,0,0:0:0:30:hihat.wav
320,192,75496,1,0,0:0:0:40:bassdrum.wav
448,192,75496,1,0,0:0:0:0:
320,192,75659,1,0,0:0:0:30:hihat.wav
192,192,75821,1,0,0:0:0:40:bassdrum.wav
64,192,75821,1,0,0:0:0:0:
64,192,75983,1,0,0:0:0:30:hihat.wav
192,192,76145,1,0,0:0:0:40:bassdrum.wav
448,192,76145,1,0,0:0:0:0:
320,192,76307,1,0,0:0:0:30:hihat.wav
448,192,76469,1,0,0:0:0:40:bassdrum.wav
192,192,76469,1,0,0:0:0:0:
320,192,76632,1,0,0:0:0:30:hihat.wav
64,192,76794,1,0,0:0:0:40:bassdrum.wav
448,192,76794,1,0,0:0:0:0:
192,192,76834,1,0,0:0:0:40:bassdrum.wav
320,192,76875,1,0,0:0:0:40:bassdrum.wav
448,192,76915,1,0,0:0:0:40:bassdrum.wav
320,192,77118,1,0,0:0:0:40:bassdrum.wav
448,192,77118,1,0,0:0:0:70:cymbol.wav
192,192,77442,1,0,0:0:0:40:bassdrum.wav
448,192,77442,1,0,0:0:0:70:cymbol.wav
64,192,77767,1,0,0:0:0:40:bassdrum.wav
448,192,77767,1,0,0:0:0:70:cymbol.wav
192,192,78091,1,0,0:0:0:40:bassdrum.wav
320,192,78091,1,0,0:0:0:70:cymbol.wav
448,192,78091,1,0,0:0:0:0:
64,192,78253,1,0,0:0:0:30:hihat.wav
192,192,78334,1,0,0:0:0:0:
320,192,78415,1,0,0:0:0:40:bassdrum.wav
448,192,78415,1,0,0:0:0:0:
64,192,78496,1,0,0:0:0:0:
192,192,78659,1,0,0:0:0:0:
320,192,78740,1,0,0:0:0:40:bassdrum.wav
448,192,78740,1,0,0:0:0:0:
192,192,78902,1,0,0:0:0:30:hihat.wav
64,192,79064,1,0,0:0:0:40:bassdrum.wav
448,192,79064,1,0,0:0:0:0:
320,192,79226,1,0,0:0:0:30:hihat.wav
192,192,79226,1,0,0:0:0:0:
64,192,79388,1,0,0:0:0:40:bassdrum.wav
192,192,79388,1,0,0:0:0:0:
320,192,79550,1,0,0:0:0:30:hihat.wav
448,192,79632,1,0,0:0:0:0:
192,192,79713,1,0,0:0:0:40:bassdrum.wav
64,192,79713,1,0,0:0:0:0:
320,192,79794,1,0,0:0:0:0:
448,192,79956,1,0,0:0:0:0:
320,192,80037,1,0,0:0:0:40:bassdrum.wav
64,192,80037,1,0,0:0:0:0:
448,192,80118,1,0,0:0:0:0:
448,192,80280,1,0,0:0:0:0:
64,192,80361,1,0,0:0:0:40:bassdrum.wav
192,192,80361,1,0,0:0:0:0:
448,192,80442,1,0,0:0:0:0:
320,192,80523,1,0,0:0:0:30:hihat.wav
192,192,80605,1,0,0:0:0:0:
64,192,80686,1,0,0:0:0:40:bassdrum.wav
448,192,80686,1,0,0:0:0:0:
320,192,80848,1,0,0:0:0:30:hihat.wav
192,192,80929,1,0,0:0:0:0:
320,192,81010,1,0,0:0:0:40:bassdrum.wav
448,192,81010,1,0,0:0:0:0:
64,192,81091,1,0,0:0:0:0:
192,192,81253,1,0,0:0:0:0:
320,192,81334,1,0,0:0:0:40:bassdrum.wav
448,192,81334,1,0,0:0:0:0:
320,192,81496,1,0,0:0:0:30:hihat.wav
192,192,81659,1,0,0:0:0:40:bassdrum.wav
64,192,81659,1,0,0:0:0:0:
320,192,81821,1,0,0:0:0:30:hihat.wav
64,192,81983,1,0,0:0:0:40:bassdrum.wav
448,192,81983,1,0,0:0:0:0:
192,192,82064,1,0,0:0:0:0:
320,192,82145,1,0,0:0:0:30:hihat.wav
448,192,82226,1,0,0:0:0:0:
192,192,82307,1,0,0:0:0:40:bassdrum.wav
64,192,82307,1,0,0:0:0:0:
320,192,82388,1,0,0:0:0:0:
448,192,82550,1,0,0:0:0:0:
64,192,82632,1,0,0:0:0:40:bassdrum.wav
320,192,82632,1,0,0:0:0:0:
192,192,82713,1,0,0:0:0:0:
448,192,82875,1,0,0:0:0:0:
320,192,82956,1,0,0:0:0:40:bassdrum.wav
64,192,82956,1,0,0:0:0:0:
192,192,83037,1,0,0:0:0:0:
64,192,83118,1,0,0:0:0:30:hihat.wav
320,192,83199,1,0,0:0:0:0:
192,192,83280,1,0,0:0:0:40:bassdrum.wav
64,192,83280,1,0,0:0:0:70:cymbol.wav
448,192,83442,1,0,0:0:0:0:
320,192,83523,1,0,0:0:0:0:
192,192,83605,1,0,0:0:0:40:bassdrum.wav
64,192,83605,1,0,0:0:0:0:
448,192,83686,1,0,0:0:0:0:
192,192,83848,1,0,0:0:0:0:
64,192,83929,1,0,0:0:0:40:bassdrum.wav
192,192,84010,1,0,0:0:0:40:bassdrum.wav
320,192,84091,1,0,0:0:0:40:bassdrum.wav
448,192,84172,1,0,0:0:0:40:bassdrum.wav
320,192,84253,1,0,0:0:0:40:bassdrum.wav
192,192,84334,1,0,0:0:0:40:bassdrum.wav
64,192,84415,1,0,0:0:0:40:bassdrum.wav
320,192,84578,1,0,0:0:0:40:bassdrum.wav
448,192,84578,1,0,0:0:0:0:
192,192,84578,1,0,0:0:0:0:
64,192,84740,1,0,0:0:0:0:
192,192,84821,1,0,0:0:0:0:
320,192,84902,1,0,0:0:0:40:bassdrum.wav
448,192,84902,1,0,0:0:0:0:
64,192,84983,1,0,0:0:0:0:
64,192,85145,1,0,0:0:0:0:
320,192,85226,1,0,0:0:0:40:bassdrum.wav
448,192,85307,1,0,0:0:0:40:bassdrum.wav
320,192,85388,1,0,0:0:0:40:bassdrum.wav
192,192,85469,1,0,0:0:0:40:bassdrum.wav
64,192,85550,1,0,0:0:0:40:bassdrum.wav
192,192,85632,1,0,0:0:0:40:bassdrum.wav
320,192,85713,1,0,0:0:0:40:bassdrum.wav
448,192,85794,1,0,0:0:0:40:bassdrum.wav
192,192,85875,1,0,0:0:0:40:bassdrum.wav
320,192,85875,1,0,0:0:0:70:cymbol.wav
320,192,86037,1,0,0:0:0:40:bassdrum.wav
64,192,86037,1,0,0:0:0:0:
448,192,86118,1,0,0:0:0:0:
64,192,86280,1,0,0:0:0:0:
192,192,86442,1,0,0:0:0:0:
320,192,86523,1,0,0:0:0:40:bassdrum.wav
448,192,86523,1,0,0:0:0:0:
192,192,86686,1,0,0:0:0:40:bassdrum.wav
64,192,86848,1,0,0:0:0:0:
64,192,87010,1,0,0:0:0:0:
64,192,87172,1,0,0:0:0:40:bassdrum.wav
192,192,87253,1,0,0:0:0:40:bassdrum.wav
320,192,87334,1,0,0:0:0:40:bassdrum.wav
448,192,87415,1,0,0:0:0:40:bassdrum.wav
320,192,87578,1,0,0:0:0:40:bassdrum.wav
64,192,87578,1,0,0:0:0:0:
64,192,87740,1,0,0:0:0:40:bassdrum.wav
448,192,87740,1,0,0:0:0:0:
64,192,87902,1,0,0:0:0:0:
192,192,87983,1,0,0:0:0:0:
320,192,88064,1,0,0:0:0:0:
64,192,88145,1,0,0:0:0:40:bassdrum.wav
448,192,88145,1,0,0:0:0:0:
192,192,88469,1,0,0:0:0:40:bassdrum.wav
320,192,88469,1,0,0:0:0:70:cymbol.wav
448,192,88469,1,0,0:0:0:0:
64,192,88632,1,0,0:0:0:0:
192,192,88794,1,0,0:0:0:0:
320,192,88956,1,0,0:0:0:0:
320,192,89280,1,0,0:0:0:0:
192,192,89605,1,0,0:0:0:0:
448,192,89929,1,0,0:0:0:0:
192,192,90253,1,0,0:0:0:0:
320,192,90578,1,0,0:0:0:0:
192,192,90740,1,0,0:0:0:0:
64,192,91064,1,0,0:0:0:0:
192,192,91226,1,0,0:0:0:0:
320,192,91388,1,0,0:0:0:0:
448,192,91550,1,0,0:0:0:0:
320,192,91875,1,0,0:0:0:0:
64,192,92199,1,0,0:0:0:0:
320,192,92523,1,0,0:0:0:0:
192,192,92848,1,0,0:0:0:0:
448,192,93172,1,0,0:0:0:0:
320,192,93334,1,0,0:0:0:0:
64,192,93659,1,0,0:0:0:40:bassdrum.wav
192,192,93659,1,0,0:0:0:70:cymbol.wav
320,192,93659,1,0,0:0:0:0:
448,192,93821,1,0,0:0:0:40:bassdrum.wav
320,192,93983,1,0,0:0:0:40:bassdrum.wav
448,192,94064,1,0,0:0:0:40:bassdrum.wav
192,192,94145,1,0,0:0:0:0:
64,192,94226,1,0,0:0:0:40:bassdrum.wav
192,192,94388,1,0,0:0:0:40:bassdrum.wav
320,192,94469,1,0,0:0:0:40:bassdrum.wav
448,192,94632,1,0,0:0:0:40:bassdrum.wav
64,192,94794,1,0,0:0:0:0:
320,192,94956,1,0,0:0:0:40:bassdrum.wav
448,192,94956,1,0,0:0:0:0:
64,192,94956,1,0,0:0:0:0:
192,192,95118,1,0,0:0:0:40:bassdrum.wav
320,192,95280,1,0,0:0:0:40:bassdrum.wav
64,192,95361,1,0,0:0:0:40:bassdrum.wav
448,192,95442,1,0,0:0:0:0:
192,192,95523,1,0,0:0:0:40:bassdrum.wav
64,192,95686,1,0,0:0:0:40:bassdrum.wav
320,192,95767,1,0,0:0:0:40:bassdrum.wav
192,192,95929,1,0,0:0:0:40:bassdrum.wav
448,192,95929,1,0,0:0:0:70:cymbol.wav
192,192,96091,1,0,0:0:0:40:bassdrum.wav
448,192,96091,1,0,0:0:0:70:cymbol.wav
320,192,96253,1,0,0:0:0:40:bassdrum.wav
64,192,96253,1,0,0:0:0:70:cymbol.wav
448,192,96253,1,0,0:0:0:0:
192,192,96415,1,0,0:0:0:40:bassdrum.wav
320,192,96578,1,0,0:0:0:40:bassdrum.wav
448,192,96740,1,0,0:0:0:40:bassdrum.wav
192,192,96902,1,0,0:0:0:40:bassdrum.wav
320,192,96902,1,0,0:0:0:0:
448,192,96902,1,0,0:0:0:0:
64,192,97064,1,0,0:0:0:40:bassdrum.wav
192,192,97226,1,0,0:0:0:40:bassdrum.wav
320,192,97388,1,0,0:0:0:40:bassdrum.wav
320,192,97550,1,0,0:0:0:40:bassdrum.wav
192,192,97550,1,0,0:0:0:0:
64,192,97550,1,0,0:0:0:0:
448,192,97632,1,0,0:0:0:40:bassdrum.wav
320,192,97713,1,0,0:0:0:40:bassdrum.wav
192,192,97794,1,0,0:0:0:40:bassdrum.wav
64,192,97875,1,0,0:0:0:40:bassdrum.wav
448,192,97875,1,0,0:0:0:0:
320,192,97956,1,0,0:0:0:40:bassdrum.wav
192,192,98037,1,0,0:0:0:40:bassdrum.wav
64,192,98118,1,0,0:0:0:40:bassdrum.wav
192,192,98199,1,0,0:0:0:40:bassdrum.wav
320,192,98199,1,0,0:0:0:0:
448,192,98199,1,0,0:0:0:0:
448,192,98361,1,0,0:0:0:0:
192,192,98361,1,0,0:0:0:0:
320,192,98523,1,0,0:0:0:40:bassdrum.wav
192,192,98523,1,0,0:0:0:0:
64,192,98523,1,0,0:0:0:0:
192,192,98686,1,0,0:0:0:0:
448,192,98686,1,0,0:0:0:0:
64,192,98848,1,0,0:0:0:40:bassdrum.wav
320,192,98848,1,0,0:0:0:70:cymbol.wav
64,192,99010,1,0,0:0:0:40:bassdrum.wav
320,192,99010,1,0,0:0:0:70:cymbol.wav
448,192,99172,128,0,99334:0:0:0:0:
192,192,99334,1,0,0:0:0:0:
64,192,99496,1,0,0:0:0:40:bassdrum.wav
320,192,99496,1,0,0:0:0:70:cymbol.wav
192,192,99578,1,0,0:0:0:40:bassdrum.wav
448,192,99578,1,0,0:0:0:0:
320,192,99659,1,0,0:0:0:40:bassdrum.wav
64,192,99659,1,0,0:0:0:70:cymbol.wav
448,192,99821,128,0,99983:0:0:0:0:
192,192,99983,1,0,0:0:0:0:
64,192,100145,1,0,0:0:0:40:bassdrum.wav
192,192,100145,1,0,0:0:0:70:cymbol.wav
320,192,100226,1,0,0:0:0:40:bassdrum.wav
448,192,100226,1,0,0:0:0:0:
192,192,100307,1,0,0:0:0:40:bassdrum.wav
64,192,100307,1,0,0:0:0:0:
320,192,100388,1,0,0:0:0:40:bassdrum.wav
448,192,100388,1,0,0:0:0:0:
192,192,100469,1,0,0:0:0:40:bassdrum.wav
64,192,100469,1,0,0:0:0:70:cymbol.wav
320,192,100550,1,0,0:0:0:40:bassdrum.wav
448,192,100550,1,0,0:0:0:0:
192,192,100632,1,0,0:0:0:40:bassdrum.wav
64,192,100632,1,0,0:0:0:0:
320,192,100713,1,0,0:0:0:40:bassdrum.wav
448,192,100713,1,0,0:0:0:0:
64,192,100794,128,0,100956:0:0:0:40:bassdrum.wav
192,192,100956,1,0,0:0:0:0:
320,192,100956,128,0,101118:0:0:0:0:
64,192,101118,128,0,101280:0:0:0:40:bassdrum.wav
448,192,101118,128,0,101280:0:0:0:70:cymbol.wav
192,192,101280,1,0,0:0:0:0:
192,192,101442,1,0,0:0:0:40:bassdrum.wav
320,192,101442,1,0,0:0:0:70:cymbol.wav
448,192,101442,1,0,0:0:0:0:
64,192,101605,1,0,0:0:0:30:hihat.wav
320,192,101767,1,0,0:0:0:40:bassdrum.wav
448,192,101767,1,0,0:0:0:0:
192,192,101929,1,0,0:0:0:30:hihat.wav
448,192,102091,1,0,0:0:0:40:bassdrum.wav
64,192,102091,1,0,0:0:0:0:
192,192,102253,1,0,0:0:0:30:hihat.wav
320,192,102415,1,0,0:0:0:40:bassdrum.wav
448,192,102415,1,0,0:0:0:0:
192,192,102578,1,0,0:0:0:30:hihat.wav
64,192,102740,1,0,0:0:0:40:bassdrum.wav
320,192,102740,1,0,0:0:0:0:
448,192,102902,1,0,0:0:0:30:hihat.wav
64,192,103064,1,0,0:0:0:40:bassdrum.wav
320,192,103064,1,0,0:0:0:0:
192,192,103226,1,0,0:0:0:30:hihat.wav
448,192,103388,1,0,0:0:0:40:bassdrum.wav
64,192,103388,1,0,0:0:0:0:
192,192,103550,1,0,0:0:0:30:hihat.wav
320,192,103713,1,0,0:0:0:40:bassdrum.wav
448,192,103713,1,0,0:0:0:0:
64,192,103875,1,0,0:0:0:30:hihat.wav
192,192,104037,1,0,0:0:0:40:bassdrum.wav
448,192,104037,1,0,0:0:0:0:
64,192,104199,1,0,0:0:0:30:hihat.wav
192,192,104280,1,0,0:0:0:0:
320,192,104361,1,0,0:0:0:40:bassdrum.wav
448,192,104361,1,0,0:0:0:0:
192,192,104523,1,0,0:0:0:30:hihat.wav
64,192,104686,1,0,0:0:0:40:bassdrum.wav
192,192,104686,1,0,0:0:0:0:
320,192,104848,1,0,0:0:0:30:hihat.wav
64,192,105010,1,0,0:0:0:40:bassdrum.wav
192,192,105010,1,0,0:0:0:0:
448,192,105172,1,0,0:0:0:30:hihat.wav
64,192,105334,1,0,0:0:0:40:bassdrum.wav
320,192,105334,1,0,0:0:0:0:
448,192,105496,1,0,0:0:0:30:hihat.wav
320,192,105659,1,0,0:0:0:40:bassdrum.wav
192,192,105659,1,0,0:0:0:0:
64,192,105821,1,0,0:0:0:30:hihat.wav
320,192,105983,1,0,0:0:0:40:bassdrum.wav
448,192,105983,1,0,0:0:0:0:
192,192,106145,1,0,0:0:0:30:hihat.wav
320,192,106307,1,0,0:0:0:40:bassdrum.wav
448,192,106307,1,0,0:0:0:0:
64,192,106469,1,0,0:0:0:30:hihat.wav
320,192,106632,1,0,0:0:0:40:bassdrum.wav
192,192,106632,1,0,0:0:0:0:
448,192,106794,1,0,0:0:0:30:hihat.wav
192,192,106956,1,0,0:0:0:40:bassdrum.wav
64,192,106956,1,0,0:0:0:0:
320,192,107118,1,0,0:0:0:30:hihat.wav
192,192,107280,1,0,0:0:0:40:bassdrum.wav
320,192,107280,1,0,0:0:0:0:
448,192,107442,1,0,0:0:0:30:hihat.wav
320,192,107605,1,0,0:0:0:40:bassdrum.wav
192,192,107605,1,0,0:0:0:0:
64,192,107767,1,0,0:0:0:30:hihat.wav
192,192,107929,1,0,0:0:0:40:bassdrum.wav
448,192,107929,1,0,0:0:0:0:
64,192,108091,1,0,0:0:0:30:hihat.wav
320,192,108253,1,0,0:0:0:40:bassdrum.wav
448,192,108253,1,0,0:0:0:0:
192,192,108415,1,0,0:0:0:30:hihat.wav
64,192,108578,1,0,0:0:0:40:bassdrum.wav
320,192,108578,1,0,0:0:0:0:
448,192,108740,1,0,0:0:0:30:hihat.wav
64,192,108902,1,0,0:0:0:40:bassdrum.wav
192,192,108902,1,0,0:0:0:0:
448,192,109064,1,0,0:0:0:30:hihat.wav
320,192,109226,1,0,0:0:0:40:bassdrum.wav
192,192,109226,1,0,0:0:0:0:
64,192,109388,1,0,0:0:0:30:hihat.wav
320,192,109550,1,0,0:0:0:40:bassdrum.wav
448,192,109550,1,0,0:0:0:0:
192,192,109713,1,0,0:0:0:30:hihat.wav
320,192,109875,1,0,0:0:0:40:bassdrum.wav
448,192,109875,1,0,0:0:0:0:
64,192,110037,1,0,0:0:0:30:hihat.wav
192,192,110199,1,0,0:0:0:40:bassdrum.wav
448,192,110199,1,0,0:0:0:0:
320,192,110361,1,0,0:0:0:30:hihat.wav
192,192,110523,1,0,0:0:0:40:bassdrum.wav
448,192,110523,1,0,0:0:0:0:
64,192,110686,1,0,0:0:0:30:hihat.wav
320,192,110686,128,0,111334:0:0:0:0:
192,192,110848,1,0,0:0:0:40:bassdrum.wav
448,192,110848,1,0,0:0:0:0:
64,192,111010,1,0,0:0:0:30:hihat.wav
192,192,111172,1,0,0:0:0:40:bassdrum.wav
448,192,111172,1,0,0:0:0:0:
192,192,111334,128,0,111496:0:0:0:30:hihat.wav
64,192,111334,1,0,0:0:0:0:
448,192,111496,128,0,111821:0:0:0:40:bassdrum.wav
320,192,111496,1,0,0:0:0:0:
64,192,111496,1,0,0:0:0:0:
192,192,111659,1,0,0:0:0:30:hihat.wav
64,192,111821,1,0,0:0:0:40:bassdrum.wav
192,192,111821,1,0,0:0:0:70:cymbol.wav
320,192,111821,1,0,0:0:0:0:
192,192,111983,1,0,0:0:0:30:hihat.wav
320,192,112145,1,0,0:0:0:40:bassdrum.wav
448,192,112145,1,0,0:0:0:0:
192,192,112307,1,0,0:0:0:30:hihat.wav
192,192,112469,1,0,0:0:0:40:bassdrum.wav
448,192,112469,1,0,0:0:0:0:
64,192,112632,1,0,0:0:0:30:hihat.wav
320,192,112794,1,0,0:0:0:40:bassdrum.wav
448,192,112794,1,0,0:0:0:0:
192,192,112956,1,0,0:0:0:30:hihat.wav
64,192,113118,1,0,0:0:0:40:bassdrum.wav
192,192,113118,1,0,0:0:0:0:
192,192,113280,1,0,0:0:0:30:hihat.wav
320,192,113442,1,0,0:0:0:40:bassdrum.wav
64,192,113442,1,0,0:0:0:0:
448,192,113605,1,0,0:0:0:30:hihat.wav
192,192,113767,1,0,0:0:0:40:bassdrum.wav
64,192,113767,1,0,0:0:0:0:
320,192,113929,1,0,0:0:0:30:hihat.wav
192,192,114091,1,0,0:0:0:40:bassdrum.wav
448,192,114091,1,0,0:0:0:0:
64,192,114253,1,0,0:0:0:30:hihat.wav
448,192,114415,128,0,114578:0:0:0:40:bassdrum.wav
320,192,114415,1,0,0:0:0:0:
192,192,114415,1,0,0:0:0:0:
320,192,114578,128,0,114740:0:0:0:30:hihat.wav
64,192,114578,1,0,0:0:0:0:
192,192,114740,128,0,114902:0:0:0:40:bassdrum.wav
64,192,114740,1,0,0:0:0:0:
448,192,114740,1,0,0:0:0:0:
64,192,114902,128,0,115064:0:0:0:30:hihat.wav
320,192,114902,1,0,0:0:0:0:
320,192,115064,1,0,0:0:0:40:bassdrum.wav
448,192,115064,1,0,0:0:0:0:
192,192,115226,1,0,0:0:0:30:hihat.wav
320,192,115388,1,0,0:0:0:40:bassdrum.wav
448,192,115388,1,0,0:0:0:0:
64,192,115550,1,0,0:0:0:30:hihat.wav
64,192,115713,128,0,115875:0:0:0:40:bassdrum.wav
448,192,115713,1,0,0:0:0:0:
192,192,115713,1,0,0:0:0:0:
192,192,115875,128,0,116037:0:0:0:30:hihat.wav
320,192,115875,1,0,0:0:0:0:
320,192,116037,128,0,116199:0:0:0:40:bassdrum.wav
448,192,116037,1,0,0:0:0:0:
64,192,116037,1,0,0:0:0:0:
448,192,116199,128,0,116361:0:0:0:30:hihat.wav
192,192,116199,1,0,0:0:0:0:
64,192,116361,1,0,0:0:0:40:bassdrum.wav
192,192,116361,1,0,0:0:0:0:
320,192,116523,1,0,0:0:0:30:hihat.wav
192,192,116686,1,0,0:0:0:40:bassdrum.wav
64,192,116686,1,0,0:0:0:0:
320,192,116848,1,0,0:0:0:30:hihat.wav
448,192,117010,128,0,117172:0:0:0:40:bassdrum.wav
64,192,117010,1,0,0:0:0:70:cymbol.wav
192,192,117010,1,0,0:0:0:0:
320,192,117172,128,0,117334:0:0:0:40:bassdrum.wav
192,192,117172,1,0,0:0:0:0:
192,192,117334,128,0,117496:0:0:0:40:bassdrum.wav
64,192,117334,1,0,0:0:0:0:
448,192,117334,1,0,0:0:0:0:
64,192,117496,128,0,117659:0:0:0:40:bassdrum.wav
320,192,117496,1,0,0:0:0:0:
192,192,117659,1,0,0:0:0:40:bassdrum.wav
320,192,117740,1,0,0:0:0:40:bassdrum.wav
448,192,117821,128,0,117983:0:0:0:40:bassdrum.wav
192,192,117821,1,0,0:0:0:0:
64,192,117902,1,0,0:0:0:40:bassdrum.wav
320,192,117983,1,0,0:0:0:40:bassdrum.wav
192,192,118064,1,0,0:0:0:40:bassdrum.wav
64,192,118145,1,0,0:0:0:40:bassdrum.wav
448,192,118145,128,0,118307:0:0:0:0:
320,192,118226,1,0,0:0:0:40:bassdrum.wav
192,192,118307,1,0,0:0:0:40:bassdrum.wav
64,192,118307,1,0,0:0:0:70:cymbol.wav
320,192,118469,1,0,0:0:0:40:bassdrum.wav
64,192,118632,1,0,0:0:0:40:bassdrum.wav
192,192,118632,1,0,0:0:0:0:
448,192,118632,1,0,0:0:0:0:
320,192,118794,1,0,0:0:0:40:bassdrum.wav
64,192,118956,1,0,0:0:0:40:bassdrum.wav
192,192,119037,1,0,0:0:0:40:bassdrum.wav
320,192,119118,1,0,0:0:0:40:bassdrum.wav
448,192,119199,1,0,0:0:0:40:bassdrum.wav
64,192,119280,1,0,0:0:0:40:bassdrum.wav
192,192,119361,1,0,0:0:0:40:bassdrum.wav
320,192,119442,1,0,0:0:0:40:bassdrum.wav
448,192,119523,1,0,0:0:0:40:bassdrum.wav
192,192,119605,1,0,0:0:0:40:bassdrum.wav
320,192,119605,1,0,0:0:0:0:
64,192,119605,128,0,120091:0:0:0:0:
448,192,119767,1,0,0:0:0:40:bassdrum.wav
192,192,119929,1,0,0:0:0:0:
320,192,120091,1,0,0:0:0:0:
192,192,120091,128,0,120578:0:0:0:0:
320,192,120253,1,0,0:0:0:40:bassdrum.wav
448,192,120253,1,0,0:0:0:0:
64,192,120415,1,0,0:0:0:40:bassdrum.wav
320,192,120578,128,0,122199:0:0:0:0:
448,192,120578,1,0,0:0:0:0:
64,192,120740,1,0,0:0:0:0:
64,192,120902,1,0,0:0:0:40:bassdrum.wav
192,192,120983,1,0,0:0:0:40:bassdrum.wav
448,192,121064,1,0,0:0:0:40:bassdrum.wav
64,192,121145,1,0,0:0:0:40:bassdrum.wav
192,192,121226,1,0,0:0:0:40:bassdrum.wav
448,192,121307,1,0,0:0:0:40:bassdrum.wav
64,192,121388,1,0,0:0:0:40:bassdrum.wav
192,192,121469,1,0,0:0:0:40:bassdrum.wav
448,192,121550,1,0,0:0:0:40:bassdrum.wav
64,192,121550,1,0,0:0:0:70:cymbol.wav
192,192,121713,1,0,0:0:0:0:
64,192,121875,1,0,0:0:0:40:bassdrum.wav
448,192,121875,1,0,0:0:0:70:cymbol.wav
192,192,122037,1,0,0:0:0:0:
448,192,122199,1,0,0:0:0:40:bassdrum.wav
64,192,122199,1,0,0:0:0:70:cymbol.wav
192,192,122199,1,0,0:0:0:0:
