osu file format v13

[General]
AudioFilename: Ryu - We're so Happy.mp3
AudioLeadIn: 0
PreviewTime: 57334
Countdown: 0
SampleSet: Soft
StackLeniency: 0.7
Mode: 3
LetterboxInBreaks: 0
SpecialStyle: 0
WidescreenStoryboard: 0

[Editor]
Bookmarks: 52145,57334,83929,87172,120902
DistanceSpacing: 2
BeatDivisor: 4
GridSize: 8
TimelineZoom: 1.9

[Metadata]
Title:We're so Happy
TitleUnicode:We're so Happy
Artist:Ryu*
ArtistUnicode:Ryu☆
Creator:Spy
Version:richard's 7K MX
Source:jubeat saucer
Tags:plus ミライダガッキ FutureTomTom Ver.2 BEMANI KONAMI Mayumi Morinaga senya 森永真由美 moimoi QuanTUM richardfeder Simple_Star mingmichael Kuo Kyoka qoot8123
BeatmapID:310799
BeatmapSetID:120838

[Difficulty]
HPDrainRate:8
CircleSize:7
OverallDifficulty:8
ApproachRate:5
SliderMultiplier:1.4
SliderTickRate:1

[Events]
//Background and Video events
0,0,"BG.jpg",0,0
//Break Periods
//Storyboard Layer 0 (Background)
//Storyboard Layer 1 (Fail)
//Storyboard Layer 2 (Pass)
//Storyboard Layer 3 (Foreground)
//Storyboard Sound Samples
//Background Colour Transformations
3,100,163,162,255

[TimingPoints]
1551,324.324324324324,4,2,0,30,1,0
33983,-133.333333333333,4,2,0,30,0,0
44361,-100,4,2,0,30,0,0
56361,-50,4,2,0,30,0,0
56442,-200,4,2,0,30,0,0
56686,-50,4,2,0,30,0,0
56767,-200,4,2,0,30,0,0
57010,-100,4,2,0,30,0,0
57010,-100,4,2,0,30,0,0
57334,-100,4,2,0,30,0,1
77118,-50,4,2,0,30,0,1
77199,-200,4,2,0,30,0,1
77442,-50,4,2,0,30,0,1
77523,-200,4,2,0,30,0,1
77767,-50,4,2,0,30,0,1
77848,-200,4,2,0,30,0,1
78091,-100,4,2,0,30,0,0
86037,-50,4,2,0,30,0,0
86280,-200,4,2,0,30,0,0
86523,-100,4,2,0,30,0,0
86686,-50,4,2,0,30,0,0
86929,-200,4,2,0,30,0,0
87172,-100,4,2,0,30,0,0
87821,-50,4,2,0,30,0,0
87902,-200,4,2,0,30,0,0
88145,-50,4,2,0,30,0,0
88226,-200,4,2,0,30,0,0
88469,-133.333333333333,4,2,0,30,0,0
93659,-100,4,2,0,30,0,0
98199,-50,4,2,0,30,0,0
98280,-200,4,2,0,30,0,0
98523,-50,4,2,0,30,0,0
98523,-100,4,2,0,30,0,0
98605,-200,4,2,0,30,0,0
98848,-100,4,2,0,30,0,0
99010,-50,4,2,0,30,0,0
99253,-200,4,2,0,30,0,0
99496,-100,4,2,0,30,0,0
99659,-50,4,2,0,30,0,0
99902,-200,4,2,0,30,0,0
100145,-100,4,2,0,30,0,0
101442,-100,4,2,0,30,0,1
119767,-50,4,2,0,30,0,1
120010,-200,4,2,0,30,0,1
120253,-100,4,2,0,30,0,1
120415,-50,4,2,0,30,0,1
120740,-200,4,2,0,30,0,1
120902,-100,4,2,0,30,0,1
121550,-50,4,2,0,30,0,1
121632,-200,4,2,0,30,0,1
121875,-50,4,2,0,30,0,1
121956,-200,4,2,0,30,0,1
122199,-100,4,2,0,30,0,0

[HitObjects]
475,192,1551,128,0,2199:0:0:0:0:
182,192,1551,1,0,0:0:0:0:
329,192,1713,1,0,0:0:0:0:
182,192,1875,1,0,0:0:0:0:
109,192,2037,1,0,0:0:0:0:
329,192,2361,128,0,2848:0:0:0:0:
36,192,2361,1,0,0:0:0:0:
182,192,2523,1,0,0:0:0:0:
256,192,2686,1,0,0:0:0:0:
109,192,2848,128,0,3172:0:0:0:0:
475,192,2848,1,0,0:0:0:0:
329,192,3010,1,0,0:0:0:0:
256,192,3172,1,0,0:0:0:0:
109,192,3334,128,0,3496:0:0:0:0:
182,192,3334,1,0,0:0:0:0:
36,192,3659,128,0,4145:0:0:0:0:
182,192,3659,1,0,0:0:0:0:
256,192,3821,1,0,0:0:0:0:
329,192,3983,1,0,0:0:0:0:
256,192,4145,128,0,4794:0:0:0:0:
402,192,4145,1,0,0:0:0:0:
475,192,4307,1,0,0:0:0:0:
402,192,4469,1,0,0:0:0:0:
329,192,4632,1,0,0:0:0:0:
182,192,4956,128,0,5442:0:0:0:0:
36,192,4956,1,0,0:0:0:0:
256,192,5118,1,0,0:0:0:0:
329,192,5280,1,0,0:0:0:0:
109,192,5442,128,0,5767:0:0:0:0:
475,192,5442,1,0,0:0:0:0:
329,192,5605,1,0,0:0:0:0:
256,192,5767,1,0,0:0:0:0:
109,192,5929,128,0,6091:0:0:0:0:
182,192,5929,1,0,0:0:0:0:
36,192,6253,128,0,6740:0:0:0:0:
182,192,6253,1,0,0:0:0:0:
256,192,6415,1,0,0:0:0:0:
329,192,6578,1,0,0:0:0:0:
402,192,6740,1,0,0:0:0:30:cymbol.wav
256,192,6740,128,0,7388:0:0:0:0:
475,192,6902,1,0,0:0:0:0:
402,192,7064,1,0,0:0:0:0:
329,192,7226,1,0,0:0:0:0:
182,192,7550,128,0,8037:0:0:0:0:
36,192,7550,1,0,0:0:0:0:
256,192,7713,1,0,0:0:0:0:
329,192,7875,1,0,0:0:0:0:
109,192,8037,128,0,8361:0:0:0:0:
475,192,8037,1,0,0:0:0:0:
329,192,8199,1,0,0:0:0:0:
256,192,8361,1,0,0:0:0:0:
109,192,8523,128,0,8686:0:0:0:0:
182,192,8523,1,0,0:0:0:0:
36,192,8848,128,0,9334:0:0:0:0:
182,192,8848,1,0,0:0:0:0:
256,192,9010,1,0,0:0:0:0:
329,192,9172,1,0,0:0:0:0:
256,192,9334,128,0,9983:0:0:0:0:
402,192,9334,1,0,0:0:0:0:
475,192,9496,1,0,0:0:0:0:
402,192,9659,1,0,0:0:0:0:
329,192,9821,1,0,0:0:0:0:
182,192,10145,128,0,10632:0:0:0:0:
36,192,10145,1,0,0:0:0:0:
256,192,10307,1,0,0:0:0:0:
329,192,10469,1,0,0:0:0:0:
109,192,10632,128,0,10956:0:0:0:0:
475,192,10632,1,0,0:0:0:0:
329,192,10794,1,0,0:0:0:0:
256,192,10956,1,0,0:0:0:0:
109,192,11118,128,0,11280:0:0:0:0:
182,192,11118,1,0,0:0:0:0:
36,192,11442,128,0,11929:0:0:0:0:
182,192,11442,1,0,0:0:0:0:
256,192,11605,1,0,0:0:0:0:
329,192,11767,1,0,0:0:0:0:
475,192,11929,128,0,13226:0:0:0:0:
402,192,13226,1,0,0:0:0:40:bassdrum.wav
36,192,13226,1,0,0:0:0:70:cymbol.wav
182,192,13226,1,0,0:0:0:0:
329,192,13226,1,0,0:0:0:0:
109,192,13388,1,0,0:0:0:30:hihat.wav
256,192,13388,1,0,0:0:0:0:
329,192,13550,1,0,0:0:0:40:bassdrum.wav
36,192,13550,1,0,0:0:0:0:
475,192,13550,1,0,0:0:0:0:
109,192,13713,1,0,0:0:0:30:hihat.wav
182,192,13713,1,0,0:0:0:0:
256,192,13875,1,0,0:0:0:40:bassdrum.wav
182,192,14037,1,0,0:0:0:30:hihat.wav
402,192,14037,1,0,0:0:0:0:
109,192,14199,1,0,0:0:0:40:bassdrum.wav
475,192,14199,1,0,0:0:0:0:
329,192,14361,1,0,0:0:0:30:hihat.wav
475,192,14523,1,0,0:0:0:40:bassdrum.wav
36,192,14523,1,0,0:0:0:0:
182,192,14686,1,0,0:0:0:30:hihat.wav
402,192,14686,1,0,0:0:0:0:
475,192,14848,1,0,0:0:0:40:bassdrum.wav
36,192,14848,1,0,0:0:0:0:
256,192,14848,1,0,0:0:0:0:
329,192,15010,1,0,0:0:0:30:hihat.wav
109,192,15010,1,0,0:0:0:0:
475,192,15172,1,0,0:0:0:40:bassdrum.wav
182,192,15172,1,0,0:0:0:0:
256,192,15334,1,0,0:0:0:30:hihat.wav
36,192,15334,1,0,0:0:0:0:
182,192,15496,1,0,0:0:0:40:bassdrum.wav
402,192,15496,1,0,0:0:0:0:
109,192,15496,1,0,0:0:0:0:
256,192,15659,1,0,0:0:0:30:hihat.wav
475,192,15659,1,0,0:0:0:0:
329,192,15821,1,0,0:0:0:40:bassdrum.wav
36,192,15821,1,0,0:0:0:0:
256,192,15983,1,0,0:0:0:30:hihat.wav
109,192,15983,1,0,0:0:0:0:
329,192,16145,1,0,0:0:0:40:bassdrum.wav
475,192,16145,1,0,0:0:0:0:
182,192,16145,1,0,0:0:0:0:
36,192,16307,1,0,0:0:0:30:hihat.wav
256,192,16307,1,0,0:0:0:0:
402,192,16469,1,0,0:0:0:40:bassdrum.wav
109,192,16632,1,0,0:0:0:30:hihat.wav
256,192,16632,1,0,0:0:0:0:
182,192,16794,1,0,0:0:0:40:bassdrum.wav
329,192,16794,1,0,0:0:0:0:
475,192,16794,1,0,0:0:0:0:
256,192,16956,1,0,0:0:0:30:hihat.wav
402,192,16956,1,0,0:0:0:0:
475,192,17118,1,0,0:0:0:40:bassdrum.wav
109,192,17118,1,0,0:0:0:0:
256,192,17280,1,0,0:0:0:30:hihat.wav
36,192,17280,1,0,0:0:0:0:
402,192,17442,1,0,0:0:0:40:bassdrum.wav
109,192,17442,1,0,0:0:0:0:
182,192,17442,1,0,0:0:0:0:
329,192,17605,1,0,0:0:0:30:hihat.wav
475,192,17605,1,0,0:0:0:0:
36,192,17767,1,0,0:0:0:40:bassdrum.wav
109,192,17929,1,0,0:0:0:30:hihat.wav
329,192,17929,1,0,0:0:0:0:
182,192,18091,1,0,0:0:0:40:bassdrum.wav
256,192,18091,1,0,0:0:0:0:
475,192,18091,1,0,0:0:0:0:
329,192,18253,1,0,0:0:0:30:hihat.wav
402,192,18253,1,0,0:0:0:0:
36,192,18415,1,0,0:0:0:40:bassdrum.wav
109,192,18415,1,0,0:0:0:70:cymbol.wav
256,192,18415,1,0,0:0:0:0:
475,192,18415,1,0,0:0:0:0:
182,192,18578,1,0,0:0:0:30:hihat.wav
402,192,18578,1,0,0:0:0:0:
256,192,18740,1,0,0:0:0:40:bassdrum.wav
475,192,18740,1,0,0:0:0:0:
36,192,18740,1,0,0:0:0:0:
109,192,18902,1,0,0:0:0:30:hihat.wav
329,192,18902,1,0,0:0:0:0:
256,192,19064,1,0,0:0:0:40:bassdrum.wav
329,192,19226,1,0,0:0:0:30:hihat.wav
475,192,19226,1,0,0:0:0:0:
182,192,19388,1,0,0:0:0:40:bassdrum.wav
36,192,19388,1,0,0:0:0:0:
256,192,19550,1,0,0:0:0:30:hihat.wav
402,192,19550,1,0,0:0:0:0:
475,192,19713,1,0,0:0:0:40:bassdrum.wav
329,192,19713,1,0,0:0:0:0:
182,192,19875,1,0,0:0:0:30:hihat.wav
36,192,19875,1,0,0:0:0:0:
329,192,20037,1,0,0:0:0:40:bassdrum.wav
475,192,20037,1,0,0:0:0:0:
109,192,20037,1,0,0:0:0:0:
182,192,20199,1,0,0:0:0:30:hihat.wav
402,192,20199,1,0,0:0:0:0:
256,192,20361,1,0,0:0:0:40:bassdrum.wav
475,192,20523,1,0,0:0:0:30:hihat.wav
109,192,20523,1,0,0:0:0:0:
402,192,20686,1,0,0:0:0:40:bassdrum.wav
36,192,20686,1,0,0:0:0:0:
256,192,20686,1,0,0:0:0:0:
329,192,20848,1,0,0:0:0:30:hihat.wav
182,192,20848,1,0,0:0:0:0:
475,192,21010,1,0,0:0:0:40:bassdrum.wav
256,192,21010,1,0,0:0:0:0:
402,192,21172,1,0,0:0:0:30:hihat.wav
109,192,21172,1,0,0:0:0:0:
475,192,21334,1,0,0:0:0:40:bassdrum.wav
329,192,21334,1,0,0:0:0:0:
182,192,21334,1,0,0:0:0:0:
36,192,21496,1,0,0:0:0:30:hihat.wav
256,192,21496,1,0,0:0:0:0:
402,192,21659,1,0,0:0:0:40:bassdrum.wav
36,192,21821,1,0,0:0:0:30:hihat.wav
256,192,21821,1,0,0:0:0:0:
109,192,21983,1,0,0:0:0:40:bassdrum.wav
329,192,21983,1,0,0:0:0:0:
402,192,22145,5,0,0:0:0:0:
182,192,22145,1,0,0:0:0:0:
475,192,22307,128,0,23605:0:0:0:0:
256,192,22307,1,0,0:0:0:0:
329,192,22469,1,0,0:0:0:0:
402,192,22794,128,0,23605:0:0:0:0:
256,192,22794,1,0,0:0:0:0:
182,192,22956,1,0,0:0:0:0:
329,192,23118,128,0,23605:0:0:0:0:
109,192,23118,1,0,0:0:0:0:
256,192,23199,128,0,23605:0:0:0:0:
182,192,23280,128,0,23605:0:0:0:0:
36,192,23280,1,0,0:0:0:0:
36,192,23605,1,0,0:0:0:40:bassdrum.wav
109,192,23605,1,0,0:0:0:70:cymbol.wav
182,192,23767,1,0,0:0:0:30:hihat.wav
329,192,23929,1,0,0:0:0:40:bassdrum.wav
475,192,23929,1,0,0:0:0:0:
36,192,23929,1,0,0:0:0:0:
256,192,23929,1,0,0:0:0:0:
109,192,24091,1,0,0:0:0:30:hihat.wav
182,192,24091,1,0,0:0:0:0:
329,192,24253,1,0,0:0:0:40:bassdrum.wav
36,192,24253,1,0,0:0:0:0:
402,192,24415,1,0,0:0:0:30:hihat.wav
182,192,24415,1,0,0:0:0:0:
109,192,24578,1,0,0:0:0:40:bassdrum.wav
475,192,24578,1,0,0:0:0:0:
256,192,24578,1,0,0:0:0:0:
329,192,24740,1,0,0:0:0:30:hihat.wav
182,192,24740,1,0,0:0:0:0:
475,192,24902,1,0,0:0:0:40:bassdrum.wav
256,192,24902,1,0,0:0:0:0:
402,192,25064,1,0,0:0:0:30:hihat.wav
182,192,25064,1,0,0:0:0:0:
475,192,25226,1,0,0:0:0:40:bassdrum.wav
36,192,25226,1,0,0:0:0:0:
329,192,25226,1,0,0:0:0:0:
256,192,25226,1,0,0:0:0:0:
182,192,25388,1,0,0:0:0:30:hihat.wav
109,192,25388,1,0,0:0:0:0:
36,192,25550,1,0,0:0:0:40:bassdrum.wav
402,192,25550,1,0,0:0:0:0:
182,192,25713,1,0,0:0:0:30:hihat.wav
329,192,25713,1,0,0:0:0:0:
256,192,25875,1,0,0:0:0:40:bassdrum.wav
402,192,25875,1,0,0:0:0:0:
36,192,25875,1,0,0:0:0:0:
109,192,25875,1,0,0:0:0:0:
329,192,26037,1,0,0:0:0:30:hihat.wav
475,192,26037,1,0,0:0:0:0:
402,192,26199,1,0,0:0:0:40:bassdrum.wav
256,192,26199,1,0,0:0:0:0:
109,192,26199,1,0,0:0:0:0:
329,192,26361,1,0,0:0:0:30:hihat.wav
182,192,26361,1,0,0:0:0:0:
475,192,26523,1,0,0:0:0:40:bassdrum.wav
256,192,26523,1,0,0:0:0:0:
36,192,26523,1,0,0:0:0:0:
402,192,26523,1,0,0:0:0:0:
182,192,26686,1,0,0:0:0:30:hihat.wav
109,192,26686,1,0,0:0:0:0:
329,192,26848,1,0,0:0:0:40:bassdrum.wav
402,192,26848,1,0,0:0:0:0:
109,192,27010,1,0,0:0:0:30:hihat.wav
256,192,27010,1,0,0:0:0:0:
475,192,27172,1,0,0:0:0:40:bassdrum.wav
36,192,27172,1,0,0:0:0:0:
182,192,27172,1,0,0:0:0:0:
256,192,27334,1,0,0:0:0:30:hihat.wav
402,192,27334,1,0,0:0:0:0:
475,192,27496,5,0,0:0:0:40:bassdrum.wav
36,192,27496,1,0,0:0:0:0:
182,192,27496,1,0,0:0:0:0:
402,192,27659,1,0,0:0:0:30:hihat.wav
256,192,27659,1,0,0:0:0:0:
475,192,27821,1,0,0:0:0:40:bassdrum.wav
36,192,27821,1,0,0:0:0:0:
182,192,27821,1,0,0:0:0:0:
329,192,27821,1,0,0:0:0:0:
109,192,27983,1,0,0:0:0:30:hihat.wav
256,192,27983,1,0,0:0:0:0:
402,192,28145,1,0,0:0:0:40:bassdrum.wav
36,192,28145,1,0,0:0:0:0:
182,192,28307,1,0,0:0:0:30:hihat.wav
475,192,28307,1,0,0:0:0:0:
109,192,28469,1,0,0:0:0:40:bassdrum.wav
402,192,28469,1,0,0:0:0:0:
329,192,28469,1,0,0:0:0:0:
256,192,28632,1,0,0:0:0:0:
182,192,28632,1,0,0:0:0:30:hihat.wav
475,192,28632,128,0,29929:0:0:0:0:
402,192,28794,1,0,0:0:0:40:bassdrum.wav
36,192,28794,1,0,0:0:0:70:cymbol.wav
329,192,28794,1,0,0:0:0:0:
109,192,28956,1,0,0:0:0:30:hihat.wav
256,192,28956,1,0,0:0:0:0:
182,192,29118,1,0,0:0:0:40:bassdrum.wav
329,192,29118,1,0,0:0:0:0:
402,192,29280,1,0,0:0:0:30:hihat.wav
36,192,29280,1,0,0:0:0:0:
109,192,29442,1,0,0:0:0:40:bassdrum.wav
182,192,29442,1,0,0:0:0:0:
329,192,29442,1,0,0:0:0:0:
256,192,29605,1,0,0:0:0:30:hihat.wav
329,192,29767,1,0,0:0:0:40:bassdrum.wav
36,192,29767,1,0,0:0:0:0:
109,192,29929,128,0,30091:0:0:0:30:hihat.wav
402,192,29929,128,0,30091:0:0:0:0:
182,192,30091,1,0,0:0:0:40:bassdrum.wav
329,192,30091,1,0,0:0:0:0:
329,192,30253,128,0,30415:0:0:0:0:
182,192,30253,128,0,30415:0:0:0:70:hihat.wav
109,192,30415,1,0,0:0:0:0:
402,192,30415,1,0,0:0:0:0:
109,192,30578,128,0,30740:0:0:0:30:hihat.wav
402,192,30578,128,0,30740:0:0:0:0:
36,192,30740,1,0,0:0:0:0:
475,192,30740,1,0,0:0:0:0:
36,192,30902,128,0,31064:0:0:0:30:hihat.wav
475,192,30902,128,0,31064:0:0:0:0:
109,192,31064,1,0,0:0:0:0:
402,192,31064,1,0,0:0:0:0:
109,192,31226,128,0,31388:0:0:0:30:hihat.wav
402,192,31226,128,0,31388:0:0:0:0:
182,192,31388,1,0,0:0:0:0:
329,192,31388,1,0,0:0:0:0:
182,192,31550,128,0,31713:0:0:0:0:
329,192,31550,128,0,31713:0:0:0:0:
109,192,31713,1,0,0:0:0:0:
402,192,31713,1,0,0:0:0:0:
256,192,31875,128,0,32037:0:0:0:0:
109,192,32037,1,0,0:0:0:0:
329,192,32037,1,0,0:0:0:0:
182,192,32199,1,0,0:0:0:0:
402,192,32199,1,0,0:0:0:0:
109,192,32361,1,0,0:0:0:0:
329,192,32361,1,0,0:0:0:0:
182,192,32442,1,0,0:0:0:0:
402,192,32442,1,0,0:0:0:0:
109,192,32523,1,0,0:0:0:0:
329,192,32523,1,0,0:0:0:0:
182,192,32605,1,0,0:0:0:0:
402,192,32605,1,0,0:0:0:0:
256,192,32686,128,0,33983:0:0:0:0:
329,192,33983,1,0,0:0:0:40:bassdrum.wav
182,192,34145,1,0,0:0:0:0:
36,192,34307,1,0,0:0:0:0:
329,192,34469,1,0,0:0:0:0:
182,192,34794,1,0,0:0:0:0:
36,192,35118,1,0,0:0:0:0:
329,192,35442,1,0,0:0:0:0:
182,192,35767,1,0,0:0:0:0:
329,192,36091,1,0,0:0:0:0:
36,192,36253,1,0,0:0:0:0:
475,192,36578,1,0,0:0:0:0:
329,192,36740,1,0,0:0:0:0:
182,192,36902,1,0,0:0:0:0:
475,192,37064,1,0,0:0:0:0:
329,192,37388,1,0,0:0:0:0:
182,192,37713,1,0,0:0:0:0:
475,192,38037,1,0,0:0:0:0:
329,192,38361,1,0,0:0:0:0:
36,192,38523,1,0,0:0:0:0:
182,192,38605,1,0,0:0:0:0:
475,192,38686,1,0,0:0:0:0:
109,192,38686,1,0,0:0:0:0:
256,192,38767,1,0,0:0:0:0:
182,192,38848,1,0,0:0:0:0:
402,192,38848,1,0,0:0:0:0:
329,192,38929,1,0,0:0:0:0:
256,192,39010,1,0,0:0:0:0:
475,192,39091,1,0,0:0:0:0:
402,192,39172,1,0,0:0:0:0:
36,192,39172,1,0,0:0:0:0:
182,192,39253,1,0,0:0:0:0:
329,192,39334,1,0,0:0:0:0:
109,192,39334,1,0,0:0:0:0:
256,192,39415,1,0,0:0:0:0:
182,192,39496,1,0,0:0:0:0:
329,192,39659,1,0,0:0:0:0:
182,192,39983,1,0,0:0:0:0:
36,192,40307,1,0,0:0:0:0:
329,192,40632,1,0,0:0:0:0:
182,192,40956,1,0,0:0:0:0:
329,192,41280,1,0,0:0:0:0:
36,192,41442,1,0,0:0:0:0:
475,192,41767,1,0,0:0:0:0:
329,192,41929,1,0,0:0:0:0:
182,192,42091,1,0,0:0:0:0:
475,192,42253,1,0,0:0:0:0:
329,192,42578,1,0,0:0:0:0:
182,192,42902,1,0,0:0:0:0:
36,192,43064,1,0,0:0:0:0:
109,192,43145,1,0,0:0:0:0:
475,192,43226,1,0,0:0:0:0:
182,192,43226,1,0,0:0:0:0:
256,192,43307,1,0,0:0:0:0:
109,192,43388,1,0,0:0:0:0:
182,192,43469,1,0,0:0:0:0:
256,192,43550,1,0,0:0:0:0:
36,192,43550,1,0,0:0:0:0:
329,192,43632,1,0,0:0:0:0:
182,192,43713,1,0,0:0:0:0:
256,192,43794,1,0,0:0:0:0:
475,192,43875,1,0,0:0:0:0:
329,192,43875,1,0,0:0:0:0:
402,192,43956,1,0,0:0:0:0:
36,192,44037,1,0,0:0:0:0:
182,192,44037,1,0,0:0:0:0:
109,192,44118,1,0,0:0:0:0:
256,192,44199,1,0,0:0:0:0:
402,192,44280,1,0,0:0:0:0:
36,192,44361,1,0,0:0:0:70:cymbol.wav
475,192,44361,1,0,0:0:0:0:
36,192,44523,1,0,0:0:0:40:bassdrum.wav
475,192,44523,1,0,0:0:0:0:
109,192,44686,1,0,0:0:0:40:bassdrum.wav
402,192,44686,1,0,0:0:0:0:
109,192,44767,1,0,0:0:0:40:bassdrum.wav
402,192,44767,1,0,0:0:0:0:
182,192,44929,1,0,0:0:0:40:bassdrum.wav
329,192,44929,1,0,0:0:0:0:
182,192,45091,1,0,0:0:0:40:bassdrum.wav
329,192,45091,1,0,0:0:0:0:
182,192,45172,1,0,0:0:0:40:bassdrum.wav
329,192,45172,1,0,0:0:0:0:
109,192,45334,1,0,0:0:0:70:cymbol.wav
402,192,45334,1,0,0:0:0:0:
256,192,45334,1,0,0:0:0:0:
475,192,45659,1,0,0:0:0:40:bassdrum.wav
36,192,45659,1,0,0:0:0:70:cymbol.wav
475,192,45821,1,0,0:0:0:40:bassdrum.wav
36,192,45821,1,0,0:0:0:0:
109,192,45983,1,0,0:0:0:40:bassdrum.wav
402,192,45983,1,0,0:0:0:0:
402,192,46064,1,0,0:0:0:40:bassdrum.wav
109,192,46064,1,0,0:0:0:0:
182,192,46226,1,0,0:0:0:40:bassdrum.wav
329,192,46226,1,0,0:0:0:0:
182,192,46388,1,0,0:0:0:40:bassdrum.wav
329,192,46388,1,0,0:0:0:0:
329,192,46469,1,0,0:0:0:40:bassdrum.wav
182,192,46469,1,0,0:0:0:0:
402,192,46632,1,0,0:0:0:0:
256,192,46632,1,0,0:0:0:0:
109,192,46632,1,0,0:0:0:0:
109,192,46956,1,0,0:0:0:40:bassdrum.wav
402,192,46956,1,0,0:0:0:70:cymbol.wav
256,192,46956,1,0,0:0:0:0:
329,192,47118,1,0,0:0:0:40:bassdrum.wav
182,192,47118,1,0,0:0:0:0:
402,192,47280,1,0,0:0:0:40:bassdrum.wav
109,192,47280,1,0,0:0:0:0:
109,192,47361,1,0,0:0:0:40:bassdrum.wav
402,192,47361,1,0,0:0:0:0:
36,192,47523,1,0,0:0:0:40:bassdrum.wav
475,192,47523,1,0,0:0:0:0:
36,192,47686,1,0,0:0:0:40:bassdrum.wav
475,192,47686,1,0,0:0:0:0:
475,192,47767,1,0,0:0:0:40:bassdrum.wav
36,192,47767,1,0,0:0:0:0:
402,192,47929,1,0,0:0:0:0:
256,192,47929,1,0,0:0:0:0:
109,192,47929,1,0,0:0:0:0:
256,192,48091,1,0,0:0:0:40:bassdrum.wav
109,192,48091,1,0,0:0:0:0:
402,192,48091,1,0,0:0:0:0:
256,192,48253,1,0,0:0:0:40:bassdrum.wav
402,192,48253,1,0,0:0:0:70:cymbol.wav
109,192,48253,1,0,0:0:0:0:
182,192,48415,1,0,0:0:0:40:bassdrum.wav
329,192,48415,1,0,0:0:0:0:
402,192,48578,1,0,0:0:0:40:bassdrum.wav
109,192,48578,1,0,0:0:0:0:
402,192,48659,1,0,0:0:0:40:bassdrum.wav
109,192,48659,1,0,0:0:0:0:
36,192,48821,1,0,0:0:0:40:bassdrum.wav
475,192,48821,1,0,0:0:0:0:
475,192,48983,1,0,0:0:0:40:bassdrum.wav
36,192,48983,1,0,0:0:0:0:
36,192,49064,1,0,0:0:0:40:bassdrum.wav
475,192,49064,1,0,0:0:0:0:
256,192,49226,1,0,0:0:0:0:
402,192,49226,1,0,0:0:0:0:
109,192,49226,1,0,0:0:0:0:
109,192,49388,1,0,0:0:0:40:bassdrum.wav
402,192,49388,1,0,0:0:0:70:cymbol.wav
256,192,49388,1,0,0:0:0:0:
256,192,49550,1,0,0:0:0:70:cymbol.wav
329,192,49550,128,0,49713:0:0:0:0:cymbol.wav
475,192,49550,128,0,49713:0:0:0:0:
36,192,49713,128,0,49875:0:0:0:0:
402,192,49713,1,0,0:0:0:40:bassdrum.wav
182,192,49713,128,0,49875:0:0:0:0:
475,192,49875,128,0,50037:0:0:0:0:
109,192,49875,1,0,0:0:0:40:bassdrum.wav
329,192,49875,128,0,50037:0:0:0:0:
182,192,50037,128,0,50199:0:0:0:0:
402,192,50037,1,0,0:0:0:40:bassdrum.wav
36,192,50037,128,0,50199:0:0:0:0:
475,192,50199,128,0,50361:0:0:0:0:
109,192,50199,1,0,0:0:0:40:bassdrum.wav
329,192,50199,128,0,50361:0:0:0:0:
36,192,50361,128,0,50523:0:0:0:0:
402,192,50361,1,0,0:0:0:40:bassdrum.wav
182,192,50361,128,0,50523:0:0:0:0:
475,192,50523,128,0,50686:0:0:0:0:
109,192,50523,1,0,0:0:0:40:bassdrum.wav
329,192,50523,128,0,50686:0:0:0:0:
36,192,50686,128,0,50848:0:0:0:0:
402,192,50686,1,0,0:0:0:40:bassdrum.wav
182,192,50686,128,0,50848:0:0:0:0:
109,192,50848,1,0,0:0:0:40:bassdrum.wav
475,192,50848,128,0,51010:0:0:0:70:cymbol.wav
402,192,50848,128,0,51010:0:0:0:0:
182,192,51010,128,0,51172:0:0:0:40:bassdrum.wav
109,192,51010,128,0,51172:0:0:0:0:
329,192,51010,1,0,0:0:0:0:
329,192,51172,128,0,51334:0:0:0:40:bassdrum.wav
402,192,51172,128,0,51334:0:0:0:0:
36,192,51172,1,0,0:0:0:0:
36,192,51334,128,0,51496:0:0:0:40:bassdrum.wav
109,192,51334,128,0,51496:0:0:0:0:
256,192,51334,1,0,0:0:0:0:
402,192,51496,128,0,51659:0:0:0:40:bassdrum.wav
475,192,51496,128,0,51659:0:0:0:0:
182,192,51496,1,0,0:0:0:0:
182,192,51659,128,0,51821:0:0:0:40:bassdrum.wav
109,192,51659,128,0,51821:0:0:0:0:
329,192,51659,1,0,0:0:0:0:
329,192,51821,128,0,51983:0:0:0:40:bassdrum.wav
402,192,51821,128,0,51983:0:0:0:0:
36,192,51821,1,0,0:0:0:0:
109,192,51983,128,0,52145:0:0:0:40:bassdrum.wav
36,192,51983,128,0,52145:0:0:0:0:
256,192,51983,1,0,0:0:0:0:
182,192,52145,1,0,0:0:0:20:bassdrum.wav
475,192,52145,1,0,0:0:0:20:bassdrum.wav
402,192,52226,1,0,0:0:0:20:bassdrum.wav
256,192,52226,1,0,0:0:0:0:
329,192,52307,1,0,0:0:0:20:bassdrum.wav
36,192,52307,1,0,0:0:0:0:
402,192,52388,1,0,0:0:0:20:bassdrum.wav
109,192,52388,1,0,0:0:0:0:
182,192,52469,1,0,0:0:0:20:bassdrum.wav
475,192,52469,1,0,0:0:0:0:
36,192,52550,1,0,0:0:0:20:bassdrum.wav
402,192,52550,1,0,0:0:0:0:
329,192,52632,1,0,0:0:0:20:bassdrum.wav
109,192,52632,1,0,0:0:0:0:
402,192,52713,1,0,0:0:0:20:bassdrum.wav
182,192,52713,1,0,0:0:0:0:
36,192,52794,1,0,0:0:0:20:bassdrum.wav
475,192,52794,1,0,0:0:0:0:
402,192,52875,1,0,0:0:0:20:bassdrum.wav
182,192,52875,1,0,0:0:0:0:
329,192,52956,1,0,0:0:0:20:bassdrum.wav
109,192,52956,1,0,0:0:0:0:
36,192,53037,1,0,0:0:0:20:bassdrum.wav
402,192,53037,1,0,0:0:0:0:
182,192,53118,1,0,0:0:0:20:bassdrum.wav
475,192,53118,1,0,0:0:0:0:
402,192,53199,1,0,0:0:0:20:bassdrum.wav
109,192,53199,1,0,0:0:0:0:
329,192,53280,1,0,0:0:0:20:bassdrum.wav
36,192,53280,1,0,0:0:0:0:
402,192,53361,1,0,0:0:0:20:bassdrum.wav
182,192,53361,1,0,0:0:0:0:
475,192,53442,1,0,0:0:0:20:bassdrum.wav
36,192,53442,1,0,0:0:0:0:
329,192,53523,1,0,0:0:0:20:bassdrum.wav
182,192,53523,1,0,0:0:0:0:
36,192,53605,1,0,0:0:0:20:bassdrum.wav
475,192,53605,1,0,0:0:0:0:
109,192,53686,1,0,0:0:0:20:bassdrum.wav
402,192,53686,1,0,0:0:0:0:
182,192,53767,1,0,0:0:0:20:bassdrum.wav
329,192,53767,1,0,0:0:0:0:
475,192,53848,1,0,0:0:0:20:bassdrum.wav
36,192,53848,1,0,0:0:0:0:
109,192,53929,1,0,0:0:0:20:bassdrum.wav
329,192,53929,1,0,0:0:0:0:
182,192,54010,1,0,0:0:0:20:bassdrum.wav
402,192,54010,1,0,0:0:0:0:
36,192,54091,1,0,0:0:0:20:bassdrum.wav
475,192,54091,1,0,0:0:0:0:
402,192,54172,1,0,0:0:0:20:bassdrum.wav
182,192,54172,1,0,0:0:0:0:
109,192,54253,1,0,0:0:0:20:bassdrum.wav
329,192,54253,1,0,0:0:0:0:
402,192,54334,1,0,0:0:0:20:bassdrum.wav
36,192,54334,1,0,0:0:0:0:
475,192,54415,1,0,0:0:0:20:bassdrum.wav
182,192,54415,1,0,0:0:0:0:
36,192,54496,1,0,0:0:0:20:bassdrum.wav
329,192,54496,1,0,0:0:0:0:
402,192,54578,1,0,0:0:0:20:bassdrum.wav
109,192,54578,1,0,0:0:0:0:
475,192,54659,1,0,0:0:0:20:bassdrum.wav
182,192,54659,1,0,0:0:0:0:
256,192,54740,128,0,56037:0:0:0:0:
475,192,56037,1,0,0:0:0:40:bassdrum.wav
402,192,56078,1,0,0:0:0:40:bassdrum.wav
329,192,56118,1,0,0:0:0:40:bassdrum.wav
256,192,56159,1,0,0:0:0:40:bassdrum.wav
182,192,56199,1,0,0:0:0:0:
182,192,56361,1,0,0:0:0:40:bassdrum.wav
329,192,56361,1,0,0:0:0:70:cymbol.wav
475,192,56361,1,0,0:0:0:0:
36,192,56361,1,0,0:0:0:0:
109,192,56686,1,0,0:0:0:40:bassdrum.wav
256,192,56686,1,0,0:0:0:70:cymbol.wav
402,192,56686,1,0,0:0:0:0:
329,192,57010,1,0,0:0:0:40:bassdrum.wav
182,192,57010,1,0,0:0:0:70:cymbol.wav
36,192,57010,1,0,0:0:0:0:
475,192,57010,1,0,0:0:0:0:
256,192,57334,1,0,0:0:0:40:bassdrum.wav
109,192,57334,1,0,0:0:0:70:cymbol.wav
36,192,57334,1,0,0:0:0:0:
329,192,57334,128,0,57659:0:0:0:0:
182,192,57496,1,0,0:0:0:30:hihat.wav
475,192,57496,128,0,57659:0:0:0:0:
402,192,57659,1,0,0:0:0:40:bassdrum.wav
256,192,57659,1,0,0:0:0:0:
36,192,57659,128,0,57983:0:0:0:0:
329,192,57821,1,0,0:0:0:30:hihat.wav
182,192,57821,128,0,57983:0:0:0:0:
109,192,57983,1,0,0:0:0:40:bassdrum.wav
256,192,58145,1,0,0:0:0:30:hihat.wav
402,192,58145,128,0,58307:0:0:0:0:
36,192,58307,1,0,0:0:0:40:bassdrum.wav
475,192,58307,1,0,0:0:0:0:
109,192,58469,1,0,0:0:0:30:hihat.wav
256,192,58469,128,0,58632:0:0:0:0:
36,192,58632,1,0,0:0:0:40:bassdrum.wav
475,192,58794,1,0,0:0:0:30:hihat.wav
329,192,58794,128,0,58956:0:0:0:0:
402,192,58956,1,0,0:0:0:40:bassdrum.wav
109,192,58956,1,0,0:0:0:0:
256,192,59118,1,0,0:0:0:30:hihat.wav
182,192,59118,128,0,59280:0:0:0:0:
36,192,59280,1,0,0:0:0:40:bassdrum.wav
475,192,59442,1,0,0:0:0:30:hihat.wav
402,192,59442,128,0,59767:0:0:0:0:
256,192,59605,1,0,0:0:0:40:bassdrum.wav
36,192,59605,1,0,0:0:0:0:
109,192,59605,128,0,59767:0:0:0:0:
329,192,59767,1,0,0:0:0:30:hihat.wav
475,192,59929,1,0,0:0:0:40:bassdrum.wav
182,192,59929,128,0,60253:0:0:0:0:
109,192,60091,1,0,0:0:0:30:hihat.wav
329,192,60091,128,0,60253:0:0:0:0:
256,192,60253,1,0,0:0:0:40:bassdrum.wav
36,192,60253,128,0,60578:0:0:0:0:
402,192,60253,1,0,0:0:0:0:
182,192,60415,1,0,0:0:0:30:hihat.wav
475,192,60415,128,0,60578:0:0:0:0:
329,192,60578,1,0,0:0:0:40:bassdrum.wav
109,192,60740,1,0,0:0:0:30:hihat.wav
402,192,60740,128,0,60902:0:0:0:0:
182,192,60902,1,0,0:0:0:40:bassdrum.wav
36,192,60902,1,0,0:0:0:0:
256,192,61064,1,0,0:0:0:30:hihat.wav
109,192,61064,128,0,61226:0:0:0:0:
402,192,61226,1,0,0:0:0:40:bassdrum.wav
475,192,61388,1,0,0:0:0:30:hihat.wav
329,192,61388,128,0,61550:0:0:0:0:
182,192,61550,1,0,0:0:0:40:bassdrum.wav
36,192,61550,1,0,0:0:0:0:
402,192,61713,1,0,0:0:0:30:hihat.wav
256,192,61713,128,0,61875:0:0:0:0:
109,192,61875,1,0,0:0:0:40:bassdrum.wav
475,192,62037,1,0,0:0:0:30:hihat.wav
329,192,62037,128,0,62361:0:0:0:0:
182,192,62199,1,0,0:0:0:40:bassdrum.wav
402,192,62199,1,0,0:0:0:0:
36,192,62199,128,0,62361:0:0:0:0:
256,192,62361,1,0,0:0:0:30:hihat.wav
182,192,62523,128,0,62848:0:0:0:0:
475,192,62523,1,0,0:0:0:40:bassdrum.wav
329,192,62523,1,0,0:0:0:70:cymbol.wav
36,192,62523,1,0,0:0:0:0:
475,192,62686,128,0,62848:0:0:0:0:
256,192,62686,1,0,0:0:0:30:hihat.wav
109,192,62848,1,0,0:0:0:40:bassdrum.wav
402,192,62848,1,0,0:0:0:0:
36,192,62848,128,0,63172:0:0:0:0:
256,192,63010,1,0,0:0:0:30:hihat.wav
329,192,63010,128,0,63172:0:0:0:0:
182,192,63172,1,0,0:0:0:40:bassdrum.wav
329,192,63334,1,0,0:0:0:30:hihat.wav
475,192,63334,128,0,63496:0:0:0:0:
256,192,63496,1,0,0:0:0:40:bassdrum.wav
109,192,63496,1,0,0:0:0:0:
182,192,63659,1,0,0:0:0:30:hihat.wav
36,192,63659,128,0,63821:0:0:0:0:
256,192,63821,1,0,0:0:0:40:bassdrum.wav
475,192,63983,1,0,0:0:0:30:hihat.wav
329,192,63983,128,0,64145:0:0:0:0:
182,192,64145,1,0,0:0:0:40:bassdrum.wav
36,192,64145,1,0,0:0:0:0:
109,192,64307,1,0,0:0:0:30:hihat.wav
256,192,64307,128,0,64469:0:0:0:0:
329,192,64469,1,0,0:0:0:40:bassdrum.wav
402,192,64632,1,0,0:0:0:30:hihat.wav
182,192,64632,128,0,64875:0:0:0:0:
256,192,64794,1,0,0:0:0:40:bassdrum.wav
36,192,64794,1,0,0:0:0:0:
475,192,64794,128,0,65037:0:0:0:0:
329,192,64956,1,0,0:0:0:30:hihat.wav
182,192,64956,128,0,65118:0:0:0:0:
36,192,65118,1,0,0:0:0:40:bassdrum.wav
475,192,65118,128,0,65280:0:0:0:0:
256,192,65280,5,0,0:0:0:30:hihat.wav
329,192,65280,128,0,65442:0:0:0:0:
402,192,65442,1,0,0:0:0:40:bassdrum.wav
36,192,65442,1,0,0:0:0:0:
182,192,65442,128,0,65605:0:0:0:0:
109,192,65605,1,0,0:0:0:30:hihat.wav
475,192,65605,128,0,65767:0:0:0:0:
256,192,65767,1,0,0:0:0:40:bassdrum.wav
182,192,65929,1,0,0:0:0:30:hihat.wav
329,192,65929,128,0,66091:0:0:0:0:
109,192,66091,1,0,0:0:0:40:bassdrum.wav
475,192,66091,1,0,0:0:0:0:
36,192,66253,1,0,0:0:0:30:hihat.wav
182,192,66253,128,0,66415:0:0:0:0:
329,192,66415,1,0,0:0:0:40:bassdrum.wav
402,192,66578,1,0,0:0:0:0:
182,192,66578,1,0,0:0:0:30:hihat.wav
36,192,66578,128,0,67713:0:0:0:0:
256,192,66740,1,0,0:0:0:40:bassdrum.wav
475,192,66740,1,0,0:0:0:0:
109,192,66902,1,0,0:0:0:30:hihat.wav
329,192,66902,1,0,0:0:0:0:
402,192,67064,1,0,0:0:0:40:bassdrum.wav
256,192,67064,128,0,67713:0:0:0:0:
475,192,67226,1,0,0:0:0:30:hihat.wav
182,192,67226,128,0,67713:0:0:0:0:
329,192,67388,1,0,0:0:0:40:bassdrum.wav
109,192,67388,128,0,67713:0:0:0:0:
402,192,67550,1,0,0:0:0:30:hihat.wav
329,192,67713,1,0,0:0:0:70:cymbol.wav
475,192,67713,128,0,67875:0:0:0:0:
256,192,67875,1,0,0:0:0:30:hihat.wav
182,192,67875,128,0,68037:0:0:0:0:
109,192,68037,1,0,0:0:0:40:bassdrum.wav
402,192,68037,1,0,0:0:0:0:
329,192,68037,128,0,68199:0:0:0:0:
182,192,68199,1,0,0:0:0:30:hihat.wav
36,192,68199,128,0,68848:0:0:0:0:
329,192,68361,1,0,0:0:0:40:bassdrum.wav
475,192,68361,1,0,0:0:0:0:
182,192,68523,1,0,0:0:0:30:hihat.wav
329,192,68523,128,0,68848:0:0:0:0:
109,192,68686,1,0,0:0:0:40:bassdrum.wav
475,192,68686,1,0,0:0:0:0:
402,192,68848,1,0,0:0:0:30:hihat.wav
182,192,68848,128,0,69983:0:0:0:0:
36,192,69010,1,0,0:0:0:0:
329,192,69010,1,0,0:0:0:40:bassdrum.wav
475,192,69010,128,0,69172:0:0:0:0:
109,192,69172,1,0,0:0:0:30:hihat.wav
402,192,69172,128,0,69334:0:0:0:0:
475,192,69334,1,0,0:0:0:0:
36,192,69334,1,0,0:0:0:40:bassdrum.wav
329,192,69334,128,0,69496:0:0:0:0:
402,192,69496,1,0,0:0:0:30:hihat.wav
256,192,69496,128,0,69821:0:0:0:0:
109,192,69659,1,0,0:0:0:40:bassdrum.wav
329,192,69659,1,0,0:0:0:0:
402,192,69821,1,0,0:0:0:30:hihat.wav
36,192,69821,128,0,70145:0:0:0:0:
329,192,69983,1,0,0:0:0:40:bassdrum.wav
475,192,69983,1,0,0:0:0:0:
109,192,70145,128,0,71280:0:0:0:0:
329,192,70307,1,0,0:0:0:40:bassdrum.wav
475,192,70307,128,0,70469:0:0:0:0:
256,192,70469,1,0,0:0:0:30:hihat.wav
402,192,70469,128,0,70632:0:0:0:0:
36,192,70632,1,0,0:0:0:0:
182,192,70632,1,0,0:0:0:40:bassdrum.wav
329,192,70632,128,0,70794:0:0:0:0:
475,192,70794,1,0,0:0:0:30:hihat.wav
256,192,70794,128,0,71118:0:0:0:0:
402,192,70956,1,0,0:0:0:40:bassdrum.wav
36,192,70956,1,0,0:0:0:0:
329,192,71118,1,0,0:0:0:30:hihat.wav
182,192,71118,128,0,71442:0:0:0:0:
256,192,71280,1,0,0:0:0:40:bassdrum.wav
475,192,71280,1,0,0:0:0:0:
402,192,71442,1,0,0:0:0:30:hihat.wav
329,192,71442,128,0,72253:0:0:0:0:
109,192,71605,1,0,0:0:0:40:bassdrum.wav
475,192,71605,1,0,0:0:0:0:
182,192,71767,1,0,0:0:0:30:hihat.wav
256,192,71929,1,0,0:0:0:40:bassdrum.wav
475,192,71929,1,0,0:0:0:0:
109,192,72091,1,0,0:0:0:30:hihat.wav
36,192,72091,128,0,72415:0:0:0:0:
402,192,72253,1,0,0:0:0:40:bassdrum.wav
182,192,72253,1,0,0:0:0:0:
256,192,72415,1,0,0:0:0:30:hihat.wav
109,192,72415,128,0,72740:0:0:0:0:
475,192,72578,1,0,0:0:0:40:bassdrum.wav
329,192,72578,1,0,0:0:0:0:
402,192,72740,1,0,0:0:0:30:hihat.wav
256,192,72740,128,0,75496:0:0:0:0:
182,192,72740,128,0,74199:0:0:0:0:
329,192,72902,1,0,0:0:0:40:bassdrum.wav
36,192,72902,1,0,0:0:0:70:cymbol.wav
402,192,73064,1,0,0:0:0:30:hihat.wav
475,192,73226,1,0,0:0:0:40:bassdrum.wav
109,192,73226,1,0,0:0:0:0:
402,192,73388,1,0,0:0:0:30:hihat.wav
329,192,73550,1,0,0:0:0:40:bassdrum.wav
36,192,73550,1,0,0:0:0:0:
402,192,73713,1,0,0:0:0:30:hihat.wav
475,192,73875,1,0,0:0:0:40:bassdrum.wav
109,192,73875,1,0,0:0:0:0:
402,192,74037,1,0,0:0:0:30:hihat.wav
329,192,74199,1,0,0:0:0:40:bassdrum.wav
36,192,74199,1,0,0:0:0:0:
109,192,74361,1,0,0:0:0:30:hihat.wav
36,192,74523,1,0,0:0:0:0:
402,192,74523,1,0,0:0:0:40:bassdrum.wav
329,192,74523,128,0,75496:0:0:0:0:
109,192,74686,1,0,0:0:0:30:hihat.wav
182,192,74848,1,0,0:0:0:0:
475,192,74848,1,0,0:0:0:40:bassdrum.wav
402,192,74848,128,0,75496:0:0:0:0:
109,192,75010,1,0,0:0:0:30:hihat.wav
36,192,75172,1,0,0:0:0:0:
182,192,75172,1,0,0:0:0:40:bassdrum.wav
475,192,75172,128,0,75496:0:0:0:0:
109,192,75334,1,0,0:0:0:30:hihat.wav
36,192,75496,1,0,0:0:0:40:bassdrum.wav
182,192,75496,128,0,76469:0:0:0:0:
109,192,75659,1,0,0:0:0:30:hihat.wav
256,192,75821,1,0,0:0:0:40:bassdrum.wav
402,192,75821,1,0,0:0:0:0:
329,192,75983,1,0,0:0:0:30:hihat.wav
36,192,75983,128,0,76469:0:0:0:0:
256,192,76145,1,0,0:0:0:40:bassdrum.wav
475,192,76145,1,0,0:0:0:0:
329,192,76307,1,0,0:0:0:30:hihat.wav
109,192,76469,1,0,0:0:0:0:
402,192,76469,1,0,0:0:0:40:bassdrum.wav
475,192,76469,128,0,78091:0:0:0:0:
182,192,76632,1,0,0:0:0:30:hihat.wav
36,192,76794,1,0,0:0:0:40:bassdrum.wav
109,192,76834,1,0,0:0:0:40:bassdrum.wav
182,192,76875,1,0,0:0:0:40:bassdrum.wav
256,192,76915,1,0,0:0:0:40:bassdrum.wav
329,192,76956,1,0,0:0:0:0:
109,192,77118,1,0,0:0:0:40:bassdrum.wav
256,192,77118,1,0,0:0:0:70:cymbol.wav
402,192,77118,1,0,0:0:0:0:
109,192,77442,1,0,0:0:0:40:bassdrum.wav
256,192,77442,1,0,0:0:0:70:cymbol.wav
402,192,77442,1,0,0:0:0:0:
109,192,77767,1,0,0:0:0:40:bassdrum.wav
256,192,77767,1,0,0:0:0:70:cymbol.wav
402,192,77767,1,0,0:0:0:0:
36,192,78091,1,0,0:0:0:40:bassdrum.wav
402,192,78091,1,0,0:0:0:70:cymbol.wav
256,192,78091,1,0,0:0:0:0:
109,192,78091,1,0,0:0:0:0:
329,192,78253,1,0,0:0:0:30:hihat.wav
182,192,78334,1,0,0:0:0:0:
36,192,78415,1,0,0:0:0:40:bassdrum.wav
475,192,78415,1,0,0:0:0:0:
329,192,78415,1,0,0:0:0:0:
256,192,78415,1,0,0:0:0:0:
109,192,78496,1,0,0:0:0:0:
402,192,78659,1,0,0:0:0:0:
36,192,78740,1,0,0:0:0:40:bassdrum.wav
475,192,78740,1,0,0:0:0:0:
256,192,78740,1,0,0:0:0:0:
182,192,78902,1,0,0:0:0:30:hihat.wav
109,192,79064,1,0,0:0:0:40:bassdrum.wav
329,192,79064,1,0,0:0:0:0:
475,192,79064,1,0,0:0:0:0:
256,192,79064,1,0,0:0:0:0:
36,192,79226,1,0,0:0:0:30:hihat.wav
402,192,79388,1,0,0:0:0:40:bassdrum.wav
109,192,79388,1,0,0:0:0:0:
329,192,79388,1,0,0:0:0:0:
256,192,79550,1,0,0:0:0:30:hihat.wav
329,192,79632,1,0,0:0:0:0:
475,192,79713,1,0,0:0:0:40:bassdrum.wav
182,192,79713,1,0,0:0:0:0:
36,192,79713,1,0,0:0:0:0:
402,192,79794,1,0,0:0:0:0:
329,192,79956,1,0,0:0:0:0:
182,192,80037,1,0,0:0:0:40:bassdrum.wav
256,192,80037,1,0,0:0:0:0:
36,192,80037,1,0,0:0:0:0:
475,192,80118,1,0,0:0:0:0:
475,192,80280,1,0,0:0:0:0:
475,192,80361,1,0,0:0:0:40:bassdrum.wav
256,192,80361,1,0,0:0:0:0:
36,192,80361,1,0,0:0:0:0:
109,192,80361,1,0,0:0:0:0:
402,192,80442,1,0,0:0:0:0:
329,192,80523,1,0,0:0:0:30:hihat.wav
256,192,80605,1,0,0:0:0:0:
256,192,80686,1,0,0:0:0:40:bassdrum.wav
36,192,80686,1,0,0:0:0:0:
475,192,80686,1,0,0:0:0:0:
329,192,80848,1,0,0:0:0:30:hihat.wav
109,192,80929,1,0,0:0:0:0:
475,192,81010,1,0,0:0:0:40:bassdrum.wav
182,192,81010,1,0,0:0:0:0:
256,192,81010,1,0,0:0:0:0:
36,192,81091,1,0,0:0:0:0:
402,192,81253,1,0,0:0:0:0:
256,192,81334,1,0,0:0:0:40:bassdrum.wav
36,192,81334,1,0,0:0:0:0:
475,192,81334,1,0,0:0:0:0:
329,192,81496,1,0,0:0:0:30:hihat.wav
182,192,81659,1,0,0:0:0:40:bassdrum.wav
475,192,81659,1,0,0:0:0:0:
402,192,81659,1,0,0:0:0:0:
36,192,81659,1,0,0:0:0:0:
109,192,81821,1,0,0:0:0:30:hihat.wav
36,192,81983,1,0,0:0:0:40:bassdrum.wav
329,192,81983,1,0,0:0:0:0:
475,192,81983,1,0,0:0:0:0:
182,192,82145,1,0,0:0:0:30:hihat.wav
256,192,82226,1,0,0:0:0:0:
475,192,82307,1,0,0:0:0:40:bassdrum.wav
36,192,82307,1,0,0:0:0:0:
402,192,82307,1,0,0:0:0:0:
329,192,82388,1,0,0:0:0:0:
256,192,82550,1,0,0:0:0:0:
182,192,82632,1,0,0:0:0:40:bassdrum.wav
36,192,82632,1,0,0:0:0:0:
402,192,82632,1,0,0:0:0:0:
475,192,82713,1,0,0:0:0:0:
402,192,82875,1,0,0:0:0:0:
36,192,82956,1,0,0:0:0:40:bassdrum.wav
475,192,82956,1,0,0:0:0:0:
109,192,82956,1,0,0:0:0:0:
256,192,82956,128,0,83280:0:0:0:0:
182,192,83280,1,0,0:0:0:40:bassdrum.wav
36,192,83280,1,0,0:0:0:70:cymbol.wav
329,192,83280,1,0,0:0:0:0:
475,192,83280,1,0,0:0:0:0:
109,192,83605,5,0,0:0:0:40:bassdrum.wav
402,192,83605,1,0,0:0:0:0:
109,192,83767,1,0,0:0:0:40:bassdrum.wav
402,192,83767,1,0,0:0:0:0:
182,192,83929,1,0,0:0:0:40:bassdrum.wav
36,192,83929,1,0,0:0:0:0:
329,192,84010,1,0,0:0:0:40:bassdrum.wav
475,192,84010,1,0,0:0:0:0:
182,192,84091,1,0,0:0:0:40:bassdrum.wav
36,192,84091,1,0,0:0:0:0:
329,192,84172,1,0,0:0:0:40:bassdrum.wav
475,192,84172,1,0,0:0:0:0:
109,192,84253,1,0,0:0:0:40:bassdrum.wav
182,192,84253,1,0,0:0:0:0:
402,192,84334,1,0,0:0:0:40:bassdrum.wav
329,192,84334,1,0,0:0:0:0:
109,192,84415,1,0,0:0:0:40:bassdrum.wav
182,192,84415,1,0,0:0:0:0:
402,192,84496,1,0,0:0:0:40:bassdrum.wav
329,192,84496,1,0,0:0:0:0:
256,192,84578,1,0,0:0:0:40:bassdrum.wav
36,192,84578,1,0,0:0:0:0:
475,192,84578,1,0,0:0:0:0:
109,192,84902,1,0,0:0:0:40:bassdrum.wav
402,192,84902,1,0,0:0:0:0:
109,192,85064,1,0,0:0:0:0:
402,192,85064,1,0,0:0:0:0:
475,192,85226,1,0,0:0:0:40:bassdrum.wav
329,192,85226,1,0,0:0:0:0:
36,192,85307,1,0,0:0:0:40:bassdrum.wav
182,192,85307,1,0,0:0:0:0:
475,192,85388,1,0,0:0:0:40:bassdrum.wav
329,192,85388,1,0,0:0:0:0:
36,192,85469,1,0,0:0:0:40:bassdrum.wav
182,192,85469,1,0,0:0:0:0:
329,192,85550,1,0,0:0:0:40:bassdrum.wav
402,192,85550,1,0,0:0:0:0:
182,192,85632,1,0,0:0:0:40:bassdrum.wav
109,192,85632,1,0,0:0:0:0:
329,192,85713,1,0,0:0:0:40:bassdrum.wav
402,192,85713,1,0,0:0:0:0:
182,192,85794,1,0,0:0:0:40:bassdrum.wav
109,192,85794,1,0,0:0:0:0:
256,192,85875,1,0,0:0:0:40:bassdrum.wav
36,192,85875,1,0,0:0:0:70:cymbol.wav
475,192,85875,1,0,0:0:0:0:
36,192,86037,1,0,0:0:0:40:bassdrum.wav
256,192,86037,1,0,0:0:0:0:
475,192,86037,1,0,0:0:0:0:
109,192,86523,1,0,0:0:0:40:bassdrum.wav
256,192,86523,1,0,0:0:0:0:
402,192,86523,1,0,0:0:0:0:
109,192,86686,1,0,0:0:0:40:bassdrum.wav
256,192,86686,1,0,0:0:0:0:
402,192,86686,1,0,0:0:0:0:
36,192,87172,1,0,0:0:0:40:bassdrum.wav
109,192,87172,1,0,0:0:0:0:
402,192,87253,1,0,0:0:0:40:bassdrum.wav
329,192,87253,1,0,0:0:0:0:
109,192,87334,1,0,0:0:0:40:bassdrum.wav
182,192,87334,1,0,0:0:0:0:
475,192,87415,1,0,0:0:0:40:bassdrum.wav
402,192,87415,1,0,0:0:0:0:
109,192,87496,1,0,0:0:0:40:bassdrum.wav
36,192,87496,1,0,0:0:0:0:
402,192,87578,1,0,0:0:0:40:bassdrum.wav
329,192,87578,1,0,0:0:0:0:
109,192,87659,1,0,0:0:0:40:bassdrum.wav
182,192,87659,1,0,0:0:0:0:
402,192,87740,1,0,0:0:0:40:bassdrum.wav
329,192,87740,1,0,0:0:0:0:
256,192,87821,1,0,0:0:0:40:bassdrum.wav
475,192,87821,1,0,0:0:0:70:cymbol.wav
36,192,87821,1,0,0:0:0:0:
256,192,88145,1,0,0:0:0:40:bassdrum.wav
36,192,88145,1,0,0:0:0:0:
475,192,88145,1,0,0:0:0:0:
36,192,88469,1,0,0:0:0:40:bassdrum.wav
182,192,88469,1,0,0:0:0:0:
329,192,88469,1,0,0:0:0:0:
475,192,88469,1,0,0:0:0:0:
256,192,88469,1,0,0:0:0:0:
109,192,88632,1,0,0:0:0:0:
36,192,88794,1,0,0:0:0:0:
329,192,88956,1,0,0:0:0:0:
182,192,89280,1,0,0:0:0:0:
36,192,89605,1,0,0:0:0:0:
329,192,89929,1,0,0:0:0:0:
182,192,90253,1,0,0:0:0:0:
329,192,90578,1,0,0:0:0:0:
36,192,90740,1,0,0:0:0:0:
329,192,91064,1,0,0:0:0:0:
256,192,91226,1,0,0:0:0:0:
182,192,91388,1,0,0:0:0:0:
475,192,91550,1,0,0:0:0:0:
329,192,91875,1,0,0:0:0:0:
182,192,92199,1,0,0:0:0:0:
475,192,92523,1,0,0:0:0:0:
329,192,92848,1,0,0:0:0:0:
475,192,93172,1,0,0:0:0:0:
182,192,93334,1,0,0:0:0:0:
475,192,93659,1,0,0:0:0:40:bassdrum.wav
36,192,93659,1,0,0:0:0:70:cymbol.wav
36,192,93821,1,0,0:0:0:40:bassdrum.wav
475,192,93821,1,0,0:0:0:0:
402,192,93983,1,0,0:0:0:40:bassdrum.wav
109,192,93983,1,0,0:0:0:0:
402,192,94064,1,0,0:0:0:40:bassdrum.wav
109,192,94064,1,0,0:0:0:0:
329,192,94226,1,0,0:0:0:40:bassdrum.wav
182,192,94226,1,0,0:0:0:0:
329,192,94388,1,0,0:0:0:40:bassdrum.wav
182,192,94388,1,0,0:0:0:0:
182,192,94469,1,0,0:0:0:40:bassdrum.wav
329,192,94469,1,0,0:0:0:0:
256,192,94632,1,0,0:0:0:40:bassdrum.wav
109,192,94632,1,0,0:0:0:70:cymbol.wav
402,192,94632,1,0,0:0:0:0:
36,192,94956,1,0,0:0:0:40:bassdrum.wav
475,192,94956,1,0,0:0:0:0:
475,192,95118,1,0,0:0:0:40:bassdrum.wav
36,192,95118,1,0,0:0:0:0:
109,192,95280,1,0,0:0:0:40:bassdrum.wav
402,192,95280,1,0,0:0:0:0:
109,192,95361,1,0,0:0:0:40:bassdrum.wav
402,192,95361,1,0,0:0:0:0:
182,192,95523,1,0,0:0:0:40:bassdrum.wav
329,192,95523,1,0,0:0:0:0:
182,192,95686,1,0,0:0:0:40:bassdrum.wav
329,192,95686,1,0,0:0:0:0:
329,192,95767,1,0,0:0:0:40:bassdrum.wav
182,192,95767,1,0,0:0:0:0:
402,192,95929,1,0,0:0:0:40:bassdrum.wav
109,192,95929,1,0,0:0:0:70:cymbol.wav
256,192,95929,1,0,0:0:0:0:
109,192,96091,1,0,0:0:0:40:bassdrum.wav
256,192,96091,1,0,0:0:0:70:cymbol.wav
402,192,96091,1,0,0:0:0:0:
475,192,96253,1,0,0:0:0:40:bassdrum.wav
329,192,96253,1,0,0:0:0:70:cymbol.wav
182,192,96253,1,0,0:0:0:0:
36,192,96253,1,0,0:0:0:0:
402,192,96415,1,0,0:0:0:40:bassdrum.wav
329,192,96578,1,0,0:0:0:40:bassdrum.wav
475,192,96740,1,0,0:0:0:40:bassdrum.wav
109,192,96902,1,0,0:0:0:40:bassdrum.wav
256,192,96902,1,0,0:0:0:0:
402,192,96902,1,0,0:0:0:0:
329,192,97064,1,0,0:0:0:40:bassdrum.wav
256,192,97226,1,0,0:0:0:40:bassdrum.wav
402,192,97388,1,0,0:0:0:40:bassdrum.wav
329,192,97550,1,0,0:0:0:40:bassdrum.wav
182,192,97550,1,0,0:0:0:0:
36,192,97550,1,0,0:0:0:0:
475,192,97550,1,0,0:0:0:0:
402,192,97632,1,0,0:0:0:40:bassdrum.wav
329,192,97713,1,0,0:0:0:40:bassdrum.wav
256,192,97794,1,0,0:0:0:40:bassdrum.wav
182,192,97875,1,0,0:0:0:40:bassdrum.wav
36,192,97875,1,0,0:0:0:0:
329,192,97875,1,0,0:0:0:0:
475,192,97875,1,0,0:0:0:0:
109,192,97956,1,0,0:0:0:40:bassdrum.wav
182,192,98037,1,0,0:0:0:40:bassdrum.wav
256,192,98118,1,0,0:0:0:40:bassdrum.wav
182,192,98199,1,0,0:0:0:40:bassdrum.wav
36,192,98199,1,0,0:0:0:0:
329,192,98199,1,0,0:0:0:0:
475,192,98199,1,0,0:0:0:0:
182,192,98523,1,0,0:0:0:40:bassdrum.wav
36,192,98523,1,0,0:0:0:0:
329,192,98523,1,0,0:0:0:0:
475,192,98523,1,0,0:0:0:0:
402,192,98848,1,0,0:0:0:40:bassdrum.wav
109,192,98848,1,0,0:0:0:70:cymbol.wav
109,192,99010,1,0,0:0:0:40:bassdrum.wav
402,192,99010,1,0,0:0:0:70:cymbol.wav
475,192,99496,1,0,0:0:0:40:bassdrum.wav
36,192,99496,1,0,0:0:0:70:cymbol.wav
402,192,99578,1,0,0:0:0:40:bassdrum.wav
109,192,99578,1,0,0:0:0:0:
329,192,99659,1,0,0:0:0:40:bassdrum.wav
182,192,99659,1,0,0:0:0:70:cymbol.wav
36,192,100145,1,0,0:0:0:40:bassdrum.wav
475,192,100145,1,0,0:0:0:70:cymbol.wav
109,192,100226,1,0,0:0:0:40:bassdrum.wav
402,192,100226,1,0,0:0:0:0:
182,192,100307,1,0,0:0:0:40:bassdrum.wav
329,192,100307,1,0,0:0:0:0:
109,192,100388,1,0,0:0:0:40:bassdrum.wav
402,192,100388,1,0,0:0:0:0:
36,192,100469,1,0,0:0:0:40:bassdrum.wav
475,192,100469,1,0,0:0:0:70:cymbol.wav
109,192,100550,1,0,0:0:0:40:bassdrum.wav
402,192,100550,1,0,0:0:0:0:
182,192,100632,1,0,0:0:0:40:bassdrum.wav
329,192,100632,1,0,0:0:0:0:
109,192,100713,1,0,0:0:0:40:bassdrum.wav
402,192,100713,1,0,0:0:0:0:
36,192,100794,1,0,0:0:0:70:cymbol.wav
475,192,100794,1,0,0:0:0:40:bassdrum.wav
256,192,100794,128,0,101118:0:0:0:0:
109,192,101118,1,0,0:0:0:40:bassdrum.wav
402,192,101118,1,0,0:0:0:70:cymbol.wav
475,192,101442,1,0,0:0:0:40:bassdrum.wav
256,192,101442,1,0,0:0:0:70:cymbol.wav
36,192,101442,1,0,0:0:0:0:
109,192,101442,1,0,0:0:0:0:
402,192,101605,1,0,0:0:0:30:hihat.wav
182,192,101605,1,0,0:0:0:0:
475,192,101767,1,0,0:0:0:40:bassdrum.wav
36,192,101767,1,0,0:0:0:0:
256,192,101767,1,0,0:0:0:0:
329,192,101767,1,0,0:0:0:0:
182,192,101929,1,0,0:0:0:30:hihat.wav
402,192,101929,1,0,0:0:0:0:
256,192,102091,1,0,0:0:0:40:bassdrum.wav
109,192,102091,1,0,0:0:0:0:
329,192,102253,1,0,0:0:0:30:hihat.wav
36,192,102253,1,0,0:0:0:0:
109,192,102415,1,0,0:0:0:40:bassdrum.wav
475,192,102415,1,0,0:0:0:0:
402,192,102415,1,0,0:0:0:0:
329,192,102578,1,0,0:0:0:30:hihat.wav
182,192,102578,1,0,0:0:0:0:
109,192,102740,1,0,0:0:0:40:bassdrum.wav
256,192,102740,1,0,0:0:0:0:
475,192,102740,1,0,0:0:0:0:
182,192,102902,1,0,0:0:0:30:hihat.wav
402,192,102902,1,0,0:0:0:0:
256,192,102983,1,0,0:0:0:0:
475,192,103064,1,0,0:0:0:40:bassdrum.wav
36,192,103064,1,0,0:0:0:0:
182,192,103064,1,0,0:0:0:0:
329,192,103145,1,0,0:0:0:0:
109,192,103226,1,0,0:0:0:30:hihat.wav
402,192,103307,1,0,0:0:0:0:
256,192,103388,1,0,0:0:0:40:bassdrum.wav
36,192,103388,1,0,0:0:0:0:
475,192,103469,1,0,0:0:0:0:
182,192,103550,1,0,0:0:0:30:hihat.wav
475,192,103632,1,0,0:0:0:0:
475,192,103713,1,0,0:0:0:40:bassdrum.wav
36,192,103713,1,0,0:0:0:0:
109,192,103713,1,0,0:0:0:0:
256,192,103713,1,0,0:0:0:0:
402,192,103794,1,0,0:0:0:0:
329,192,103875,1,0,0:0:0:30:hihat.wav
182,192,103875,1,0,0:0:0:0:
256,192,103956,1,0,0:0:0:0:
256,192,104037,1,0,0:0:0:40:bassdrum.wav
475,192,104037,1,0,0:0:0:0:
36,192,104037,1,0,0:0:0:0:
402,192,104199,1,0,0:0:0:30:hihat.wav
182,192,104199,1,0,0:0:0:0:
109,192,104361,1,0,0:0:0:40:bassdrum.wav
36,192,104361,1,0,0:0:0:0:
475,192,104361,1,0,0:0:0:0:
256,192,104361,1,0,0:0:0:0:
402,192,104523,1,0,0:0:0:30:hihat.wav
329,192,104523,1,0,0:0:0:0:
109,192,104686,1,0,0:0:0:40:bassdrum.wav
475,192,104686,1,0,0:0:0:0:
256,192,104848,1,0,0:0:0:30:hihat.wav
182,192,104848,1,0,0:0:0:0:
329,192,105010,1,0,0:0:0:40:bassdrum.wav
36,192,105010,1,0,0:0:0:0:
402,192,105010,1,0,0:0:0:0:
182,192,105172,1,0,0:0:0:30:hihat.wav
109,192,105172,1,0,0:0:0:0:
36,192,105334,1,0,0:0:0:40:bassdrum.wav
256,192,105334,1,0,0:0:0:0:
475,192,105334,1,0,0:0:0:0:
182,192,105496,1,0,0:0:0:30:hihat.wav
329,192,105496,1,0,0:0:0:0:
256,192,105578,1,0,0:0:0:0:
402,192,105659,1,0,0:0:0:40:bassdrum.wav
36,192,105659,1,0,0:0:0:0:
329,192,105740,1,0,0:0:0:0:
109,192,105821,1,0,0:0:0:30:hihat.wav
402,192,105902,1,0,0:0:0:0:
256,192,105983,1,0,0:0:0:40:bassdrum.wav
36,192,105983,1,0,0:0:0:0:
475,192,106064,1,0,0:0:0:0:
182,192,106145,1,0,0:0:0:30:hihat.wav
329,192,106226,1,0,0:0:0:0:
475,192,106307,1,0,0:0:0:0:
109,192,106307,1,0,0:0:0:0:
36,192,106307,1,0,0:0:0:40:bassdrum.wav
256,192,106307,128,0,106632:0:0:0:0:
402,192,106469,1,0,0:0:0:30:hihat.wav
475,192,106632,1,0,0:0:0:40:bassdrum.wav
182,192,106632,1,0,0:0:0:0:
36,192,106632,1,0,0:0:0:0:
329,192,106632,1,0,0:0:0:0:
402,192,106794,1,0,0:0:0:30:hihat.wav
109,192,106794,1,0,0:0:0:0:
36,192,106956,1,0,0:0:0:40:bassdrum.wav
329,192,106956,1,0,0:0:0:0:
182,192,106956,1,0,0:0:0:0:
475,192,107118,1,0,0:0:0:30:hihat.wav
256,192,107118,1,0,0:0:0:0:
36,192,107280,1,0,0:0:0:40:bassdrum.wav
329,192,107280,1,0,0:0:0:0:
402,192,107442,1,0,0:0:0:30:hihat.wav
182,192,107442,1,0,0:0:0:0:
256,192,107605,1,0,0:0:0:40:bassdrum.wav
475,192,107605,1,0,0:0:0:0:
109,192,107605,1,0,0:0:0:0:
36,192,107767,1,0,0:0:0:30:hihat.wav
329,192,107767,1,0,0:0:0:0:
475,192,107929,1,0,0:0:0:40:bassdrum.wav
36,192,107929,1,0,0:0:0:0:
182,192,107929,1,0,0:0:0:0:
109,192,108091,1,0,0:0:0:30:hihat.wav
402,192,108091,1,0,0:0:0:0:
182,192,108172,1,0,0:0:0:0:
36,192,108253,1,0,0:0:0:40:bassdrum.wav
329,192,108253,1,0,0:0:0:0:
475,192,108253,1,0,0:0:0:0:
256,192,108334,1,0,0:0:0:0:
109,192,108415,1,0,0:0:0:30:hihat.wav
329,192,108496,1,0,0:0:0:0:
256,192,108578,1,0,0:0:0:40:bassdrum.wav
36,192,108578,1,0,0:0:0:0:
475,192,108659,1,0,0:0:0:0:
182,192,108740,1,0,0:0:0:30:hihat.wav
475,192,108821,1,0,0:0:0:0:
475,192,108902,1,0,0:0:0:40:bassdrum.wav
109,192,108902,1,0,0:0:0:0:
36,192,108902,1,0,0:0:0:0:
256,192,108902,1,0,0:0:0:0:
402,192,108983,1,0,0:0:0:0:
329,192,109064,1,0,0:0:0:30:hihat.wav
182,192,109064,1,0,0:0:0:0:
256,192,109145,1,0,0:0:0:0:
256,192,109226,1,0,0:0:0:40:bassdrum.wav
475,192,109226,1,0,0:0:0:0:
36,192,109226,1,0,0:0:0:0:
402,192,109388,1,0,0:0:0:30:hihat.wav
109,192,109388,1,0,0:0:0:0:
329,192,109469,1,0,0:0:0:0:
36,192,109550,1,0,0:0:0:40:bassdrum.wav
182,192,109550,1,0,0:0:0:0:
475,192,109550,1,0,0:0:0:0:
256,192,109632,1,0,0:0:0:0:
402,192,109713,1,0,0:0:0:30:hihat.wav
329,192,109794,1,0,0:0:0:0:
36,192,109875,1,0,0:0:0:40:bassdrum.wav
182,192,109875,1,0,0:0:0:0:
256,192,110037,1,0,0:0:0:30:hihat.wav
475,192,110037,1,0,0:0:0:0:
182,192,110199,1,0,0:0:0:40:bassdrum.wav
329,192,110199,1,0,0:0:0:0:
36,192,110199,1,0,0:0:0:0:
402,192,110199,1,0,0:0:0:0:
109,192,110361,1,0,0:0:0:30:hihat.wav
256,192,110361,1,0,0:0:0:0:
36,192,110523,1,0,0:0:0:40:bassdrum.wav
329,192,110523,1,0,0:0:0:0:
475,192,110523,1,0,0:0:0:0:
36,192,110686,128,0,111821:0:0:0:0:
109,192,110686,1,0,0:0:0:0:
402,192,110686,1,0,0:0:0:0:
182,192,110767,1,0,0:0:0:0:
329,192,110848,1,0,0:0:0:40:bassdrum.wav
475,192,110848,1,0,0:0:0:0:
256,192,110929,1,0,0:0:0:0:
402,192,111010,1,0,0:0:0:0:
329,192,111091,1,0,0:0:0:0:
475,192,111172,1,0,0:0:0:40:bassdrum.wav
182,192,111172,1,0,0:0:0:0:
109,192,111172,1,0,0:0:0:0:
329,192,111253,1,0,0:0:0:0:
182,192,111334,1,0,0:0:0:30:hihat.wav
256,192,111334,128,0,111821:0:0:0:0:
402,192,111415,1,0,0:0:0:0:
109,192,111496,1,0,0:0:0:0:
329,192,111496,1,0,0:0:0:40:bassdrum.wav
475,192,111496,128,0,111821:0:0:0:0:
402,192,111659,1,0,0:0:0:0:
329,192,111821,1,0,0:0:0:40:bassdrum.wav
109,192,111821,1,0,0:0:0:70:cymbol.wav
182,192,111821,1,0,0:0:0:0:
402,192,111983,1,0,0:0:0:30:hihat.wav
256,192,111983,1,0,0:0:0:0:
182,192,112145,1,0,0:0:0:40:bassdrum.wav
36,192,112145,1,0,0:0:0:0:
475,192,112145,1,0,0:0:0:0:
402,192,112307,1,0,0:0:0:30:hihat.wav
256,192,112307,1,0,0:0:0:0:
36,192,112469,1,0,0:0:0:40:bassdrum.wav
109,192,112469,1,0,0:0:0:0:
329,192,112632,1,0,0:0:0:30:hihat.wav
182,192,112632,1,0,0:0:0:0:
256,192,112794,1,0,0:0:0:40:bassdrum.wav
36,192,112794,1,0,0:0:0:0:
402,192,112794,1,0,0:0:0:0:
182,192,112956,1,0,0:0:0:30:hihat.wav
109,192,112956,1,0,0:0:0:0:
36,192,113118,1,0,0:0:0:40:bassdrum.wav
329,192,113118,1,0,0:0:0:0:
475,192,113118,1,0,0:0:0:0:
182,192,113280,1,0,0:0:0:30:hihat.wav
256,192,113361,1,0,0:0:0:0:
475,192,113442,1,0,0:0:0:40:bassdrum.wav
109,192,113442,1,0,0:0:0:0:
36,192,113442,1,0,0:0:0:0:
329,192,113523,1,0,0:0:0:0:
182,192,113605,1,0,0:0:0:30:hihat.wav
402,192,113686,1,0,0:0:0:0:
256,192,113767,1,0,0:0:0:40:bassdrum.wav
36,192,113767,1,0,0:0:0:0:
475,192,113848,1,0,0:0:0:0:
182,192,113929,1,0,0:0:0:30:hihat.wav
475,192,114010,1,0,0:0:0:0:
475,192,114091,1,0,0:0:0:40:bassdrum.wav
36,192,114091,1,0,0:0:0:0:
109,192,114091,1,0,0:0:0:0:
256,192,114091,1,0,0:0:0:0:
402,192,114172,1,0,0:0:0:0:
329,192,114253,1,0,0:0:0:30:hihat.wav
182,192,114253,1,0,0:0:0:0:
256,192,114334,1,0,0:0:0:0:
256,192,114415,1,0,0:0:0:40:bassdrum.wav
475,192,114415,1,0,0:0:0:0:
36,192,114415,1,0,0:0:0:0:
402,192,114578,1,0,0:0:0:30:hihat.wav
182,192,114578,1,0,0:0:0:0:
109,192,114740,1,0,0:0:0:40:bassdrum.wav
36,192,114740,1,0,0:0:0:0:
475,192,114740,1,0,0:0:0:0:
256,192,114740,1,0,0:0:0:0:
402,192,114902,1,0,0:0:0:30:hihat.wav
329,192,114902,1,0,0:0:0:0:
109,192,115064,1,0,0:0:0:40:bassdrum.wav
475,192,115064,1,0,0:0:0:0:
256,192,115226,1,0,0:0:0:30:hihat.wav
182,192,115226,1,0,0:0:0:0:
329,192,115388,1,0,0:0:0:40:bassdrum.wav
36,192,115388,1,0,0:0:0:0:
402,192,115388,1,0,0:0:0:0:
182,192,115550,1,0,0:0:0:30:hihat.wav
109,192,115550,1,0,0:0:0:0:
36,192,115713,1,0,0:0:0:40:bassdrum.wav
256,192,115713,1,0,0:0:0:0:
475,192,115713,1,0,0:0:0:0:
182,192,115875,5,0,0:0:0:30:hihat.wav
329,192,115875,1,0,0:0:0:0:
256,192,115956,1,0,0:0:0:0:
402,192,116037,1,0,0:0:0:40:bassdrum.wav
36,192,116037,1,0,0:0:0:0:
329,192,116118,1,0,0:0:0:0:
182,192,116199,1,0,0:0:0:30:hihat.wav
475,192,116280,1,0,0:0:0:0:
402,192,116361,1,0,0:0:0:40:bassdrum.wav
256,192,116361,1,0,0:0:0:0:
36,192,116361,1,0,0:0:0:0:
402,192,116523,1,0,0:0:0:30:hihat.wav
109,192,116523,1,0,0:0:0:0:
329,192,116605,1,0,0:0:0:0:
36,192,116686,1,0,0:0:0:0:
475,192,116686,1,0,0:0:0:40:bassdrum.wav
256,192,116686,128,0,117010:0:0:0:0:
36,192,117010,5,0,0:0:0:40:bassdrum.wav
475,192,117010,1,0,0:0:0:70:cymbol.wav
402,192,117010,1,0,0:0:0:0:
109,192,117010,1,0,0:0:0:0:
182,192,117172,1,0,0:0:0:40:bassdrum.wav
329,192,117172,1,0,0:0:0:0:
109,192,117334,1,0,0:0:0:40:bassdrum.wav
402,192,117334,1,0,0:0:0:0:
182,192,117496,1,0,0:0:0:40:bassdrum.wav
329,192,117496,1,0,0:0:0:0:
475,192,117659,1,0,0:0:0:40:bassdrum.wav
36,192,117659,1,0,0:0:0:0:
329,192,117740,1,0,0:0:0:40:bassdrum.wav
182,192,117740,1,0,0:0:0:0:
475,192,117821,1,0,0:0:0:40:bassdrum.wav
36,192,117821,1,0,0:0:0:0:
329,192,117902,1,0,0:0:0:40:bassdrum.wav
182,192,117902,1,0,0:0:0:0:
36,192,117983,1,0,0:0:0:40:bassdrum.wav
475,192,117983,1,0,0:0:0:0:
182,192,118064,1,0,0:0:0:40:bassdrum.wav
329,192,118064,1,0,0:0:0:0:
36,192,118145,1,0,0:0:0:40:bassdrum.wav
475,192,118145,1,0,0:0:0:0:
109,192,118226,1,0,0:0:0:40:bassdrum.wav
402,192,118226,1,0,0:0:0:0:
182,192,118307,1,0,0:0:0:40:bassdrum.wav
329,192,118307,1,0,0:0:0:70:cymbol.wav
36,192,118469,1,0,0:0:0:40:bassdrum.wav
475,192,118469,1,0,0:0:0:0:
109,192,118632,1,0,0:0:0:40:bassdrum.wav
402,192,118632,1,0,0:0:0:0:
36,192,118794,1,0,0:0:0:40:bassdrum.wav
475,192,118794,1,0,0:0:0:0:
475,192,118956,1,0,0:0:0:40:bassdrum.wav
36,192,118956,1,0,0:0:0:0:
402,192,119037,1,0,0:0:0:40:bassdrum.wav
109,192,119037,1,0,0:0:0:0:
329,192,119118,1,0,0:0:0:40:bassdrum.wav
182,192,119118,1,0,0:0:0:0:
402,192,119199,1,0,0:0:0:40:bassdrum.wav
109,192,119199,1,0,0:0:0:0:
475,192,119280,1,0,0:0:0:40:bassdrum.wav
36,192,119280,1,0,0:0:0:0:
402,192,119361,1,0,0:0:0:40:bassdrum.wav
109,192,119361,1,0,0:0:0:0:
329,192,119442,1,0,0:0:0:40:bassdrum.wav
182,192,119442,1,0,0:0:0:0:
402,192,119523,1,0,0:0:0:40:bassdrum.wav
109,192,119523,1,0,0:0:0:0:
256,192,119605,1,0,0:0:0:40:bassdrum.wav
36,192,119605,1,0,0:0:0:0:
475,192,119605,1,0,0:0:0:0:
256,192,119767,1,0,0:0:0:40:bassdrum.wav
36,192,119767,1,0,0:0:0:0:
475,192,119767,1,0,0:0:0:0:
256,192,120253,1,0,0:0:0:40:bassdrum.wav
36,192,120253,1,0,0:0:0:0:
475,192,120253,1,0,0:0:0:0:
256,192,120415,1,0,0:0:0:40:bassdrum.wav
36,192,120415,1,0,0:0:0:0:
475,192,120415,1,0,0:0:0:0:
36,192,120902,1,0,0:0:0:40:bassdrum.wav
475,192,120902,1,0,0:0:0:0:
109,192,120983,1,0,0:0:0:40:bassdrum.wav
402,192,120983,1,0,0:0:0:0:
182,192,121064,1,0,0:0:0:40:bassdrum.wav
329,192,121064,1,0,0:0:0:0:
36,192,121145,1,0,0:0:0:40:bassdrum.wav
475,192,121145,1,0,0:0:0:0:
182,192,121226,1,0,0:0:0:40:bassdrum.wav
329,192,121226,1,0,0:0:0:0:
109,192,121307,1,0,0:0:0:40:bassdrum.wav
402,192,121307,1,0,0:0:0:0:
36,192,121388,1,0,0:0:0:40:bassdrum.wav
475,192,121388,1,0,0:0:0:0:
182,192,121469,1,0,0:0:0:40:bassdrum.wav
329,192,121469,1,0,0:0:0:0:
256,192,121550,1,0,0:0:0:40:bassdrum.wav
36,192,121550,1,0,0:0:0:70:cymbol.wav
475,192,121550,1,0,0:0:0:0:
475,192,121875,1,0,0:0:0:40:bassdrum.wav
256,192,121875,1,0,0:0:0:70:cymbol.wav
36,192,121875,1,0,0:0:0:0:
36,192,122199,128,0,123496:0:0:0:40:bassdrum.wav
475,192,122199,128,0,123496:0:0:0:70:cymbol.wav
329,192,122199,128,0,124794:0:0:0:0:
182,192,122199,128,0,124794:0:0:0:0:
256,192,122199,128,0,126091:0:0:0:0:
