osu file format v13

[General]
AudioFilename: Ryu - We're so Happy.mp3
AudioLeadIn: 0
PreviewTime: 57334
Countdown: 0
SampleSet: Normal
StackLeniency: 0.7
Mode: 1
LetterboxInBreaks: 0
WidescreenStoryboard: 0

[Editor]
DistanceSpacing: 2
BeatDivisor: 4
GridSize: 32
TimelineZoom: 1.5

[Metadata]
Title:We're so Happy
TitleUnicode:We're so Happy
Artist:Ryu*
ArtistUnicode:Ryu☆
Creator:Spy
Version:qoot8123's Futsuu
Source:jubeat saucer
Tags:plus ミライダガッキ FutureTomTom Ver.2 BEMANI KONAMI Mayumi Morinaga senya 森永真由美 moimoi QuanTUM richardfeder Simple_Star mingmichael Kuo Kyoka qoot8123
BeatmapID:460777
BeatmapSetID:120838

[Difficulty]
HPDrainRate:4
CircleSize:5
OverallDifficulty:4
ApproachRate:5
SliderMultiplier:1.2
SliderTickRate:1

[Events]
//Background and Video events
0,0,"BG.jpg",0,100
//Break Periods
//Storyboard Layer 0 (Background)
//Storyboard Layer 1 (Fail)
//Storyboard Layer 2 (Pass)
//Storyboard Layer 3 (Foreground)
//Storyboard Sound Samples
//Background Colour Transformations
3,100,163,162,255

[TimingPoints]
1551,324.324324324324,4,1,0,60,1,0
6740,-100,4,1,0,80,0,0
11929,-100,4,1,0,20,0,0
13145,-100,4,1,0,90,0,0
22226,-100,4,1,0,80,0,0
23442,-100,4,1,0,90,0,0
32523,-100,4,1,0,20,0,0
33821,-100,4,1,0,60,0,0
43713,-100,4,1,0,70,0,0
44199,-100,4,1,0,80,0,0
49469,-100,4,1,0,85,0,0
52064,-100,4,1,0,90,0,0
56929,-100,4,1,0,95,0,0
57253,-100,4,1,0,100,0,0
78091,-100,4,1,0,100,0,1
88469,-100,4,1,0,100,0,0
92361,-100,4,1,0,40,0,0
93496,-100,4,1,0,80,0,0
97469,-100,4,1,0,90,0,0
101037,-100,4,1,0,95,0,0
101361,-100,4,1,0,100,0,0
101442,-100,4,1,0,100,0,1
122199,-100,4,1,0,100,0,0

[Colours]
Combo1 : 18,124,255
Combo2 : 255,0,0

[HitObjects]
256,192,1551,5,0,0:0:0:0:
256,192,2037,1,8,0:0:0:0:
256,192,2523,1,0,0:0:0:0:
256,192,2848,1,0,0:0:0:0:
256,192,3821,1,0,0:0:0:0:
256,192,4145,1,0,0:0:0:0:
256,192,4632,1,8,0:0:0:0:
256,192,5118,1,0,0:0:0:0:
256,192,5442,1,0,0:0:0:0:
256,192,6415,1,8,0:0:0:0:
256,192,6740,1,0,0:0:0:0:
256,192,7226,1,8,0:0:0:0:
256,192,7713,1,8,0:0:0:0:
256,192,8037,1,0,0:0:0:0:
256,192,9010,1,8,0:0:0:0:
256,192,9334,1,0,0:0:0:0:
256,192,9821,1,8,0:0:0:0:
256,192,10307,1,8,0:0:0:0:
256,192,10632,1,0,0:0:0:0:
256,192,11118,1,8,0:0:0:0:
256,192,11442,1,8,0:0:0:0:
256,192,11929,12,0,12902,0:0:0:0:
256,192,13226,5,4,0:0:0:0:
256,192,13550,1,0,0:0:0:0:
256,192,13875,1,8,0:0:0:0:
256,192,14523,1,0,0:0:0:0:
256,192,14848,1,0,0:0:0:0:
256,192,15172,1,8,0:0:0:0:
256,192,15821,1,0,0:0:0:0:
256,192,16469,1,8,0:0:0:0:
256,192,17118,1,0,0:0:0:0:
256,192,17442,1,0,0:0:0:0:
256,192,17767,1,8,0:0:0:0:
256,192,18091,1,8,0:0:0:0:
256,192,18415,1,4,0:0:0:0:
256,192,19064,1,8,0:0:0:0:
256,192,19388,1,8,0:0:0:0:
256,192,19713,1,0,0:0:0:0:
256,192,20361,1,8,0:0:0:0:
256,192,20686,1,8,0:0:0:0:
256,192,21010,1,0,0:0:0:0:
256,192,21659,1,0,0:0:0:0:
256,192,22307,1,0,0:0:0:0:
256,192,23605,1,4,0:0:0:0:
256,192,23929,1,0,0:0:0:0:
256,192,24253,1,8,0:0:0:0:
256,192,24578,1,8,0:0:0:0:
256,192,24902,1,0,0:0:0:0:
256,192,25550,1,8,0:0:0:0:
256,192,25875,1,8,0:0:0:0:
256,192,26199,1,0,0:0:0:0:
256,192,26848,1,8,0:0:0:0:
256,192,27496,1,0,0:0:0:0:
256,192,27821,1,0,0:0:0:0:
256,192,28145,1,8,0:0:0:0:
256,192,28469,1,8,0:0:0:0:
256,192,28794,1,0,0:0:0:0:
256,192,29442,1,0,0:0:0:0:
256,192,30091,1,0,0:0:0:0:
256,192,30415,1,8,0:0:0:0:
256,192,30740,1,8,0:0:0:0:
224,192,31064,1,8,0:0:0:0:
256,192,31388,1,8,0:0:0:0:
256,192,32037,1,8,0:0:0:0:
256,192,32361,1,8,0:0:0:0:
256,192,32686,12,0,33659,0:0:0:0:
256,192,33983,5,4,0:0:0:0:
256,192,34469,1,8,0:0:0:0:
256,192,35118,1,0,0:0:0:0:
256,192,35767,1,0,0:0:0:0:
256,192,36578,1,0,0:0:0:0:
256,192,37064,1,8,0:0:0:0:
256,192,37713,1,0,0:0:0:0:
256,192,38361,1,0,0:0:0:0:
256,192,39172,1,0,0:0:0:0:
256,192,39659,1,8,0:0:0:0:
256,192,40307,1,0,0:0:0:0:
256,192,40956,1,0,0:0:0:0:
256,192,41767,1,0,0:0:0:0:
256,192,42253,1,8,0:0:0:0:
256,192,42902,1,0,0:0:0:0:
256,192,43550,1,0,0:0:0:0:
256,192,43875,1,8,0:0:0:0:
256,192,44037,1,0,0:0:0:0:
256,192,44361,1,4,0:0:0:0:
256,192,44686,1,8,0:0:0:0:
256,192,45172,1,8,0:0:0:0:
256,192,45496,1,0,0:0:0:0:
256,192,45659,1,4,0:0:0:0:
256,192,45983,1,8,0:0:0:0:
256,192,46794,1,0,0:0:0:0:
256,192,46956,1,4,0:0:0:0:
256,192,47280,1,8,0:0:0:0:
256,192,47767,1,8,0:0:0:0:
256,192,48091,1,0,0:0:0:0:
256,192,48253,1,4,0:0:0:0:
256,192,48578,1,8,0:0:0:0:
256,192,49388,1,0,0:0:0:0:
256,192,49550,1,4,0:0:0:0:
256,192,49875,1,0,0:0:0:0:
256,192,50199,1,0,0:0:0:0:
256,192,50523,1,0,0:0:0:0:
256,192,50848,1,12,0:0:0:0:
256,192,51172,1,8,0:0:0:0:
256,192,51496,1,8,0:0:0:0:
256,192,51821,1,8,0:0:0:0:
256,192,52145,1,4,0:0:0:0:
256,192,52469,1,0,0:0:0:0:
256,192,52794,1,4,0:0:0:0:
256,192,53118,1,0,0:0:0:0:
256,256,53442,2,0,L|256:128,4,120,0|0|0|0|0,0:0|0:0|0:0|0:0|0:0,0:0:0:0:
256,192,56037,1,8,0:0:0:0:
256,192,56361,1,0,0:0:0:0:
256,192,56686,1,0,0:0:0:0:
256,192,57010,1,8,0:0:0:0:
256,192,57334,1,4,0:0:0:0:
256,192,57983,1,8,0:0:0:0:
256,192,58307,1,8,0:0:0:0:
256,192,58632,1,0,0:0:0:0:
256,192,58956,1,0,0:0:0:0:
256,192,59118,1,0,0:0:0:0:
256,192,59442,1,0,0:0:0:0:
256,192,59605,1,8,0:0:0:0:
256,192,59929,1,0,0:0:0:0:
256,192,60578,1,8,0:0:0:0:
256,192,60902,1,8,0:0:0:0:
256,192,61226,1,0,0:0:0:0:
256,192,61550,1,0,0:0:0:0:
256,192,61713,1,0,0:0:0:0:
256,192,62037,1,8,0:0:0:0:
256,192,62199,1,8,0:0:0:0:
256,192,62523,1,0,0:0:0:0:
256,192,63172,1,8,0:0:0:0:
256,192,63496,1,8,0:0:0:0:
256,192,63821,1,0,0:0:0:0:
256,192,64145,1,0,0:0:0:0:
256,192,64469,1,8,0:0:0:0:
256,192,64794,1,8,0:0:0:0:
256,192,65118,1,0,0:0:0:0:
256,192,65767,1,0,0:0:0:0:
256,192,66415,1,0,0:0:0:0:
256,192,66740,1,8,0:0:0:0:
256,192,67064,1,0,0:0:0:0:
256,192,67388,1,8,0:0:0:0:
256,192,67713,1,4,0:0:0:0:
256,192,68361,1,8,0:0:0:0:
256,192,68686,1,8,0:0:0:0:
256,192,69010,1,0,0:0:0:0:
256,192,69334,1,0,0:0:0:0:
256,192,69496,1,0,0:0:0:0:
256,192,69821,1,0,0:0:0:0:
256,192,69983,1,8,0:0:0:0:
256,192,70307,1,0,0:0:0:0:
256,192,70956,1,8,0:0:0:0:
256,192,71280,1,8,0:0:0:0:
256,192,71605,1,0,0:0:0:0:
256,192,71929,1,0,0:0:0:0:
256,192,72091,1,8,0:0:0:0:
256,192,72416,1,8,0:0:0:0:
256,192,72578,1,8,0:0:0:0:
256,192,72902,1,0,0:0:0:0:
256,192,73550,1,0,0:0:0:0:
256,192,74199,1,0,0:0:0:0:
256,192,74523,1,8,0:0:0:0:
256,192,74848,1,8,0:0:0:0:
256,192,75172,1,8,0:0:0:0:
256,192,75496,1,0,0:0:0:0:
256,192,76145,1,8,0:0:0:0:
256,192,76794,1,8,0:0:0:0:
256,192,77118,1,0,0:0:0:0:
256,192,77442,1,8,0:0:0:0:
256,192,77767,1,8,0:0:0:0:
256,192,78091,1,4,0:0:0:0:
256,192,78740,1,8,0:0:0:0:
256,192,79064,1,0,0:0:0:0:
256,192,79388,1,0,0:0:0:0:
256,192,79713,1,0,0:0:0:0:
256,192,79875,1,0,0:0:0:0:
256,192,80037,1,8,0:0:0:0:
256,192,80361,1,8,0:0:0:0:
256,192,80686,1,0,0:0:0:0:
256,192,81334,1,8,0:0:0:0:
256,192,81659,1,0,0:0:0:0:
256,192,81983,1,0,0:0:0:0:
256,192,82307,1,8,0:0:0:0:
256,192,82469,1,0,0:0:0:0:
256,192,82632,1,8,0:0:0:0:
256,192,82956,1,8,0:0:0:0:
256,192,83280,1,4,0:0:0:0:
256,192,83929,1,0,0:0:0:0:
256,192,84253,1,8,0:0:0:0:
256,192,84578,1,0,0:0:0:0:
256,192,84902,1,8,0:0:0:0:
256,192,85064,1,0,0:0:0:0:
256,192,85226,1,8,0:0:0:0:
256,192,85550,1,8,0:0:0:0:
256,192,85875,1,0,0:0:0:0:
256,192,86523,1,0,0:0:0:0:
256,192,87172,1,0,0:0:0:0:
256,192,87496,1,8,0:0:0:0:
256,192,87821,1,0,0:0:0:0:
256,192,87983,1,0,0:0:0:0:
256,192,88145,1,8,0:0:0:0:
256,192,88469,1,4,0:0:0:0:
256,192,92361,12,0,93334,0:0:0:0:
256,192,93659,5,4,0:0:0:0:
256,192,93983,1,8,0:0:0:0:
256,192,94632,1,8,0:0:0:0:
256,192,94956,1,4,0:0:0:0:
256,192,95280,1,8,0:0:0:0:
256,192,95929,1,8,0:0:0:0:
256,192,96253,1,4,0:0:0:0:
256,192,96578,1,0,0:0:0:0:
256,192,96902,1,4,0:0:0:0:
256,192,97226,1,0,0:0:0:0:
256,192,97550,1,4,0:0:0:0:
256,192,97875,1,4,0:0:0:0:
256,192,98199,1,12,0:0:0:0:
256,192,98523,1,12,0:0:0:0:
256,192,98848,1,0,0:0:0:0:
256,192,99010,1,0,0:0:0:0:
256,192,99172,1,8,0:0:0:0:
256,192,99496,1,0,0:0:0:0:
256,192,99659,1,0,0:0:0:0:
256,192,99821,1,8,0:0:0:0:
256,256,100145,2,0,L|256:128,2,120,0|0|0,0:0|0:0|0:0,0:0:0:0:
256,192,101118,1,8,0:0:0:0:
256,192,101442,1,4,0:0:0:0:
256,192,102091,1,0,0:0:0:0:
256,192,102415,1,8,0:0:0:0:
256,192,102740,1,0,0:0:0:0:
256,192,103064,1,8,0:0:0:0:
256,192,103226,1,8,0:0:0:0:
256,192,103550,1,0,0:0:0:0:
256,192,103713,1,8,0:0:0:0:
256,192,104037,1,0,0:0:0:0:
256,192,104686,1,0,0:0:0:0:
256,192,105010,1,8,0:0:0:0:
256,192,105334,1,0,0:0:0:0:
256,192,105659,1,8,0:0:0:0:
256,192,105821,1,8,0:0:0:0:
256,192,106145,1,0,0:0:0:0:
256,192,106307,1,8,0:0:0:0:
256,192,106632,1,4,0:0:0:0:
256,192,107280,1,8,0:0:0:0:
256,192,107605,1,8,0:0:0:0:
256,192,107929,1,0,0:0:0:0:
256,192,108253,1,0,0:0:0:0:
256,192,108578,1,8,0:0:0:0:
256,192,108902,1,8,0:0:0:0:
256,192,109226,1,0,0:0:0:0:
256,192,109875,1,0,0:0:0:0:
256,192,110523,1,0,0:0:0:0:
256,192,110848,1,8,0:0:0:0:
256,192,111172,1,0,0:0:0:0:
256,192,111496,1,8,0:0:0:0:
256,192,111821,1,4,0:0:0:0:
256,192,112469,1,0,0:0:0:0:
256,192,112794,1,8,0:0:0:0:
256,192,113118,1,0,0:0:0:0:
256,192,113442,1,8,0:0:0:0:
256,192,113605,1,8,0:0:0:0:
256,192,113929,1,0,0:0:0:0:
256,192,114091,1,8,0:0:0:0:
256,192,114415,1,0,0:0:0:0:
256,192,114740,1,8,0:0:0:0:
256,192,115064,1,0,0:0:0:0:
256,192,115388,1,8,0:0:0:0:
256,192,115550,1,8,0:0:0:0:
256,192,115713,1,0,0:0:0:0:
256,192,116037,1,8,0:0:0:0:
256,192,116199,1,0,0:0:0:0:
256,192,116523,1,0,0:0:0:0:
256,192,116686,1,8,0:0:0:0:
256,192,117010,1,0,0:0:0:0:
256,192,117659,1,0,0:0:0:0:
256,192,117983,1,8,0:0:0:0:
256,192,118307,1,0,0:0:0:0:
256,192,118632,1,8,0:0:0:0:
256,192,118794,1,0,0:0:0:0:
256,192,118956,1,8,0:0:0:0:
256,192,119280,1,8,0:0:0:0:
256,192,119605,1,0,0:0:0:0:
256,192,120253,1,0,0:0:0:0:
256,192,120578,1,8,0:0:0:0:
256,192,120902,1,4,0:0:0:0:
256,192,121226,1,4,0:0:0:0:
256,192,121550,1,12,0:0:0:0:
256,192,121875,1,12,0:0:0:0:
256,192,122199,1,4,0:0:0:0:
