osu file format v13

[General]
AudioFilename: Ryu - We're so Happy.mp3
AudioLeadIn: 0
PreviewTime: 57334
Countdown: 0
SampleSet: Normal
StackLeniency: 0.7
Mode: 1
LetterboxInBreaks: 0
WidescreenStoryboard: 0

[Editor]
DistanceSpacing: 2
BeatDivisor: 4
GridSize: 32
TimelineZoom: 2.4

[Metadata]
Title:We're so Happy
TitleUnicode:We're so Happy
Artist:Ryu*
ArtistUnicode:Ryu☆
Creator:Spy
Version:m1ng's Inner Oni
Source:jubeat saucer
Tags:plus ミライダガッキ FutureTomTom Ver.2 BEMANI KONAMI Mayumi Morinaga senya 森永真由美 moimoi QuanTUM richardfeder Simple_Star mingmichael Kuo Kyoka qoot8123
BeatmapID:314179
BeatmapSetID:120838

[Difficulty]
HPDrainRate:6
CircleSize:3
OverallDifficulty:5
ApproachRate:5
SliderMultiplier:1.4
SliderTickRate:1

[Events]
//Background and Video events
0,0,"BG.jpg",0,100
//Break Periods
2,88669,92459
//Storyboard Layer 0 (Background)
//Storyboard Layer 1 (Fail)
//Storyboard Layer 2 (Pass)
//Storyboard Layer 3 (Foreground)
//Storyboard Sound Samples
//Background Colour Transformations
3,100,163,162,255

[TimingPoints]
1551,324.324324324324,4,1,0,80,1,0
6740,-100,4,1,0,85,0,0
9334,-100,4,1,0,80,0,0
10632,-100,4,1,0,75,0,0
11929,-100,4,1,0,70,0,0
13226,-100,4,1,0,90,0,0
33983,-100,4,1,0,80,0,0
38523,-100,4,1,0,70,0,0
38848,-100,4,1,0,75,0,0
39172,-100,4,1,0,80,0,0
43064,-100,4,1,0,70,0,0
43388,-100,4,1,0,72,0,0
43713,-100,4,1,0,75,0,0
44037,-100,4,1,0,77,0,0
44361,-100,4,1,0,80,0,0
52145,-100,4,1,0,70,0,0
52794,-100,4,1,0,75,0,0
53442,-100,4,1,0,80,0,0
54091,-100,4,1,0,85,0,0
54415,-100,4,1,0,80,0,0
57010,-100,4,1,0,85,0,0
57334,-100,4,1,0,90,0,0
78091,-100,4,1,0,90,0,1
88469,-100,4,1,0,90,0,0
88632,-100,4,1,0,80,0,0
97875,-100,4,1,0,83,0,0
98199,-100,4,1,0,85,0,0
98523,-100,4,1,0,87,0,0
98848,-100,4,1,0,80,0,0
101118,-100,4,1,0,85,0,0
101442,-100,4,1,0,90,0,1
121875,-100,4,1,0,85,0,1
122199,-100,4,1,0,80,0,0

[Colours]
Combo1 : 18,124,255
Combo2 : 255,0,0

[HitObjects]
192,96,1551,5,8,0:0:0:0:
192,96,1713,1,8,0:0:0:0:
192,96,1875,5,0,0:0:0:0:
192,96,2037,5,8,0:0:0:0:
192,96,2361,5,0,0:0:0:0:
192,96,2523,5,8,0:0:0:0:
192,96,2686,5,0,0:0:0:0:
192,96,2848,5,8,0:0:0:0:
192,96,3010,1,8,0:0:0:0:
192,96,3172,5,0,0:0:0:0:
192,96,3334,1,0,0:0:0:0:
192,96,3659,1,0,0:0:0:0:
192,96,3821,5,8,0:0:0:0:
192,96,3983,5,0,0:0:0:0:
192,96,4145,5,8,0:0:0:0:
192,96,4307,1,8,0:0:0:0:
192,96,4469,5,0,0:0:0:0:
192,96,4632,5,8,0:0:0:0:
192,96,4956,5,0,0:0:0:0:
192,96,5118,5,8,0:0:0:0:
192,96,5280,5,0,0:0:0:0:
192,96,5442,5,8,0:0:0:0:
192,96,5605,1,8,0:0:0:0:
192,96,5767,5,0,0:0:0:0:
192,96,5929,1,0,0:0:0:0:
192,96,6253,1,0,0:0:0:0:
192,96,6415,5,8,0:0:0:0:
192,96,6578,5,0,0:0:0:0:
192,96,6740,5,8,0:0:0:0:
192,96,6902,1,8,0:0:0:0:
192,96,7064,5,0,0:0:0:0:
192,96,7226,5,8,0:0:0:0:
192,96,7550,5,0,0:0:0:0:
192,96,7713,5,8,0:0:0:0:
192,96,7875,5,0,0:0:0:0:
192,96,8037,5,8,0:0:0:0:
192,96,8199,1,8,0:0:0:0:
192,96,8361,5,0,0:0:0:0:
192,96,8523,1,0,0:0:0:0:
192,96,8848,1,0,0:0:0:0:
192,96,9010,5,8,0:0:0:0:
192,96,9172,5,0,0:0:0:0:
192,96,9334,5,8,0:0:0:0:
192,96,9496,1,8,0:0:0:0:
192,96,9659,5,0,0:0:0:0:
192,96,9821,5,8,0:0:0:0:
192,96,10145,5,0,0:0:0:0:
192,96,10307,5,8,0:0:0:0:
192,96,10469,5,0,0:0:0:0:
192,96,10632,5,8,0:0:0:0:
192,96,10794,1,8,0:0:0:0:
192,96,10956,5,0,0:0:0:0:
192,96,11118,1,0,0:0:0:0:
192,96,11442,1,0,0:0:0:0:
192,96,11605,5,8,0:0:0:0:
192,96,11767,5,0,0:0:0:0:
192,96,11929,1,0,0:0:0:0:
192,96,13226,5,4,0:0:0:0:
192,96,13388,1,0,0:0:0:0:
192,96,13550,5,8,0:0:0:0:
192,96,13713,1,8,0:0:0:0:
320,96,13794,1,8,0:0:0:0:
192,96,13875,5,0,0:0:0:0:
192,96,14037,5,8,0:0:0:0:
192,96,14199,5,0,0:0:0:0:
320,96,14280,1,0,0:0:0:0:
192,96,14361,5,8,0:0:0:0:
320,96,14442,1,8,0:0:0:0:
192,96,14523,5,0,0:0:0:0:
192,96,14686,1,0,0:0:0:0:
192,96,14848,5,8,0:0:0:0:
320,96,14929,1,8,0:0:0:0:
192,96,15010,5,0,0:0:0:0:
320,96,15091,1,0,0:0:0:0:
192,96,15172,1,0,0:0:0:0:
192,96,15334,1,0,0:0:0:0:
320,96,15415,1,0,0:0:0:0:
192,96,15496,5,8,0:0:0:0:
192,96,15659,1,8,0:0:0:0:
320,96,15740,1,8,0:0:0:0:
192,96,15821,5,0,0:0:0:0:
192,96,15983,1,0,0:0:0:0:
192,96,16145,5,8,0:0:0:0:
192,96,16307,5,0,0:0:0:0:
320,96,16388,5,8,0:0:0:0:
192,96,16470,5,0,0:0:0:0:
192,96,16632,1,0,0:0:0:0:
320,96,16713,1,0,0:0:0:0:
192,96,16794,5,8,0:0:0:0:
192,96,16956,5,0,0:0:0:0:
192,96,17118,5,8,0:0:0:0:
320,96,17199,1,8,0:0:0:0:
192,96,17280,5,0,0:0:0:0:
320,96,17361,1,0,0:0:0:0:
192,96,17443,5,8,0:0:0:0:
192,96,17605,5,0,0:0:0:0:
192,96,17767,5,8,0:0:0:0:
320,96,17848,1,8,0:0:0:0:
192,96,17929,5,0,0:0:0:0:
320,96,18010,1,0,0:0:0:0:
192,96,18091,5,8,0:0:0:0:
320,96,18172,1,8,0:0:0:0:
192,96,18253,1,8,0:0:0:0:
192,96,18415,5,0,0:0:0:0:
192,96,18577,5,8,0:0:0:0:
320,96,18659,1,8,0:0:0:0:
192,96,18740,1,8,0:0:0:0:
192,96,18902,5,0,0:0:0:0:
192,96,19064,5,8,0:0:0:0:
192,96,19226,1,8,0:0:0:0:
320,96,19307,1,8,0:0:0:0:
192,96,19388,5,0,0:0:0:0:
192,96,19550,5,8,0:0:0:0:
192,96,19713,5,0,0:0:0:0:
320,96,19794,1,0,0:0:0:0:
192,96,19875,1,0,0:0:0:0:
320,96,19956,1,0,0:0:0:0:
192,96,20037,5,8,0:0:0:0:
192,96,20199,5,0,0:0:0:0:
192,96,20361,5,8,0:0:0:0:
320,96,20442,1,8,0:0:0:0:
192,96,20523,5,0,0:0:0:0:
320,96,20605,1,0,0:0:0:0:
192,96,20685,5,8,0:0:0:0:
192,96,20847,5,0,0:0:0:0:
320,96,20929,5,8,0:0:0:0:
192,96,21010,5,0,0:0:0:0:
192,96,21172,1,0,0:0:0:0:
320,96,21253,1,0,0:0:0:0:
192,96,21334,5,8,0:0:0:0:
192,96,21496,5,0,0:0:0:0:
192,96,21658,5,8,0:0:0:0:
320,96,21740,1,8,0:0:0:0:
192,96,21820,5,0,0:0:0:0:
320,96,21902,1,0,0:0:0:0:
192,96,21983,5,8,0:0:0:0:
192,96,22145,5,0,0:0:0:0:
192,96,22307,1,0,0:0:0:0:
320,96,22388,5,8,0:0:0:0:
192,96,22469,5,0,0:0:0:0:
320,96,22550,1,0,0:0:0:0:
192,96,22631,5,8,0:0:0:0:
192,96,22794,5,0,0:0:0:0:
192,96,22956,1,0,0:0:0:0:
320,96,23037,1,0,0:0:0:0:
192,96,23118,1,0,0:0:0:0:
320,96,23199,1,0,0:0:0:0:
192,96,23281,5,8,0:0:0:0:
320,96,23361,1,8,0:0:0:0:
192,96,23443,1,8,0:0:0:0:
192,96,23605,5,4,0:0:0:0:
192,96,23767,1,0,0:0:0:0:
320,96,23848,1,0,0:0:0:0:
192,96,23929,5,8,0:0:0:0:
192,96,24091,1,8,0:0:0:0:
192,96,24254,5,0,0:0:0:0:
192,96,24416,5,8,0:0:0:0:
320,96,24496,1,8,0:0:0:0:
192,96,24578,5,0,0:0:0:0:
320,96,24659,1,0,0:0:0:0:
192,96,24740,5,8,0:0:0:0:
192,96,24902,5,0,0:0:0:0:
192,96,25064,1,0,0:0:0:0:
320,96,25145,1,0,0:0:0:0:
192,96,25227,5,8,0:0:0:0:
192,96,25389,5,0,0:0:0:0:
192,96,25551,5,8,0:0:0:0:
320,96,25632,5,0,0:0:0:0:
192,96,25713,1,0,0:0:0:0:
320,96,25794,1,0,0:0:0:0:
192,96,25875,5,8,0:0:0:0:
192,96,26037,5,0,0:0:0:0:
192,96,26200,1,0,0:0:0:0:
192,96,26362,5,8,0:0:0:0:
320,96,26442,1,8,0:0:0:0:
192,96,26524,1,8,0:0:0:0:
192,96,26686,5,0,0:0:0:0:
192,96,26848,5,8,0:0:0:0:
192,96,27010,5,0,0:0:0:0:
320,96,27091,1,0,0:0:0:0:
192,96,27173,5,8,0:0:0:0:
320,96,27253,1,8,0:0:0:0:
192,96,27335,1,8,0:0:0:0:
192,96,27497,5,0,0:0:0:0:
192,96,27659,1,0,0:0:0:0:
320,96,27740,1,0,0:0:0:0:
192,96,27821,5,8,0:0:0:0:
192,96,27983,5,0,0:0:0:0:
192,96,28146,1,0,0:0:0:0:
320,96,28226,5,8,0:0:0:0:
192,96,28308,5,0,0:0:0:0:
320,96,28388,1,0,0:0:0:0:
192,96,28470,5,8,0:0:0:0:
192,96,28632,5,0,0:0:0:0:
192,96,28794,1,0,0:0:0:0:
192,96,28956,1,0,0:0:0:0:
320,96,29037,1,0,0:0:0:0:
192,96,29118,5,8,0:0:0:0:
192,96,29280,5,0,0:0:0:0:
192,96,29442,5,8,0:0:0:0:
320,96,29523,1,8,0:0:0:0:
192,96,29604,5,0,0:0:0:0:
320,96,29686,1,0,0:0:0:0:
192,96,29766,5,8,0:0:0:0:
192,96,29929,1,8,0:0:0:0:
320,96,30010,1,8,0:0:0:0:
192,96,30091,5,0,0:0:0:0:
192,96,30253,5,8,0:0:0:0:
192,96,30415,5,0,0:0:0:0:
320,96,30496,1,0,0:0:0:0:
192,96,30578,5,8,0:0:0:0:
192,96,30739,5,0,0:0:0:0:
320,96,30821,1,0,0:0:0:0:
192,96,30902,5,8,0:0:0:0:
192,96,31064,5,0,0:0:0:0:
192,96,31226,5,8,0:0:0:0:
320,96,31307,1,8,0:0:0:0:
192,96,31388,5,0,0:0:0:0:
192,96,31550,5,8,0:0:0:0:
320,96,31632,1,8,0:0:0:0:
192,96,31713,5,0,0:0:0:0:
320,96,31794,1,0,0:0:0:0:
192,96,31875,5,8,0:0:0:0:
192,96,32037,1,8,0:0:0:0:
192,96,32200,1,8,0:0:0:0:
192,96,32362,1,8,0:0:0:0:
320,96,32442,1,8,0:0:0:0:
192,96,32524,1,8,0:0:0:0:
320,96,32605,1,8,0:0:0:0:
192,96,32686,1,8,0:0:0:0:
192,96,33983,5,4,0:0:0:0:
192,96,34145,1,0,0:0:0:0:
192,96,34307,5,8,0:0:0:0:
192,96,34469,5,0,0:0:0:0:
192,96,34794,5,8,0:0:0:0:
192,96,35118,5,0,0:0:0:0:
192,96,35442,5,8,0:0:0:0:
192,96,35767,5,0,0:0:0:0:
192,96,36091,5,8,0:0:0:0:
192,96,36253,5,0,0:0:0:0:
192,96,36578,1,0,0:0:0:0:
192,96,36740,1,0,0:0:0:0:
192,96,36902,5,8,0:0:0:0:
192,96,37064,5,0,0:0:0:0:
192,96,37388,5,8,0:0:0:0:
192,96,37713,5,0,0:0:0:0:
192,96,38037,5,8,0:0:0:0:
192,96,38361,5,0,0:0:0:0:
192,96,38523,5,8,0:0:0:0:
320,96,38605,1,8,0:0:0:0:
192,96,38686,1,8,0:0:0:0:
320,96,38767,1,8,0:0:0:0:
192,96,38848,5,0,0:0:0:0:
192,96,39010,5,8,0:0:0:0:
192,96,39172,5,0,0:0:0:0:
192,96,39334,1,0,0:0:0:0:
192,96,39496,5,8,0:0:0:0:
192,96,39659,5,0,0:0:0:0:
192,96,39983,5,8,0:0:0:0:
192,96,40307,5,0,0:0:0:0:
192,96,40632,5,8,0:0:0:0:
192,96,40956,5,0,0:0:0:0:
192,96,41280,5,8,0:0:0:0:
192,96,41442,5,0,0:0:0:0:
192,96,41767,5,0,0:0:0:0:
192,96,41929,1,0,0:0:0:0:
192,96,42091,5,8,0:0:0:0:
192,96,42253,5,0,0:0:0:0:
192,96,42578,5,8,0:0:0:0:
192,96,42902,5,0,0:0:0:0:
192,96,43064,5,8,0:0:0:0:
320,96,43145,1,8,0:0:0:0:
192,96,43226,1,8,0:0:0:0:
320,96,43307,1,8,0:0:0:0:
192,96,43388,5,0,0:0:0:0:
320,96,43469,1,0,0:0:0:0:
192,96,43550,1,0,0:0:0:0:
320,96,43632,1,0,0:0:0:0:
192,96,43713,5,8,0:0:0:0:
320,96,43794,5,0,0:0:0:0:
192,96,43875,1,0,0:0:0:0:
320,96,43956,1,0,0:0:0:0:
192,96,44037,5,8,0:0:0:0:
320,96,44118,1,8,0:0:0:0:
192,96,44199,1,8,0:0:0:0:
192,96,44361,5,4,0:0:0:0:
192,96,44523,1,0,0:0:0:0:
320,96,44605,1,0,0:0:0:0:
192,96,44686,5,8,0:0:0:0:
192,96,44848,1,8,0:0:0:0:
320,96,44929,1,8,0:0:0:0:
192,96,45010,5,0,0:0:0:0:
192,96,45172,1,0,0:0:0:0:
192,96,45334,5,12,0:0:0:0:
192,96,45659,5,4,0:0:0:0:
192,96,45821,5,0,0:0:0:0:
320,96,45902,1,0,0:0:0:0:
192,96,45983,5,8,0:0:0:0:
192,96,46145,5,0,0:0:0:0:
192,96,46307,5,8,0:0:0:0:
320,96,46388,1,8,0:0:0:0:
192,96,46469,5,0,0:0:0:0:
192,96,46632,5,12,0:0:0:0:
192,96,46956,5,4,0:0:0:0:
192,96,47118,1,0,0:0:0:0:
192,96,47280,5,8,0:0:0:0:
320,96,47361,1,8,0:0:0:0:
192,96,47442,5,0,0:0:0:0:
320,96,47523,1,0,0:0:0:0:
192,96,47604,1,0,0:0:0:0:
192,96,47766,1,0,0:0:0:0:
192,96,47928,5,12,0:0:0:0:
192,96,48091,1,12,0:0:0:0:
192,96,48253,5,4,0:0:0:0:
192,96,48415,1,0,0:0:0:0:
320,96,48496,1,0,0:0:0:0:
192,96,48578,5,8,0:0:0:0:
192,96,48740,5,0,0:0:0:0:
320,96,48821,1,0,0:0:0:0:
192,96,48902,1,0,0:0:0:0:
192,96,49064,1,0,0:0:0:0:
192,96,49226,5,12,0:0:0:0:
192,96,49388,1,12,0:0:0:0:
192,96,49550,5,4,0:0:0:0:
192,96,49713,1,0,0:0:0:0:
192,96,49875,5,8,0:0:0:0:
192,96,50037,5,0,0:0:0:0:
192,96,50199,1,4,0:0:0:0:
192,96,50361,1,0,0:0:0:0:
192,96,50523,5,8,0:0:0:0:
192,96,50685,5,0,0:0:0:0:
192,96,50847,1,4,0:0:0:0:
192,96,51010,1,0,0:0:0:0:
192,96,51172,5,8,0:0:0:0:
192,96,51334,5,0,0:0:0:0:
192,96,51496,1,4,0:0:0:0:
192,96,51658,1,0,0:0:0:0:
192,96,51821,5,8,0:0:0:0:
192,96,51983,5,0,0:0:0:0:
192,96,52145,1,0,0:0:0:0:
320,96,52226,1,0,0:0:0:0:
192,96,52307,1,0,0:0:0:0:
320,96,52388,1,0,0:0:0:0:
192,96,52469,5,8,0:0:0:0:
320,96,52550,5,0,0:0:0:0:
192,96,52632,1,0,0:0:0:0:
320,96,52713,1,0,0:0:0:0:
192,96,52794,5,8,0:0:0:0:
320,96,52875,5,0,0:0:0:0:
192,96,52956,1,0,0:0:0:0:
320,96,53037,1,0,0:0:0:0:
192,96,53118,5,8,0:0:0:0:
320,96,53199,5,0,0:0:0:0:
192,96,53280,1,0,0:0:0:0:
320,96,53361,1,0,0:0:0:0:
192,96,53442,5,8,0:0:0:0:
320,96,53523,1,8,0:0:0:0:
192,96,53605,5,0,0:0:0:0:
320,96,53685,1,0,0:0:0:0:
192,96,53767,5,8,0:0:0:0:
320,96,53848,1,8,0:0:0:0:
192,96,53929,5,0,0:0:0:0:
320,96,54010,1,0,0:0:0:0:
192,96,54091,5,8,0:0:0:0:
320,96,54172,1,8,0:0:0:0:
192,96,54253,5,0,0:0:0:0:
320,96,54334,1,0,0:0:0:0:
192,96,54415,5,8,0:0:0:0:
320,96,54496,1,8,0:0:0:0:
192,96,54578,1,8,0:0:0:0:
320,96,54659,1,8,0:0:0:0:
192,96,54740,5,0,0:0:0:0:
192,96,56037,1,0,0:0:0:0:
256,96,56091,1,0,0:0:0:0:
256,96,56145,1,0,0:0:0:0:
192,96,56199,1,0,0:0:0:0:
192,96,56361,5,12,0:0:0:0:
192,96,56686,1,12,0:0:0:0:
192,96,57010,1,12,0:0:0:0:
192,96,57172,5,0,0:0:0:0:
192,96,57334,1,4,0:0:0:0:
192,96,57496,1,0,0:0:0:0:
192,96,57659,5,8,0:0:0:0:
192,96,57821,1,8,0:0:0:0:
320,96,57902,1,8,0:0:0:0:
192,96,57983,5,0,0:0:0:0:
192,96,58145,5,8,0:0:0:0:
320,96,58226,1,8,0:0:0:0:
192,96,58307,5,0,0:0:0:0:
320,96,58388,1,0,0:0:0:0:
192,96,58469,5,8,0:0:0:0:
192,96,58632,5,0,0:0:0:0:
192,96,58794,5,8,0:0:0:0:
320,96,58875,1,8,0:0:0:0:
192,96,58956,1,8,0:0:0:0:
192,96,59118,5,0,0:0:0:0:
320,96,59199,5,8,0:0:0:0:
192,96,59280,5,0,0:0:0:0:
320,96,59361,1,0,0:0:0:0:
192,96,59442,5,8,0:0:0:0:
192,96,59605,5,0,0:0:0:0:
192,96,59767,5,8,0:0:0:0:
320,96,59848,1,8,0:0:0:0:
192,96,59929,5,0,0:0:0:0:
320,96,60010,1,0,0:0:0:0:
192,96,60091,1,0,0:0:0:0:
192,96,60253,5,8,0:0:0:0:
192,96,60415,5,0,0:0:0:0:
320,96,60496,1,0,0:0:0:0:
192,96,60578,5,8,0:0:0:0:
320,96,60659,1,8,0:0:0:0:
192,96,60740,1,8,0:0:0:0:
192,96,60902,5,0,0:0:0:0:
192,96,61064,5,8,0:0:0:0:
320,96,61145,1,8,0:0:0:0:
192,96,61226,5,0,0:0:0:0:
320,96,61307,1,0,0:0:0:0:
192,96,61388,1,0,0:0:0:0:
192,96,61550,5,8,0:0:0:0:
192,96,61713,5,0,0:0:0:0:
320,96,61794,1,0,0:0:0:0:
192,96,61875,1,0,0:0:0:0:
192,96,62037,5,8,0:0:0:0:
320,96,62118,1,8,0:0:0:0:
192,96,62199,5,0,0:0:0:0:
320,96,62280,1,0,0:0:0:0:
192,96,62361,5,8,0:0:0:0:
192,96,62523,5,0,0:0:0:0:
192,96,62686,1,0,0:0:0:0:
320,96,62767,5,8,0:0:0:0:
192,96,62848,5,0,0:0:0:0:
320,96,62929,1,0,0:0:0:0:
192,96,63010,5,8,0:0:0:0:
192,96,63172,5,0,0:0:0:0:
192,96,63334,5,8,0:0:0:0:
320,96,63415,1,8,0:0:0:0:
192,96,63496,5,0,0:0:0:0:
320,96,63578,1,0,0:0:0:0:
192,96,63659,5,8,0:0:0:0:
192,96,63821,5,0,0:0:0:0:
320,96,63902,1,0,0:0:0:0:
192,96,63983,1,0,0:0:0:0:
320,96,64064,1,0,0:0:0:0:
192,96,64145,5,8,0:0:0:0:
192,96,64307,5,0,0:0:0:0:
192,96,64469,5,8,0:0:0:0:
320,96,64550,1,8,0:0:0:0:
192,96,64632,5,0,0:0:0:0:
320,96,64713,1,0,0:0:0:0:
192,96,64794,5,8,0:0:0:0:
192,96,64956,5,0,0:0:0:0:
320,96,65037,1,0,0:0:0:0:
192,96,65118,1,0,0:0:0:0:
192,96,65280,1,0,0:0:0:0:
192,96,65442,5,8,0:0:0:0:
192,96,65605,5,0,0:0:0:0:
320,96,65686,1,0,0:0:0:0:
192,96,65767,5,8,0:0:0:0:
192,96,65929,5,0,0:0:0:0:
192,96,66091,5,8,0:0:0:0:
320,96,66172,1,8,0:0:0:0:
192,96,66253,1,8,0:0:0:0:
192,96,66415,5,0,0:0:0:0:
192,96,66578,1,0,0:0:0:0:
256,96,66632,1,0,0:0:0:0:
256,96,66686,1,0,0:0:0:0:
192,96,66740,5,8,0:0:0:0:
192,96,66902,5,0,0:0:0:0:
192,96,67064,1,0,0:0:0:0:
320,96,67145,1,0,0:0:0:0:
192,96,67226,1,0,0:0:0:0:
320,96,67307,1,0,0:0:0:0:
192,96,67388,5,8,0:0:0:0:
320,96,67469,1,8,0:0:0:0:
192,96,67550,1,8,0:0:0:0:
192,96,67713,5,4,0:0:0:0:
192,96,67875,1,0,0:0:0:0:
192,96,68037,5,8,0:0:0:0:
192,96,68199,1,8,0:0:0:0:
320,96,68280,1,8,0:0:0:0:
192,96,68361,5,0,0:0:0:0:
192,96,68523,5,8,0:0:0:0:
320,96,68605,1,8,0:0:0:0:
192,96,68686,5,0,0:0:0:0:
320,96,68767,1,0,0:0:0:0:
192,96,68848,5,8,0:0:0:0:
192,96,69010,5,0,0:0:0:0:
320,96,69091,1,0,0:0:0:0:
192,96,69172,1,0,0:0:0:0:
192,96,69334,5,8,0:0:0:0:
192,96,69496,5,0,0:0:0:0:
320,96,69578,5,8,0:0:0:0:
192,96,69659,5,0,0:0:0:0:
192,96,69821,5,8,0:0:0:0:
192,96,69983,5,0,0:0:0:0:
320,96,70064,1,0,0:0:0:0:
192,96,70145,5,8,0:0:0:0:
320,96,70226,1,8,0:0:0:0:
192,96,70307,5,0,0:0:0:0:
192,96,70469,5,8,0:0:0:0:
320,96,70550,1,8,0:0:0:0:
192,96,70632,1,8,0:0:0:0:
192,96,70794,5,0,0:0:0:0:
192,96,70956,5,8,0:0:0:0:
320,96,71037,1,8,0:0:0:0:
192,96,71118,1,8,0:0:0:0:
192,96,71280,5,0,0:0:0:0:
192,96,71442,5,8,0:0:0:0:
320,96,71523,1,8,0:0:0:0:
192,96,71605,5,0,0:0:0:0:
192,96,71767,1,0,0:0:0:0:
192,96,71929,5,8,0:0:0:0:
192,96,72091,5,0,0:0:0:0:
320,96,72172,5,8,0:0:0:0:
192,96,72253,5,0,0:0:0:0:
320,96,72334,1,0,0:0:0:0:
192,96,72415,5,8,0:0:0:0:
192,96,72578,5,0,0:0:0:0:
192,96,72740,5,8,0:0:0:0:
320,96,72821,1,8,0:0:0:0:
192,96,72902,5,0,0:0:0:0:
192,96,73064,1,0,0:0:0:0:
192,96,73226,5,8,0:0:0:0:
320,96,73307,1,8,0:0:0:0:
192,96,73388,5,0,0:0:0:0:
320,96,73469,1,0,0:0:0:0:
192,96,73550,5,8,0:0:0:0:
192,96,73713,5,0,0:0:0:0:
320,96,73794,1,0,0:0:0:0:
192,96,73875,5,8,0:0:0:0:
320,96,73956,1,8,0:0:0:0:
192,96,74037,1,8,0:0:0:0:
192,96,74199,5,0,0:0:0:0:
192,96,74361,5,8,0:0:0:0:
192,96,74523,5,0,0:0:0:0:
320,96,74605,1,0,0:0:0:0:
192,96,74686,5,8,0:0:0:0:
192,96,74848,5,0,0:0:0:0:
192,96,75010,5,8,0:0:0:0:
320,96,75091,1,8,0:0:0:0:
192,96,75172,5,0,0:0:0:0:
320,96,75253,1,0,0:0:0:0:
192,96,75334,5,8,0:0:0:0:
192,96,75496,5,0,0:0:0:0:
320,96,75578,1,0,0:0:0:0:
192,96,75659,1,0,0:0:0:0:
320,96,75740,1,0,0:0:0:0:
192,96,75821,5,8,0:0:0:0:
192,96,75983,5,0,0:0:0:0:
320,96,76064,1,0,0:0:0:0:
192,96,76145,5,8,0:0:0:0:
192,96,76307,5,0,0:0:0:0:
192,96,76469,5,8,0:0:0:0:
320,96,76550,1,8,0:0:0:0:
192,96,76632,5,0,0:0:0:0:
192,96,76794,5,12,0:0:0:0:
192,96,77118,1,12,0:0:0:0:
192,96,77442,1,12,0:0:0:0:
192,96,77767,1,12,0:0:0:0:
192,96,78091,1,8,0:0:0:0:
320,96,78172,1,8,0:0:0:0:
192,96,78253,5,0,0:0:0:0:
320,96,78334,5,8,0:0:0:0:
192,96,78415,5,0,0:0:0:0:
320,96,78496,1,0,0:0:0:0:
192,96,78578,5,8,0:0:0:0:
320,96,78659,1,8,0:0:0:0:
192,96,78740,5,0,0:0:0:0:
192,96,78902,1,0,0:0:0:0:
192,96,79064,5,8,0:0:0:0:
192,96,79226,5,0,0:0:0:0:
192,96,79388,1,0,0:0:0:0:
320,96,79469,1,0,0:0:0:0:
192,96,79550,5,8,0:0:0:0:
320,96,79632,5,0,0:0:0:0:
192,96,79713,5,8,0:0:0:0:
320,96,79794,1,8,0:0:0:0:
192,96,79875,5,0,0:0:0:0:
320,96,79956,5,8,0:0:0:0:
192,96,80037,5,0,0:0:0:0:
320,96,80118,1,0,0:0:0:0:
192,96,80199,5,8,0:0:0:0:
320,96,80280,5,0,0:0:0:0:
192,96,80361,5,8,0:0:0:0:
320,96,80442,1,8,0:0:0:0:
192,96,80523,5,0,0:0:0:0:
320,96,80605,1,0,0:0:0:0:
192,96,80686,5,8,0:0:0:0:
192,96,80848,5,0,0:0:0:0:
320,96,80929,5,8,0:0:0:0:
192,96,81010,5,0,0:0:0:0:
320,96,81091,1,0,0:0:0:0:
192,96,81172,5,8,0:0:0:0:
320,96,81253,1,8,0:0:0:0:
192,96,81334,5,0,0:0:0:0:
192,96,81496,1,0,0:0:0:0:
192,96,81659,5,8,0:0:0:0:
192,96,81821,5,0,0:0:0:0:
192,96,81983,1,0,0:0:0:0:
320,96,82064,1,0,0:0:0:0:
192,96,82145,5,8,0:0:0:0:
320,96,82226,1,8,0:0:0:0:
192,96,82307,5,0,0:0:0:0:
320,96,82388,5,8,0:0:0:0:
192,96,82469,5,0,0:0:0:0:
320,96,82550,1,0,0:0:0:0:
192,96,82632,5,8,0:0:0:0:
320,96,82713,1,8,0:0:0:0:
192,96,82794,5,0,0:0:0:0:
320,96,82875,5,8,0:0:0:0:
192,96,82956,5,0,0:0:0:0:
192,96,83118,5,8,0:0:0:0:
192,96,83280,5,4,0:0:0:0:
192,96,83442,1,0,0:0:0:0:
320,96,83523,1,0,0:0:0:0:
192,96,83605,5,8,0:0:0:0:
320,96,83686,5,0,0:0:0:0:
192,96,83767,5,8,0:0:0:0:
320,96,83848,1,8,0:0:0:0:
192,96,83929,5,0,0:0:0:0:
192,96,84091,1,0,0:0:0:0:
192,96,84253,5,8,0:0:0:0:
192,96,84415,5,0,0:0:0:0:
192,96,84578,1,0,0:0:0:0:
320,96,84659,1,0,0:0:0:0:
192,96,84740,5,8,0:0:0:0:
320,96,84821,1,8,0:0:0:0:
192,96,84902,5,0,0:0:0:0:
320,96,84983,5,8,0:0:0:0:
192,96,85064,5,0,0:0:0:0:
320,96,85145,5,8,0:0:0:0:
192,96,85226,5,0,0:0:0:0:
320,96,85307,1,0,0:0:0:0:
192,96,85388,5,8,0:0:0:0:
320,96,85469,5,0,0:0:0:0:
192,96,85550,5,8,0:0:0:0:
320,96,85632,1,8,0:0:0:0:
192,96,85713,5,0,0:0:0:0:
320,96,85794,1,0,0:0:0:0:
192,96,85875,1,0,0:0:0:0:
192,96,86037,1,0,0:0:0:0:
192,96,86361,1,0,0:0:0:0:
192,96,86523,5,8,0:0:0:0:
192,96,86686,5,0,0:0:0:0:
192,96,87010,1,0,0:0:0:0:
192,96,87172,1,0,0:0:0:0:
320,96,87253,1,0,0:0:0:0:
192,96,87334,5,8,0:0:0:0:
320,96,87415,1,8,0:0:0:0:
192,96,87496,5,0,0:0:0:0:
320,96,87578,1,0,0:0:0:0:
192,96,87659,5,8,0:0:0:0:
320,96,87740,1,8,0:0:0:0:
192,96,87821,5,0,0:0:0:0:
320,96,87902,5,8,0:0:0:0:
192,96,87983,5,0,0:0:0:0:
320,96,88064,1,0,0:0:0:0:
192,96,88145,5,8,0:0:0:0:
320,96,88226,5,0,0:0:0:0:
192,96,88307,1,0,0:0:0:0:
256,96,88361,1,0,0:0:0:0:
256,96,88415,1,0,0:0:0:0:
192,96,88469,5,8,0:0:0:0:
192,96,93659,5,4,0:0:0:0:
192,96,93821,1,0,0:0:0:0:
192,96,93983,5,8,0:0:0:0:
320,96,94064,1,8,0:0:0:0:
320,96,94226,5,0,0:0:0:0:
320,96,94388,5,8,0:0:0:0:
192,96,94469,5,0,0:0:0:0:
192,96,94632,5,12,0:0:0:0:
192,96,94956,5,4,0:0:0:0:
192,96,95118,1,0,0:0:0:0:
192,96,95280,5,8,0:0:0:0:
320,96,95361,1,8,0:0:0:0:
320,96,95523,5,0,0:0:0:0:
320,96,95686,5,8,0:0:0:0:
192,96,95767,5,0,0:0:0:0:
192,96,95929,5,12,0:0:0:0:
192,96,96091,1,12,0:0:0:0:
192,96,96253,5,4,0:0:0:0:
192,96,96578,5,8,0:0:0:0:
192,96,96740,5,0,0:0:0:0:
192,96,96902,1,4,0:0:0:0:
192,96,97064,1,0,0:0:0:0:
192,96,97226,5,8,0:0:0:0:
192,96,97388,5,0,0:0:0:0:
192,96,97550,1,4,0:0:0:0:
192,96,97713,1,0,0:0:0:0:
192,96,97875,5,8,0:0:0:0:
320,96,97956,1,8,0:0:0:0:
192,96,98037,1,8,0:0:0:0:
320,96,98118,1,8,0:0:0:0:
192,96,98199,5,0,0:0:0:0:
320,96,98280,1,0,0:0:0:0:
192,96,98361,5,8,0:0:0:0:
320,96,98442,1,8,0:0:0:0:
192,96,98523,5,0,0:0:0:0:
320,96,98605,1,0,0:0:0:0:
192,96,98686,5,8,0:0:0:0:
192,96,98848,5,4,0:0:0:0:
192,96,99010,1,4,0:0:0:0:
192,96,99172,5,12,0:0:0:0:
192,96,99496,5,0,0:0:0:0:
320,96,99578,1,0,0:0:0:0:
192,96,99659,1,0,0:0:0:0:
192,96,99821,5,8,0:0:0:0:
192,96,100145,5,0,0:0:0:0:
320,96,100226,1,0,0:0:0:0:
192,96,100307,1,0,0:0:0:0:
320,96,100388,1,0,0:0:0:0:
192,96,100469,5,8,0:0:0:0:
320,96,100550,5,0,0:0:0:0:
192,96,100632,1,0,0:0:0:0:
320,96,100713,1,0,0:0:0:0:
192,96,100794,5,8,0:0:0:0:
192,96,101118,1,12,0:0:0:0:
192,96,101442,5,4,0:0:0:0:
192,96,101605,1,0,0:0:0:0:
192,96,101767,5,8,0:0:0:0:
320,96,101848,1,8,0:0:0:0:
192,96,101929,1,8,0:0:0:0:
192,96,102091,5,0,0:0:0:0:
192,96,102253,5,8,0:0:0:0:
320,96,102334,1,8,0:0:0:0:
192,96,102415,5,0,0:0:0:0:
192,96,102578,5,8,0:0:0:0:
192,96,102740,5,0,0:0:0:0:
320,96,102821,1,0,0:0:0:0:
192,96,102902,1,0,0:0:0:0:
320,96,102983,1,0,0:0:0:0:
192,96,103064,5,8,0:0:0:0:
192,96,103226,5,0,0:0:0:0:
192,96,103388,5,8,0:0:0:0:
320,96,103469,1,8,0:0:0:0:
192,96,103550,5,0,0:0:0:0:
320,96,103632,1,0,0:0:0:0:
192,96,103713,5,8,0:0:0:0:
192,96,103875,1,8,0:0:0:0:
320,96,103956,1,8,0:0:0:0:
192,96,104037,5,0,0:0:0:0:
192,96,104199,5,8,0:0:0:0:
320,96,104280,1,8,0:0:0:0:
192,96,104361,1,8,0:0:0:0:
192,96,104523,5,0,0:0:0:0:
192,96,104686,5,8,0:0:0:0:
320,96,104767,1,8,0:0:0:0:
192,96,104848,1,8,0:0:0:0:
192,96,105010,5,0,0:0:0:0:
192,96,105172,5,8,0:0:0:0:
320,96,105253,1,8,0:0:0:0:
192,96,105334,5,0,0:0:0:0:
320,96,105415,1,0,0:0:0:0:
192,96,105496,1,0,0:0:0:0:
192,96,105659,5,8,0:0:0:0:
192,96,105821,5,0,0:0:0:0:
192,96,105983,5,8,0:0:0:0:
320,96,106064,1,8,0:0:0:0:
192,96,106145,5,0,0:0:0:0:
320,96,106226,1,0,0:0:0:0:
192,96,106307,5,8,0:0:0:0:
320,96,106388,1,8,0:0:0:0:
192,96,106469,1,8,0:0:0:0:
192,96,106632,5,0,0:0:0:0:
192,96,106794,1,0,0:0:0:0:
320,96,106875,1,0,0:0:0:0:
192,96,106956,5,8,0:0:0:0:
192,96,107118,1,8,0:0:0:0:
192,96,107280,5,0,0:0:0:0:
192,96,107442,5,8,0:0:0:0:
320,96,107523,1,8,0:0:0:0:
192,96,107605,5,0,0:0:0:0:
320,96,107686,1,0,0:0:0:0:
192,96,107767,5,8,0:0:0:0:
192,96,107929,5,0,0:0:0:0:
320,96,108010,1,0,0:0:0:0:
192,96,108091,1,0,0:0:0:0:
320,96,108172,1,0,0:0:0:0:
192,96,108253,5,8,0:0:0:0:
192,96,108415,5,0,0:0:0:0:
192,96,108578,5,8,0:0:0:0:
320,96,108659,1,8,0:0:0:0:
192,96,108740,5,0,0:0:0:0:
320,96,108821,1,0,0:0:0:0:
192,96,108902,5,8,0:0:0:0:
192,96,109064,1,8,0:0:0:0:
320,96,109145,1,8,0:0:0:0:
192,96,109226,5,0,0:0:0:0:
320,96,109307,1,0,0:0:0:0:
192,96,109388,1,0,0:0:0:0:
192,96,109550,5,8,0:0:0:0:
192,96,109713,5,0,0:0:0:0:
320,96,109794,5,8,0:0:0:0:
192,96,109875,5,0,0:0:0:0:
192,96,110037,1,0,0:0:0:0:
320,96,110118,1,0,0:0:0:0:
192,96,110199,5,8,0:0:0:0:
192,96,110361,5,0,0:0:0:0:
192,96,110523,1,0,0:0:0:0:
320,96,110605,5,8,0:0:0:0:
192,96,110686,5,0,0:0:0:0:
320,96,110767,1,0,0:0:0:0:
192,96,110848,5,8,0:0:0:0:
192,96,111010,5,0,0:0:0:0:
192,96,111172,5,8,0:0:0:0:
320,96,111253,1,8,0:0:0:0:
192,96,111334,5,0,0:0:0:0:
320,96,111415,1,0,0:0:0:0:
192,96,111496,5,8,0:0:0:0:
320,96,111578,1,8,0:0:0:0:
192,96,111659,1,8,0:0:0:0:
192,96,111821,5,4,0:0:0:0:
192,96,111983,1,0,0:0:0:0:
192,96,112145,5,8,0:0:0:0:
320,96,112226,1,8,0:0:0:0:
192,96,112307,1,8,0:0:0:0:
192,96,112469,5,0,0:0:0:0:
192,96,112632,5,8,0:0:0:0:
320,96,112713,1,8,0:0:0:0:
192,96,112794,5,0,0:0:0:0:
192,96,112956,5,8,0:0:0:0:
192,96,113118,5,0,0:0:0:0:
320,96,113199,1,0,0:0:0:0:
192,96,113280,1,0,0:0:0:0:
192,96,113442,5,8,0:0:0:0:
192,96,113605,5,0,0:0:0:0:
320,96,113686,5,8,0:0:0:0:
192,96,113767,5,0,0:0:0:0:
320,96,113848,1,0,0:0:0:0:
192,96,113929,5,8,0:0:0:0:
192,96,114091,5,0,0:0:0:0:
192,96,114253,5,8,0:0:0:0:
192,96,114415,5,0,0:0:0:0:
320,96,114496,1,0,0:0:0:0:
192,96,114578,1,0,0:0:0:0:
320,96,114659,1,0,0:0:0:0:
192,96,114740,5,8,0:0:0:0:
192,96,114902,1,8,0:0:0:0:
320,96,114983,1,8,0:0:0:0:
192,96,115064,5,0,0:0:0:0:
320,96,115145,1,0,0:0:0:0:
192,96,115226,5,8,0:0:0:0:
320,96,115307,1,8,0:0:0:0:
192,96,115388,5,0,0:0:0:0:
192,96,115550,5,8,0:0:0:0:
192,96,115713,5,0,0:0:0:0:
320,96,115794,1,0,0:0:0:0:
192,96,115875,1,0,0:0:0:0:
192,96,116037,5,8,0:0:0:0:
192,96,116199,5,0,0:0:0:0:
320,96,116280,5,8,0:0:0:0:
192,96,116361,5,0,0:0:0:0:
320,96,116442,1,0,0:0:0:0:
192,96,116523,5,8,0:0:0:0:
192,96,116686,5,0,0:0:0:0:
192,96,116848,5,8,0:0:0:0:
320,96,116929,1,8,0:0:0:0:
192,96,117010,5,0,0:0:0:0:
320,96,117091,1,0,0:0:0:0:
192,96,117172,1,0,0:0:0:0:
192,96,117334,5,8,0:0:0:0:
192,96,117496,5,0,0:0:0:0:
192,96,117659,5,8,0:0:0:0:
320,96,117740,1,8,0:0:0:0:
192,96,117821,5,0,0:0:0:0:
320,96,117902,1,0,0:0:0:0:
192,96,117983,5,8,0:0:0:0:
320,96,118064,1,8,0:0:0:0:
192,96,118145,5,0,0:0:0:0:
320,96,118226,1,0,0:0:0:0:
192,96,118307,1,0,0:0:0:0:
192,96,118469,1,0,0:0:0:0:
192,96,118632,5,8,0:0:0:0:
192,96,118794,5,0,0:0:0:0:
192,96,118956,5,8,0:0:0:0:
320,96,119037,1,8,0:0:0:0:
192,96,119118,1,8,0:0:0:0:
320,96,119199,1,8,0:0:0:0:
192,96,119280,5,0,0:0:0:0:
320,96,119361,1,0,0:0:0:0:
192,96,119442,1,0,0:0:0:0:
192,96,119605,5,12,0:0:0:0:
192,96,119767,5,0,0:0:0:0:
320,96,119848,1,0,0:0:0:0:
192,96,119929,1,0,0:0:0:0:
192,96,120091,1,0,0:0:0:0:
192,96,120253,5,12,0:0:0:0:
192,96,120415,1,12,0:0:0:0:
192,96,120578,5,4,0:0:0:0:
192,96,120740,5,8,0:0:0:0:
192,96,120902,5,0,0:0:0:0:
320,96,120983,1,0,0:0:0:0:
192,96,121064,1,0,0:0:0:0:
320,96,121145,1,0,0:0:0:0:
192,96,121226,5,8,0:0:0:0:
320,96,121307,5,0,0:0:0:0:
192,96,121388,1,0,0:0:0:0:
320,96,121469,1,0,0:0:0:0:
192,96,121550,5,8,0:0:0:0:
320,96,121631,1,8,0:0:0:0:
192,96,121713,1,8,0:0:0:0:
320,96,121794,1,8,0:0:0:0:
192,96,121875,5,0,0:0:0:0:
320,96,121956,1,0,0:0:0:0:
192,96,122037,1,0,0:0:0:0:
192,96,122199,5,12,0:0:0:0:
