osu file format v13

[General]
AudioFilename: Ryu - We're so Happy.mp3
AudioLeadIn: 0
PreviewTime: 57334
Countdown: 0
SampleSet: Normal
StackLeniency: 0.7
Mode: 1
LetterboxInBreaks: 0
WidescreenStoryboard: 0

[Editor]
DistanceSpacing: 2
BeatDivisor: 4
GridSize: 8
TimelineZoom: 2.3

[Metadata]
Title:We're so Happy
TitleUnicode:We're so Happy
Artist:Ryu*
ArtistUnicode:Ryu☆
Creator:Spy
Version:QuanTUM's Muzukashii
Source:jubeat saucer
Tags:plus ミライダガッキ FutureTomTom Ver.2 BEMANI KONAMI Mayumi Morinaga senya 森永真由美 moimoi QuanTUM richardfeder Simple_Star mingmichael Kuo Kyoka qoot8123
BeatmapID:311074
BeatmapSetID:120838

[Difficulty]
HPDrainRate:5
CircleSize:5
OverallDifficulty:4
ApproachRate:5
SliderMultiplier:1.4
SliderTickRate:1

[Events]
//Background and Video events
0,0,"BG.jpg",0,100
//Break Periods
2,88669,92459
//Storyboard Layer 0 (Background)
//Storyboard Layer 1 (Fail)
//Storyboard Layer 2 (Pass)
//Storyboard Layer 3 (Foreground)
//Storyboard Sound Samples
//Background Colour Transformations
3,100,163,162,255

[TimingPoints]
1551,324.324324324324,4,1,0,90,1,0
6740,-100,4,1,0,95,0,0
9334,-100,4,1,0,90,0,0
10632,-100,4,1,0,85,0,0
11929,-100,4,1,0,80,0,0
13226,-100,4,1,0,100,0,0
33983,-100,4,1,0,90,0,0
38523,-100,4,1,0,80,0,0
38848,-100,4,1,0,85,0,0
39172,-100,4,1,0,90,0,0
43064,-100,4,1,0,80,0,0
43388,-100,4,1,0,82,0,0
43713,-100,4,1,0,85,0,0
44037,-100,4,1,0,87,0,0
44361,-100,4,1,0,90,0,0
52145,-100,4,1,0,80,0,0
52794,-100,4,1,0,85,0,0
53442,-100,4,1,0,90,0,0
54091,-100,4,1,0,95,0,0
54415,-100,4,1,0,90,0,0
57010,-100,4,1,0,95,0,0
57334,-100,4,1,0,100,0,0
78091,-100,4,1,0,100,0,1
88469,-100,4,1,0,100,0,0
88632,-100,4,1,0,90,0,0
97875,-100,4,1,0,93,0,0
98199,-100,4,1,0,95,0,0
98523,-100,4,1,0,97,0,0
98848,-100,4,1,0,90,0,0
101118,-100,4,1,0,95,0,0
101442,-100,4,1,0,100,0,1
121875,-100,4,1,0,95,0,1
122199,-100,4,1,0,90,0,0

[Colours]
Combo1 : 18,124,255
Combo2 : 255,0,0

[HitObjects]
256,192,1551,5,0,0:0:0:0:
256,192,1713,1,8,0:0:0:0:
256,192,1875,1,8,0:0:0:0:
256,192,2037,1,0,0:0:0:0:
256,192,2361,1,0,0:0:0:0:
256,192,2523,1,8,0:0:0:0:
248,192,2848,1,8,0:0:0:0:
248,192,3010,1,8,0:0:0:0:
248,192,3172,1,8,0:0:0:0:
248,192,3334,1,0,0:0:0:0:
256,192,3659,1,0,0:0:0:0:
256,192,3821,1,8,0:0:0:0:
256,192,4145,1,8,0:0:0:0:
256,192,4307,1,8,0:0:0:0:
256,192,4469,1,8,0:0:0:0:
256,192,4632,1,0,0:0:0:0:
256,192,4956,1,0,0:0:0:0:
256,192,5118,1,8,0:0:0:0:
288,192,5442,1,8,0:0:0:0:
288,192,5605,1,8,0:0:0:0:
288,192,5767,1,0,0:0:0:0:
288,192,5929,1,0,0:0:0:0:
288,192,6253,1,8,0:0:0:0:
288,192,6415,1,0,0:0:0:0:
296,184,6740,5,0,0:0:0:0:
296,184,6902,1,8,0:0:0:0:
296,184,7064,1,8,0:0:0:0:
296,184,7226,1,0,0:0:0:0:
288,192,7550,1,0,0:0:0:0:
288,192,7713,1,8,0:0:0:0:
288,192,8037,1,8,0:0:0:0:
288,192,8199,1,8,0:0:0:0:
288,192,8361,1,8,0:0:0:0:
288,192,8523,1,0,0:0:0:0:
288,192,8848,1,0,0:0:0:0:
288,192,9010,1,8,0:0:0:0:
288,192,9334,1,8,0:0:0:0:
288,192,9496,1,8,0:0:0:0:
288,192,9659,1,0,0:0:0:0:
288,192,9821,1,0,0:0:0:0:
288,192,10145,1,0,0:0:0:0:
288,192,10307,1,8,0:0:0:0:
288,192,10632,1,8,0:0:0:0:
288,192,10794,1,8,0:0:0:0:
288,192,10956,1,8,0:0:0:0:
288,192,11118,1,0,0:0:0:0:
288,192,11442,1,8,0:0:0:0:
288,192,11605,1,0,0:0:0:0:
288,192,11767,1,8,0:0:0:0:
256,192,11929,12,0,12902,0:0:0:0:
248,192,13226,5,4,0:0:0:0:
248,192,13388,1,0,0:0:0:0:
248,192,13550,1,8,0:0:0:0:
248,192,13875,1,0,0:0:0:0:
248,192,14037,1,0,0:0:0:0:
248,192,14199,1,8,0:0:0:0:
248,192,14523,1,0,0:0:0:0:
248,192,14686,1,0,0:0:0:0:
248,192,14848,1,8,0:0:0:0:
248,192,15010,1,0,0:0:0:0:
248,192,15172,1,0,0:0:0:0:
248,192,15334,1,0,0:0:0:0:
248,192,15496,1,8,0:0:0:0:
248,192,15821,1,0,0:0:0:0:
248,192,15983,1,0,0:0:0:0:
248,192,16145,1,8,0:0:0:0:
248,192,16469,1,0,0:0:0:0:
248,192,16632,1,0,0:0:0:0:
248,192,16794,1,8,0:0:0:0:
248,192,17118,1,0,0:0:0:0:
248,192,17280,1,8,0:0:0:0:
248,192,17442,1,0,0:0:0:0:
248,192,17605,1,8,0:0:0:0:
248,192,17767,1,0,0:0:0:0:
248,192,17929,1,0,0:0:0:0:
248,192,18091,1,8,0:0:0:0:
248,192,18415,1,8,0:0:0:0:
248,192,18578,1,0,0:0:0:0:
248,192,18740,1,8,0:0:0:0:
248,192,19064,1,8,0:0:0:0:
248,192,19226,1,0,0:0:0:0:
248,192,19388,1,8,0:0:0:0:
248,192,19713,1,8,0:0:0:0:
248,192,19875,1,0,0:0:0:0:
248,192,20037,1,0,0:0:0:0:
248,192,20199,1,0,0:0:0:0:
248,192,20361,1,8,0:0:0:0:
248,192,20523,1,0,0:0:0:0:
248,192,20686,1,8,0:0:0:0:
248,192,21010,1,8,0:0:0:0:
248,192,21172,1,0,0:0:0:0:
248,192,21334,1,8,0:0:0:0:
248,192,21659,1,8,0:0:0:0:
248,192,21821,1,0,0:0:0:0:
248,192,21983,1,8,0:0:0:0:
248,192,22307,1,8,0:0:0:0:
248,192,22469,1,8,0:0:0:0:
248,192,22632,1,8,0:0:0:0:
248,192,22794,1,0,0:0:0:0:
248,192,23118,1,0,0:0:0:0:
248,192,23280,1,8,0:0:0:0:
248,192,23605,1,4,0:0:0:0:
248,192,23767,1,8,0:0:0:0:
248,192,23929,1,0,0:0:0:0:
248,192,24253,1,0,0:0:0:0:
248,192,24415,1,8,0:0:0:0:
248,192,24578,1,0,0:0:0:0:
248,192,24902,1,0,0:0:0:0:
248,192,25064,1,8,0:0:0:0:
248,192,25226,1,8,0:0:0:0:
248,192,25388,1,8,0:0:0:0:
248,192,25550,1,0,0:0:0:0:
248,192,25713,1,8,0:0:0:0:
248,192,25875,1,0,0:0:0:0:
248,192,26199,1,0,0:0:0:0:
248,192,26361,1,8,0:0:0:0:
248,192,26523,1,0,0:0:0:0:
248,192,26848,1,0,0:0:0:0:
248,192,27010,1,8,0:0:0:0:
248,192,27172,1,0,0:0:0:0:
248,192,27496,1,0,0:0:0:0:
248,192,27659,1,8,0:0:0:0:
248,192,27821,1,8,0:0:0:0:
248,192,27983,1,0,0:0:0:0:
248,192,28145,1,0,0:0:0:0:
248,192,28307,1,8,0:0:0:0:
248,192,28469,1,0,0:0:0:0:
248,192,28794,1,8,0:0:0:0:
248,192,28956,1,8,0:0:0:0:
248,192,29118,1,0,0:0:0:0:
248,192,29442,1,8,0:0:0:0:
248,192,29605,1,8,0:0:0:0:
248,192,29767,1,0,0:0:0:0:
248,192,30091,1,8,0:0:0:0:
248,192,30253,1,8,0:0:0:0:
248,192,30415,1,0,0:0:0:0:
248,192,30578,1,8,0:0:0:0:
248,192,30902,1,8,0:0:0:0:
248,192,31064,1,0,0:0:0:0:
272,176,31226,1,8,0:0:0:0:
272,176,31550,1,8,0:0:0:0:
272,176,31713,1,0,0:0:0:0:
272,176,31875,1,8,0:0:0:0:
272,176,32037,1,8,0:0:0:0:
272,176,32199,1,8,0:0:0:0:
272,176,32361,1,8,0:0:0:0:
272,176,32523,1,8,0:0:0:0:
56,80,32686,2,0,L|480:80,1,420
256,176,33983,1,12,0:0:0:0:
256,176,34145,1,0,0:0:0:0:
256,176,34307,1,0,0:0:0:0:
256,176,34469,1,8,0:0:0:0:
280,192,34794,1,8,0:0:0:0:
280,192,35118,1,0,0:0:0:0:
256,176,35767,1,0,0:0:0:0:
280,192,36091,1,8,0:0:0:0:
280,192,36253,1,0,0:0:0:0:
280,192,36578,1,8,0:0:0:0:
256,176,36740,1,0,0:0:0:0:
256,176,36902,1,0,0:0:0:0:
256,176,37064,1,8,0:0:0:0:
280,192,37388,1,8,0:0:0:0:
280,192,37713,1,0,0:0:0:0:
256,176,38361,1,0,0:0:0:0:
280,192,38686,1,8,0:0:0:0:
280,192,38848,1,0,0:0:0:0:
280,192,39172,1,8,0:0:0:0:
280,192,39334,1,0,0:0:0:0:
280,192,39496,1,0,0:0:0:0:
256,176,39659,1,8,0:0:0:0:
256,176,39983,1,8,0:0:0:0:
256,176,40307,1,0,0:0:0:0:
280,192,40956,1,0,0:0:0:0:
256,176,41280,1,8,0:0:0:0:
256,176,41442,1,0,0:0:0:0:
256,176,41767,1,8,0:0:0:0:
256,176,41929,1,8,0:0:0:0:
256,176,42091,1,0,0:0:0:0:
256,176,42253,1,8,0:0:0:0:
280,160,42578,1,8,0:0:0:0:
280,160,42902,1,0,0:0:0:0:
280,160,43550,1,0,0:0:0:0:
280,160,43875,1,8,0:0:0:0:
280,160,44037,1,0,0:0:0:0:
280,160,44361,1,8,0:0:0:0:
280,160,44523,1,0,0:0:0:0:
280,160,44686,1,0,0:0:0:0:
280,160,44848,1,8,0:0:0:0:
280,160,45172,1,0,0:0:0:0:
280,160,45496,1,0,0:0:0:0:
280,160,45659,1,8,0:0:0:0:
280,160,45821,1,0,0:0:0:0:
280,160,45983,1,0,0:0:0:0:
280,160,46145,1,8,0:0:0:0:
280,160,46469,1,0,0:0:0:0:
280,160,46794,1,0,0:0:0:0:
280,160,46956,1,8,0:0:0:0:
280,160,47118,1,0,0:0:0:0:
280,160,47280,1,0,0:0:0:0:
280,160,47442,1,8,0:0:0:0:
288,128,47767,1,8,0:0:0:0:
288,128,48091,1,0,0:0:0:0:
288,128,48253,1,8,0:0:0:0:
288,128,48415,1,0,0:0:0:0:
288,128,48578,1,0,0:0:0:0:
288,128,48740,1,8,0:0:0:0:
288,128,49064,1,8,0:0:0:0:
288,128,49388,1,0,0:0:0:0:
288,128,49550,1,12,0:0:0:0:
256,192,49875,1,4,0:0:0:0:
288,128,50199,1,12,0:0:0:0:
256,192,50523,1,4,0:0:0:0:
288,128,50848,1,12,0:0:0:0:
256,192,51172,1,4,0:0:0:0:
288,128,51496,1,12,0:0:0:0:
256,192,51821,1,4,0:0:0:0:
256,192,52145,12,8,54740,0:0:0:0:
288,128,56037,5,0,0:0:0:0:
288,128,56118,1,0,0:0:0:0:
288,128,56199,1,0,0:0:0:0:
288,128,56361,1,0,0:0:0:0:
288,128,56686,1,0,0:0:0:0:
288,128,57010,1,0,0:0:0:0:
256,192,57334,1,4,0:0:0:0:
256,192,57496,1,0,0:0:0:0:
256,192,57659,1,8,0:0:0:0:
256,192,57983,1,0,0:0:0:0:
256,192,58145,1,0,0:0:0:0:
256,192,58307,1,8,0:0:0:0:
256,192,58632,1,0,0:0:0:0:
256,192,58794,1,8,0:0:0:0:
256,192,58956,1,0,0:0:0:0:
256,192,59118,1,8,0:0:0:0:
256,192,59280,1,0,0:0:0:0:
256,192,59442,1,8,0:0:0:0:
256,192,59605,1,8,0:0:0:0:
256,192,59929,1,8,0:0:0:0:
256,192,60091,1,0,0:0:0:0:
256,192,60253,1,0,0:0:0:0:
256,192,60578,1,8,0:0:0:0:
256,192,60740,1,0,0:0:0:0:
256,192,60902,1,0,0:0:0:0:
256,192,61226,1,8,0:0:0:0:
256,192,61388,1,0,0:0:0:0:
256,192,61550,1,0,0:0:0:0:
256,192,61713,1,8,0:0:0:0:
256,192,61875,1,0,0:0:0:0:
256,192,62037,1,0,0:0:0:0:
256,192,62199,1,8,0:0:0:0:
256,192,62523,1,0,0:0:0:0:
256,192,62686,1,0,0:0:0:0:
256,192,62848,1,0,0:0:0:0:
256,192,63172,1,8,0:0:0:0:
256,192,63334,1,8,0:0:0:0:
256,192,63496,1,8,0:0:0:0:
256,192,63821,1,0,0:0:0:0:
256,192,63983,1,0,0:0:0:0:
256,192,64145,1,8,0:0:0:0:
256,192,64307,1,8,0:0:0:0:
256,192,64469,1,0,0:0:0:0:
256,192,64632,1,0,0:0:0:0:
256,192,64794,1,8,0:0:0:0:
256,192,65118,1,8,0:0:0:0:
256,192,65280,1,8,0:0:0:0:
256,192,65442,1,8,0:0:0:0:
256,192,65767,1,0,0:0:0:0:
256,192,65929,1,0,0:0:0:0:
256,192,66091,1,0,0:0:0:0:
256,192,66415,1,8,0:0:0:0:
256,192,66578,1,8,0:0:0:0:
256,192,66740,1,0,0:0:0:0:
256,192,66902,1,0,0:0:0:0:
256,192,67064,1,8,0:0:0:0:
256,192,67226,1,8,0:0:0:0:
256,192,67388,1,0,0:0:0:0:
256,192,67713,1,4,0:0:0:0:
256,192,67875,1,0,0:0:0:0:
256,192,68037,1,8,0:0:0:0:
256,192,68361,1,0,0:0:0:0:
256,192,68523,1,0,0:0:0:0:
256,192,68686,1,8,0:0:0:0:
256,192,69010,1,0,0:0:0:0:
256,192,69172,1,0,0:0:0:0:
256,192,69334,1,8,0:0:0:0:
256,192,69496,1,0,0:0:0:0:
256,192,69659,1,0,0:0:0:0:
256,192,69821,1,0,0:0:0:0:
256,192,69983,1,8,0:0:0:0:
256,192,70307,1,0,0:0:0:0:
256,192,70469,1,0,0:0:0:0:
256,192,70632,1,0,0:0:0:0:
256,192,70956,1,8,0:0:0:0:
256,192,71118,1,8,0:0:0:0:
256,192,71280,1,8,0:0:0:0:
256,192,71605,1,0,0:0:0:0:
256,192,71767,1,0,0:0:0:0:
256,192,71929,1,8,0:0:0:0:
256,192,72091,1,8,0:0:0:0:
256,192,72253,1,0,0:0:0:0:
256,192,72415,1,0,0:0:0:0:
256,192,72578,1,8,0:0:0:0:
256,192,72902,1,0,0:0:0:0:
256,192,73064,1,0,0:0:0:0:
256,192,73226,1,8,0:0:0:0:
256,192,73388,1,0,0:0:0:0:
256,192,73550,1,0,0:0:0:0:
256,192,73713,1,0,0:0:0:0:
256,192,73875,1,8,0:0:0:0:
256,192,74199,1,0,0:0:0:0:
256,192,74361,1,0,0:0:0:0:
256,192,74523,1,8,0:0:0:0:
256,192,74686,1,0,0:0:0:0:
256,192,74848,1,0,0:0:0:0:
256,192,75010,1,0,0:0:0:0:
256,192,75172,1,8,0:0:0:0:
256,192,75496,1,8,0:0:0:0:
256,192,75659,1,8,0:0:0:0:
256,192,75821,1,0,0:0:0:0:
256,192,75983,1,0,0:0:0:0:
256,192,76145,1,8,0:0:0:0:
256,192,76307,1,0,0:0:0:0:
256,192,76469,1,8,0:0:0:0:
256,192,76794,1,0,0:0:0:0:
256,192,76875,1,0,0:0:0:0:
256,192,76956,1,0,0:0:0:0:
256,192,77118,1,0,0:0:0:0:
256,192,77442,1,0,0:0:0:0:
256,192,77767,1,0,0:0:0:0:
256,192,78091,1,12,0:0:0:0:
256,192,78253,1,0,0:0:0:0:
256,192,78415,1,8,0:0:0:0:
256,192,78578,1,0,0:0:0:0:
256,192,78740,1,8,0:0:0:0:
256,192,78902,1,0,0:0:0:0:
256,192,78983,1,0,0:0:0:0:
256,192,79064,1,8,0:0:0:0:
256,192,79388,1,0,0:0:0:0:
256,192,79550,1,8,0:0:0:0:
256,192,79713,1,0,0:0:0:0:
256,192,79875,1,8,0:0:0:0:
256,192,80037,1,0,0:0:0:0:
256,192,80199,1,8,0:0:0:0:
256,192,80280,1,8,0:0:0:0:
256,192,80361,1,8,0:0:0:0:
256,192,80686,1,8,0:0:0:0:
256,192,80848,1,0,0:0:0:0:
256,192,81010,1,8,0:0:0:0:
256,192,81172,1,0,0:0:0:0:
256,192,81334,1,8,0:0:0:0:
256,192,81496,1,0,0:0:0:0:
256,192,81578,1,0,0:0:0:0:
256,192,81659,1,8,0:0:0:0:
256,192,81983,1,0,0:0:0:0:
256,192,82145,1,8,0:0:0:0:
256,192,82307,1,0,0:0:0:0:
256,192,82469,1,8,0:0:0:0:
256,192,82632,1,0,0:0:0:0:
256,192,82794,1,8,0:0:0:0:
256,192,82875,1,8,0:0:0:0:
256,192,82956,1,0,0:0:0:0:
256,192,83280,1,12,0:0:0:0:
256,192,83442,1,0,0:0:0:0:
256,192,83605,1,0,0:0:0:0:
256,192,83767,1,0,0:0:0:0:
272,216,83929,1,8,0:0:0:0:
256,192,84091,1,0,0:0:0:0:
256,192,84172,1,0,0:0:0:0:
256,192,84253,1,0,0:0:0:0:
256,192,84578,1,0,0:0:0:0:
256,192,84740,1,0,0:0:0:0:
256,192,84902,1,8,0:0:0:0:
256,192,85064,1,0,0:0:0:0:
256,192,85226,1,0,0:0:0:0:
272,216,85388,1,8,0:0:0:0:
256,192,85469,1,8,0:0:0:0:
256,192,85550,1,8,0:0:0:0:
256,192,85875,1,4,0:0:0:0:
256,192,86037,1,4,0:0:0:0:
256,192,86523,1,4,0:0:0:0:
256,192,86686,1,4,0:0:0:0:
256,192,87172,12,4,88145,0:0:0:0:
256,192,88469,5,12,0:0:0:0:
256,192,93659,5,12,0:0:0:0:
256,192,93821,1,0,0:0:0:0:
256,192,93983,1,0,0:0:0:0:
256,192,94145,1,8,0:0:0:0:
256,192,94469,1,0,0:0:0:0:
256,192,94632,1,8,0:0:0:0:
256,192,94794,1,0,0:0:0:0:
256,192,94956,1,12,0:0:0:0:
256,192,95118,1,0,0:0:0:0:
232,208,95280,1,0,0:0:0:0:
232,208,95442,1,8,0:0:0:0:
232,208,95767,1,0,0:0:0:0:
256,192,95929,1,0,0:0:0:0:
256,192,96091,1,0,0:0:0:0:
256,192,96253,1,12,0:0:0:0:
256,192,96415,1,8,0:0:0:0:
256,192,96578,1,0,0:0:0:0:
232,208,96740,1,0,0:0:0:0:
232,208,96902,1,12,0:0:0:0:
232,208,97064,1,8,0:0:0:0:
232,208,97226,1,0,0:0:0:0:
256,192,97388,1,0,0:0:0:0:
256,192,97550,1,12,0:0:0:0:
256,192,97875,1,12,0:0:0:0:
256,192,98199,1,12,0:0:0:0:
256,192,98523,1,12,0:0:0:0:
256,192,98848,1,4,0:0:0:0:
256,192,99010,1,4,0:0:0:0:
256,192,99172,1,12,0:0:0:0:
256,192,99496,1,12,0:0:0:0:
256,192,99659,1,4,0:0:0:0:
256,192,99821,1,12,0:0:0:0:
110,95,100145,2,0,L|398:99,1,280
256,192,101118,1,4,0:0:0:0:
256,192,101442,5,4,0:0:0:0:
256,192,101605,1,0,0:0:0:0:
256,192,101767,1,8,0:0:0:0:
256,192,101929,1,8,0:0:0:0:
256,192,102091,1,0,0:0:0:0:
256,192,102253,1,0,0:0:0:0:
256,192,102415,1,8,0:0:0:0:
256,192,102740,1,0,0:0:0:0:
256,192,102902,1,0,0:0:0:0:
256,192,103064,1,8,0:0:0:0:
256,192,103226,1,0,0:0:0:0:
256,192,103388,1,0,0:0:0:0:
256,192,103550,1,0,0:0:0:0:
256,192,103713,1,8,0:0:0:0:
256,192,104037,1,0,0:0:0:0:
256,192,104199,1,0,0:0:0:0:
256,192,104361,1,8,0:0:0:0:
256,192,104686,1,0,0:0:0:0:
256,192,104848,1,0,0:0:0:0:
256,192,105010,1,8,0:0:0:0:
256,192,105334,1,0,0:0:0:0:
256,192,105496,1,0,0:0:0:0:
256,192,105659,1,8,0:0:0:0:
256,192,105821,1,0,0:0:0:0:
256,192,105983,1,0,0:0:0:0:
256,192,106145,1,0,0:0:0:0:
256,192,106307,1,8,0:0:0:0:
256,192,106632,1,0,0:0:0:0:
256,192,106794,1,0,0:0:0:0:
256,192,106956,1,0,0:0:0:0:
256,192,107118,1,8,0:0:0:0:
256,192,107280,1,0,0:0:0:0:
256,192,107442,1,0,0:0:0:0:
256,192,107605,1,8,0:0:0:0:
256,192,107929,1,0,0:0:0:0:
256,192,108091,1,0,0:0:0:0:
256,192,108253,1,0,0:0:0:0:
256,192,108415,1,8,0:0:0:0:
256,192,108578,1,0,0:0:0:0:
256,192,108740,1,0,0:0:0:0:
256,192,108902,1,8,0:0:0:0:
256,192,109226,1,0,0:0:0:0:
256,192,109388,1,8,0:0:0:0:
256,192,109550,1,8,0:0:0:0:
256,192,109875,1,0,0:0:0:0:
256,192,110037,1,8,0:0:0:0:
256,192,110199,1,8,0:0:0:0:
256,192,110523,1,8,0:0:0:0:
256,192,110686,1,8,0:0:0:0:
256,192,110848,1,8,0:0:0:0:
256,192,111010,1,0,0:0:0:0:
256,192,111172,1,8,0:0:0:0:
256,192,111334,1,0,0:0:0:0:
256,192,111496,1,8,0:0:0:0:
256,192,111821,1,4,0:0:0:0:
256,192,111983,1,0,0:0:0:0:
256,192,112145,1,8,0:0:0:0:
256,192,112469,1,0,0:0:0:0:
256,192,112632,1,0,0:0:0:0:
256,192,112794,1,8,0:0:0:0:
256,192,113118,1,0,0:0:0:0:
256,192,113280,1,0,0:0:0:0:
256,192,113442,1,8,0:0:0:0:
256,192,113605,1,8,0:0:0:0:
256,192,113767,1,0,0:0:0:0:
256,192,113929,1,8,0:0:0:0:
256,192,114091,1,8,0:0:0:0:
256,192,114415,1,0,0:0:0:0:
256,192,114578,1,0,0:0:0:0:
256,192,114740,1,8,0:0:0:0:
256,192,115064,1,0,0:0:0:0:
256,192,115226,1,0,0:0:0:0:
256,192,115388,1,8,0:0:0:0:
256,192,115713,1,0,0:0:0:0:
256,192,115875,1,0,0:0:0:0:
256,192,116037,1,8,0:0:0:0:
256,192,116199,1,0,0:0:0:0:
256,192,116361,1,0,0:0:0:0:
256,192,116523,1,0,0:0:0:0:
256,192,116686,1,8,0:0:0:0:
256,192,117010,1,0,0:0:0:0:
256,192,117172,1,0,0:0:0:0:
256,192,117334,1,8,0:0:0:0:
256,192,117496,1,0,0:0:0:0:
256,192,117659,1,0,0:0:0:0:
256,192,117821,1,0,0:0:0:0:
256,192,117983,1,8,0:0:0:0:
256,192,118307,1,0,0:0:0:0:
256,192,118469,1,0,0:0:0:0:
256,192,118632,1,8,0:0:0:0:
256,192,118794,1,0,0:0:0:0:
256,192,118956,1,0,0:0:0:0:
256,192,119118,1,8,0:0:0:0:
256,192,119280,1,8,0:0:0:0:
256,192,119605,1,4,0:0:0:0:
256,192,119767,1,4,0:0:0:0:
256,192,120253,1,4,0:0:0:0:
256,192,120415,1,4,0:0:0:0:
64,184,120902,2,0,L|488:176,1,420
264,192,122199,1,4,0:0:0:0:
