osu file format v13

[General]
AudioFilename: Ryu - We're so Happy.mp3
AudioLeadIn: 0
PreviewTime: 57334
Countdown: 0
SampleSet: Soft
StackLeniency: 0.7
Mode: 3
LetterboxInBreaks: 0
SpecialStyle: 0
WidescreenStoryboard: 0

[Editor]
DistanceSpacing: 2
BeatDivisor: 4
GridSize: 8
TimelineZoom: 1.2

[Metadata]
Title:We're so Happy
TitleUnicode:We're so Happy
Artist:Ryu*
ArtistUnicode:Ryu☆
Creator:Spy
Version:4K BASIC
Source:jubeat saucer
Tags:plus ミライダガッキ FutureTomTom Ver.2 BEMANI KONAMI Mayumi Morinaga senya 森永真由美 moimoi QuanTUM richardfeder Simple_Star mingmichael Kuo Kyoka qoot8123
BeatmapID:309583
BeatmapSetID:120838

[Difficulty]
HPDrainRate:6
CircleSize:4
OverallDifficulty:6
ApproachRate:5
SliderMultiplier:1.4
SliderTickRate:1

[Events]
//Background and Video events
0,0,"BG.jpg",0,0
//Break Periods
//Storyboard Layer 0 (Background)
//Storyboard Layer 1 (Fail)
//Storyboard Layer 2 (Pass)
//Storyboard Layer 3 (Foreground)
//Storyboard Sound Samples
//Background Colour Transformations
3,100,163,162,255

[TimingPoints]
1551,324.324324324324,4,2,0,30,1,0
57334,-100,4,2,0,30,0,1
78091,-100,4,2,0,30,0,0
101442,-100,4,2,0,30,0,1
122199,-100,4,2,0,30,0,0

[HitObjects]
64,192,1551,5,0,0:0:0:0:
320,192,2361,1,0,0:0:0:0:
448,192,2848,1,0,0:0:0:0:
192,192,3334,1,0,0:0:0:0:
320,192,4145,128,0,4956:0:0:0:0:
192,192,4145,1,0,0:0:0:0:
448,192,4956,1,0,0:0:0:0:
192,192,5442,1,0,0:0:0:0:
320,192,5929,1,0,0:0:0:0:
320,192,6740,128,0,7550:0:0:0:30:cymbol.wav
448,192,6740,1,0,0:0:0:0:
192,192,7550,1,0,0:0:0:0:
448,192,8037,1,0,0:0:0:0:
192,192,8523,1,0,0:0:0:0:
192,192,9334,128,0,10145:0:0:0:0:
320,192,9334,1,0,0:0:0:0:
64,192,10145,1,0,0:0:0:0:
448,192,10632,1,0,0:0:0:0:
192,192,11118,1,0,0:0:0:0:
448,192,11767,1,0,0:0:0:0:
320,192,12578,128,0,13226:0:0:0:0:
192,192,13226,1,0,0:0:0:40:bassdrum.wav
448,192,13226,1,0,0:0:0:70:cymbol.wav
192,192,13550,1,0,0:0:0:40:bassdrum.wav
64,192,13875,1,0,0:0:0:40:bassdrum.wav
192,192,14199,1,0,0:0:0:40:bassdrum.wav
448,192,14523,1,0,0:0:0:40:bassdrum.wav
192,192,14523,1,0,0:0:0:0:
64,192,14848,1,0,0:0:0:40:bassdrum.wav
320,192,15172,1,0,0:0:0:40:bassdrum.wav
64,192,15496,1,0,0:0:0:40:bassdrum.wav
192,192,15821,1,0,0:0:0:40:bassdrum.wav
448,192,15821,1,0,0:0:0:0:
448,192,16145,1,0,0:0:0:40:bassdrum.wav
64,192,16469,1,0,0:0:0:40:bassdrum.wav
448,192,16794,1,0,0:0:0:40:bassdrum.wav
64,192,17118,1,0,0:0:0:40:bassdrum.wav
320,192,17118,1,0,0:0:0:0:
192,192,17442,1,0,0:0:0:40:bassdrum.wav
320,192,17767,1,0,0:0:0:40:bassdrum.wav
192,192,18091,1,0,0:0:0:40:bassdrum.wav
192,192,18415,1,0,0:0:0:40:bassdrum.wav
448,192,18415,1,0,0:0:0:70:cymbol.wav
320,192,18740,1,0,0:0:0:40:bassdrum.wav
448,192,19064,1,0,0:0:0:40:bassdrum.wav
320,192,19388,1,0,0:0:0:40:bassdrum.wav
64,192,19713,1,0,0:0:0:40:bassdrum.wav
448,192,19713,1,0,0:0:0:0:
320,192,20037,1,0,0:0:0:40:bassdrum.wav
64,192,20361,1,0,0:0:0:40:bassdrum.wav
192,192,20686,1,0,0:0:0:40:bassdrum.wav
320,192,21010,1,0,0:0:0:40:bassdrum.wav
448,192,21010,1,0,0:0:0:0:
64,192,21334,1,0,0:0:0:40:bassdrum.wav
320,192,21659,1,0,0:0:0:40:bassdrum.wav
192,192,21983,1,0,0:0:0:40:bassdrum.wav
448,192,22307,1,0,0:0:0:0:
320,192,22632,1,0,0:0:0:0:
192,192,22956,128,0,23280:0:0:0:0:
320,192,23280,1,0,0:0:0:0:
64,192,23280,1,0,0:0:0:0:
64,192,23605,1,0,0:0:0:40:bassdrum.wav
448,192,23605,1,0,0:0:0:70:cymbol.wav
320,192,23929,1,0,0:0:0:40:bassdrum.wav
64,192,24253,1,0,0:0:0:40:bassdrum.wav
320,192,24578,1,0,0:0:0:40:bassdrum.wav
64,192,24902,1,0,0:0:0:40:bassdrum.wav
448,192,24902,1,0,0:0:0:0:
192,192,25226,1,0,0:0:0:40:bassdrum.wav
448,192,25550,1,0,0:0:0:40:bassdrum.wav
192,192,25875,1,0,0:0:0:40:bassdrum.wav
64,192,26199,1,0,0:0:0:40:bassdrum.wav
192,192,26199,1,0,0:0:0:0:
320,192,26523,1,0,0:0:0:40:bassdrum.wav
64,192,26848,1,0,0:0:0:40:bassdrum.wav
320,192,27172,1,0,0:0:0:40:bassdrum.wav
320,192,27496,1,0,0:0:0:40:bassdrum.wav
448,192,27496,1,0,0:0:0:0:
192,192,27821,1,0,0:0:0:40:bassdrum.wav
320,192,28145,1,0,0:0:0:40:bassdrum.wav
192,192,28469,1,0,0:0:0:40:bassdrum.wav
320,192,28794,1,0,0:0:0:40:bassdrum.wav
64,192,28794,1,0,0:0:0:70:cymbol.wav
448,192,29118,1,0,0:0:0:40:bassdrum.wav
320,192,29442,1,0,0:0:0:40:bassdrum.wav
448,192,29767,1,0,0:0:0:40:bassdrum.wav
192,192,30091,1,0,0:0:0:40:bassdrum.wav
320,192,30091,1,0,0:0:0:0:
448,192,30415,1,0,0:0:0:40:bassdrum.wav
192,192,30740,1,0,0:0:0:40:bassdrum.wav
448,192,31064,1,0,0:0:0:40:bassdrum.wav
320,192,31388,1,0,0:0:0:40:bassdrum.wav
320,192,31713,1,0,0:0:0:0:
448,192,32037,1,0,0:0:0:0:
320,192,32199,1,0,0:0:0:0:
192,192,32361,1,0,0:0:0:0:
64,192,32523,1,0,0:0:0:0:
192,192,32686,128,0,33983:0:0:0:0:
448,192,32686,1,0,0:0:0:0:
64,192,33983,1,0,0:0:0:40:bassdrum.wav
448,192,34145,1,0,0:0:0:0:
320,192,34307,1,0,0:0:0:0:
192,192,34469,1,0,0:0:0:0:
64,192,34794,1,0,0:0:0:0:
64,192,35118,1,0,0:0:0:0:
448,192,35442,1,0,0:0:0:0:
64,192,35767,1,0,0:0:0:0:
320,192,36091,1,0,0:0:0:0:
192,192,36253,1,0,0:0:0:0:
64,192,36578,1,0,0:0:0:0:
192,192,36740,1,0,0:0:0:0:
320,192,36902,1,0,0:0:0:0:
448,192,37064,1,0,0:0:0:0:
192,192,37388,1,0,0:0:0:0:
448,192,37713,1,0,0:0:0:0:
64,192,38037,1,0,0:0:0:0:
320,192,38361,1,0,0:0:0:0:
448,192,38686,1,0,0:0:0:0:
192,192,38848,1,0,0:0:0:0:
448,192,39172,1,0,0:0:0:0:
320,192,39334,1,0,0:0:0:0:
192,192,39496,1,0,0:0:0:0:
64,192,39659,1,0,0:0:0:0:
64,192,39983,1,0,0:0:0:0:
448,192,40307,1,0,0:0:0:0:
320,192,40632,1,0,0:0:0:0:
448,192,40956,1,0,0:0:0:0:
192,192,41280,1,0,0:0:0:0:
320,192,41442,1,0,0:0:0:0:
448,192,41767,1,0,0:0:0:0:
320,192,41929,1,0,0:0:0:0:
192,192,42091,1,0,0:0:0:0:
64,192,42253,1,0,0:0:0:0:
64,192,42578,1,0,0:0:0:0:
192,192,42902,1,0,0:0:0:0:
192,192,43226,1,0,0:0:0:0:
448,192,43550,1,0,0:0:0:0:
320,192,43875,1,0,0:0:0:0:
448,192,44037,1,0,0:0:0:0:
64,192,44361,1,0,0:0:0:40:bassdrum.wav
320,192,44523,1,0,0:0:0:40:bassdrum.wav
448,192,44686,1,0,0:0:0:40:bassdrum.wav
64,192,44848,1,0,0:0:0:0:
320,192,45172,1,0,0:0:0:40:bassdrum.wav
320,192,45496,1,0,0:0:0:0:
64,192,45659,1,0,0:0:0:40:bassdrum.wav
192,192,45821,1,0,0:0:0:40:bassdrum.wav
320,192,45983,1,0,0:0:0:40:bassdrum.wav
448,192,46145,1,0,0:0:0:0:
448,192,46469,1,0,0:0:0:40:bassdrum.wav
192,192,46794,1,0,0:0:0:0:
448,192,46956,1,0,0:0:0:40:bassdrum.wav
320,192,47118,1,0,0:0:0:40:bassdrum.wav
192,192,47280,1,0,0:0:0:40:bassdrum.wav
64,192,47442,1,0,0:0:0:0:
64,192,47767,1,0,0:0:0:40:bassdrum.wav
64,192,48091,1,0,0:0:0:40:bassdrum.wav
192,192,48253,1,0,0:0:0:40:bassdrum.wav
320,192,48415,1,0,0:0:0:40:bassdrum.wav
448,192,48578,1,0,0:0:0:40:bassdrum.wav
320,192,48740,1,0,0:0:0:0:
64,192,49064,1,0,0:0:0:40:bassdrum.wav
192,192,49388,1,0,0:0:0:40:bassdrum.wav
320,192,49550,128,0,50199:0:0:0:40:bassdrum.wav
192,192,50199,128,0,50848:0:0:0:40:bassdrum.wav
320,192,50848,128,0,51496:0:0:0:40:bassdrum.wav
448,192,51496,128,0,52145:0:0:0:40:bassdrum.wav
320,192,52145,128,0,52469:0:0:0:40:bassdrum.wav
192,192,52469,128,0,52794:0:0:0:40:bassdrum.wav
64,192,52794,128,0,53118:0:0:0:40:bassdrum.wav
192,192,53118,128,0,53442:0:0:0:40:bassdrum.wav
320,192,53442,128,0,53767:0:0:0:40:bassdrum.wav
448,192,53767,128,0,54091:0:0:0:40:bassdrum.wav
320,192,54091,128,0,54415:0:0:0:40:bassdrum.wav
192,192,54415,128,0,54740:0:0:0:40:bassdrum.wav
64,192,54740,128,0,56037:0:0:0:0:
192,192,56037,1,0,0:0:0:40:bassdrum.wav
320,192,56037,1,0,0:0:0:0:
64,192,56361,1,0,0:0:0:40:bassdrum.wav
448,192,56361,1,0,0:0:0:70:cymbol.wav
64,192,56686,1,0,0:0:0:40:bassdrum.wav
448,192,56686,1,0,0:0:0:70:cymbol.wav
192,192,57010,1,0,0:0:0:40:bassdrum.wav
320,192,57010,1,0,0:0:0:70:cymbol.wav
64,192,57334,1,0,0:0:0:40:bassdrum.wav
448,192,57334,1,0,0:0:0:70:cymbol.wav
320,192,57496,1,0,0:0:0:30:hihat.wav
192,192,57659,1,0,0:0:0:40:bassdrum.wav
64,192,57821,1,0,0:0:0:30:hihat.wav
64,192,58145,1,0,0:0:0:30:hihat.wav
320,192,58469,1,0,0:0:0:30:hihat.wav
192,192,58794,1,0,0:0:0:30:hihat.wav
448,192,59118,1,0,0:0:0:30:hihat.wav
320,192,59442,1,0,0:0:0:30:hihat.wav
64,192,59605,1,0,0:0:0:40:bassdrum.wav
448,192,59929,1,0,0:0:0:40:bassdrum.wav
320,192,60091,1,0,0:0:0:30:hihat.wav
192,192,60253,1,0,0:0:0:40:bassdrum.wav
64,192,60415,1,0,0:0:0:30:hihat.wav
64,192,60740,1,0,0:0:0:30:hihat.wav
448,192,61064,1,0,0:0:0:30:hihat.wav
192,192,61388,1,0,0:0:0:30:hihat.wav
448,192,61713,1,0,0:0:0:30:hihat.wav
64,192,62037,1,0,0:0:0:30:hihat.wav
320,192,62199,1,0,0:0:0:40:bassdrum.wav
448,192,62523,1,0,0:0:0:40:bassdrum.wav
320,192,62686,1,0,0:0:0:30:hihat.wav
192,192,62848,1,0,0:0:0:40:bassdrum.wav
64,192,63010,1,0,0:0:0:30:hihat.wav
320,192,63334,1,0,0:0:0:30:hihat.wav
448,192,63659,1,0,0:0:0:30:hihat.wav
320,192,63983,1,0,0:0:0:30:hihat.wav
448,192,64307,1,0,0:0:0:30:hihat.wav
192,192,64632,1,0,0:0:0:30:hihat.wav
64,192,64794,1,0,0:0:0:40:bassdrum.wav
448,192,65118,1,0,0:0:0:40:bassdrum.wav
320,192,65280,1,0,0:0:0:30:hihat.wav
192,192,65442,1,0,0:0:0:40:bassdrum.wav
64,192,65605,1,0,0:0:0:30:hihat.wav
320,192,65929,1,0,0:0:0:30:hihat.wav
448,192,66253,1,0,0:0:0:30:hihat.wav
192,192,66578,128,0,67388:0:0:0:30:hihat.wav
448,192,67388,1,0,0:0:0:40:bassdrum.wav
448,192,67713,1,0,0:0:0:40:bassdrum.wav
64,192,67713,1,0,0:0:0:70:cymbol.wav
320,192,67875,1,0,0:0:0:30:hihat.wav
192,192,68037,1,0,0:0:0:40:bassdrum.wav
64,192,68199,1,0,0:0:0:30:hihat.wav
320,192,68523,1,0,0:0:0:30:hihat.wav
192,192,68848,1,0,0:0:0:30:hihat.wav
320,192,69172,1,0,0:0:0:30:hihat.wav
64,192,69496,1,0,0:0:0:30:hihat.wav
64,192,69821,1,0,0:0:0:30:hihat.wav
192,192,69983,1,0,0:0:0:40:bassdrum.wav
448,192,70307,1,0,0:0:0:40:bassdrum.wav
64,192,70307,1,0,0:0:0:0:
320,192,70469,1,0,0:0:0:30:hihat.wav
192,192,70632,1,0,0:0:0:40:bassdrum.wav
64,192,70794,1,0,0:0:0:30:hihat.wav
448,192,71118,1,0,0:0:0:30:hihat.wav
192,192,71442,1,0,0:0:0:30:hihat.wav
320,192,71767,1,0,0:0:0:30:hihat.wav
64,192,72091,1,0,0:0:0:30:hihat.wav
192,192,72415,1,0,0:0:0:30:hihat.wav
320,192,72578,1,0,0:0:0:40:bassdrum.wav
64,192,72902,1,0,0:0:0:40:bassdrum.wav
448,192,72902,1,0,0:0:0:70:cymbol.wav
192,192,73064,1,0,0:0:0:30:hihat.wav
320,192,73226,1,0,0:0:0:40:bassdrum.wav
448,192,73388,1,0,0:0:0:30:hihat.wav
192,192,73713,1,0,0:0:0:30:hihat.wav
320,192,74037,1,0,0:0:0:30:hihat.wav
192,192,74361,1,0,0:0:0:30:hihat.wav
448,192,74686,1,0,0:0:0:30:hihat.wav
192,192,75010,1,0,0:0:0:30:hihat.wav
64,192,75172,1,0,0:0:0:40:bassdrum.wav
448,192,75496,1,0,0:0:0:40:bassdrum.wav
320,192,75659,1,0,0:0:0:30:hihat.wav
192,192,75821,1,0,0:0:0:40:bassdrum.wav
64,192,75983,1,0,0:0:0:30:hihat.wav
320,192,76307,1,0,0:0:0:30:hihat.wav
192,192,76632,1,0,0:0:0:30:hihat.wav
448,192,76794,1,0,0:0:0:40:bassdrum.wav
192,192,77118,1,0,0:0:0:40:bassdrum.wav
320,192,77118,1,0,0:0:0:70:cymbol.wav
192,192,77442,1,0,0:0:0:40:bassdrum.wav
320,192,77442,1,0,0:0:0:70:cymbol.wav
64,192,77767,1,0,0:0:0:40:bassdrum.wav
448,192,77767,1,0,0:0:0:70:cymbol.wav
320,192,78091,1,0,0:0:0:40:bassdrum.wav
192,192,78091,1,0,0:0:0:70:cymbol.wav
64,192,78415,1,0,0:0:0:40:bassdrum.wav
192,192,78415,1,0,0:0:0:0:
192,192,78740,1,0,0:0:0:40:bassdrum.wav
320,192,78740,1,0,0:0:0:0:
320,192,79064,1,0,0:0:0:40:bassdrum.wav
448,192,79064,1,0,0:0:0:0:
64,192,79388,1,0,0:0:0:40:bassdrum.wav
192,192,79388,1,0,0:0:0:0:
192,192,79713,1,0,0:0:0:40:bassdrum.wav
320,192,79713,1,0,0:0:0:0:
192,192,80037,128,0,80361:0:0:0:40:bassdrum.wav
448,192,80037,1,0,0:0:0:0:
320,192,80361,128,0,80686:0:0:0:40:bassdrum.wav
64,192,80686,1,0,0:0:0:40:bassdrum.wav
192,192,81010,1,0,0:0:0:40:bassdrum.wav
448,192,81010,1,0,0:0:0:0:
448,192,81334,1,0,0:0:0:40:bassdrum.wav
320,192,81334,1,0,0:0:0:0:
64,192,81659,1,0,0:0:0:40:bassdrum.wav
192,192,81659,1,0,0:0:0:0:
64,192,81983,1,0,0:0:0:40:bassdrum.wav
320,192,81983,1,0,0:0:0:0:
320,192,82307,1,0,0:0:0:40:bassdrum.wav
448,192,82307,1,0,0:0:0:0:
192,192,82632,128,0,82956:0:0:0:40:bassdrum.wav
64,192,82632,1,0,0:0:0:0:
320,192,82956,128,0,83280:0:0:0:40:bassdrum.wav
448,192,83280,1,0,0:0:0:40:bassdrum.wav
192,192,83605,1,0,0:0:0:40:bassdrum.wav
320,192,83767,1,0,0:0:0:40:bassdrum.wav
448,192,83929,128,0,84578:0:0:0:40:bassdrum.wav
64,192,84578,128,0,84902:0:0:0:40:bassdrum.wav
320,192,84902,1,0,0:0:0:40:bassdrum.wav
192,192,85064,1,0,0:0:0:0:
320,192,85226,128,0,85875:0:0:0:40:bassdrum.wav
64,192,85550,1,0,0:0:0:40:bassdrum.wav
448,192,85875,1,0,0:0:0:40:bassdrum.wav
192,192,86037,1,0,0:0:0:40:bassdrum.wav
64,192,86523,1,0,0:0:0:40:bassdrum.wav
192,192,86523,1,0,0:0:0:0:
320,192,86686,1,0,0:0:0:40:bassdrum.wav
64,192,87172,1,0,0:0:0:40:bassdrum.wav
448,192,87172,128,0,87496:0:0:0:0:
64,192,87496,128,0,87821:0:0:0:40:bassdrum.wav
192,192,87821,128,0,88145:0:0:0:40:bassdrum.wav
320,192,88145,128,0,88469:0:0:0:40:bassdrum.wav
448,192,88469,128,0,89767:0:0:0:40:bassdrum.wav
320,192,89767,128,0,91064:0:0:0:0:
192,192,91064,128,0,92361:0:0:0:0:
64,192,92361,128,0,93659:0:0:0:0:
192,192,93659,1,0,0:0:0:40:bassdrum.wav
320,192,93821,1,0,0:0:0:40:bassdrum.wav
448,192,93983,1,0,0:0:0:40:bassdrum.wav
64,192,94145,1,0,0:0:0:0:
64,192,94469,1,0,0:0:0:40:bassdrum.wav
192,192,94794,1,0,0:0:0:0:
448,192,94956,1,0,0:0:0:40:bassdrum.wav
320,192,95118,1,0,0:0:0:40:bassdrum.wav
192,192,95280,1,0,0:0:0:40:bassdrum.wav
448,192,95442,1,0,0:0:0:0:
192,192,95767,1,0,0:0:0:40:bassdrum.wav
448,192,96091,1,0,0:0:0:40:bassdrum.wav
320,192,96253,1,0,0:0:0:40:bassdrum.wav
192,192,96415,1,0,0:0:0:40:bassdrum.wav
64,192,96578,1,0,0:0:0:40:bassdrum.wav
448,192,96740,1,0,0:0:0:40:bassdrum.wav
320,192,96902,1,0,0:0:0:40:bassdrum.wav
192,192,97064,1,0,0:0:0:40:bassdrum.wav
64,192,97226,1,0,0:0:0:40:bassdrum.wav
448,192,97388,1,0,0:0:0:40:bassdrum.wav
320,192,97550,1,0,0:0:0:40:bassdrum.wav
192,192,97713,1,0,0:0:0:40:bassdrum.wav
64,192,97875,1,0,0:0:0:40:bassdrum.wav
192,192,98037,1,0,0:0:0:40:bassdrum.wav
320,192,98199,1,0,0:0:0:40:bassdrum.wav
448,192,98361,1,0,0:0:0:0:
320,192,98523,1,0,0:0:0:40:bassdrum.wav
192,192,98686,1,0,0:0:0:0:
320,192,98848,128,0,99172:0:0:0:40:bassdrum.wav
448,192,99172,1,0,0:0:0:0:
192,192,99496,128,0,99821:0:0:0:40:bassdrum.wav
320,192,99821,1,0,0:0:0:0:
448,192,100145,1,0,0:0:0:40:bassdrum.wav
64,192,100145,1,0,0:0:0:70:cymbol.wav
64,192,100469,1,0,0:0:0:40:bassdrum.wav
448,192,100469,1,0,0:0:0:70:cymbol.wav
448,192,100794,1,0,0:0:0:40:bassdrum.wav
320,192,100956,1,0,0:0:0:0:
192,192,101118,1,0,0:0:0:40:bassdrum.wav
64,192,101118,1,0,0:0:0:70:cymbol.wav
64,192,101442,1,0,0:0:0:40:bassdrum.wav
192,192,101605,1,0,0:0:0:30:hihat.wav
320,192,101767,1,0,0:0:0:40:bassdrum.wav
448,192,101929,1,0,0:0:0:30:hihat.wav
448,192,102253,1,0,0:0:0:30:hihat.wav
320,192,102578,1,0,0:0:0:30:hihat.wav
448,192,102740,1,0,0:0:0:40:bassdrum.wav
64,192,102902,1,0,0:0:0:30:hihat.wav
192,192,103064,1,0,0:0:0:40:bassdrum.wav
320,192,103226,1,0,0:0:0:30:hihat.wav
320,192,103550,1,0,0:0:0:30:hihat.wav
192,192,103713,1,0,0:0:0:40:bassdrum.wav
448,192,104037,1,0,0:0:0:40:bassdrum.wav
320,192,104199,1,0,0:0:0:30:hihat.wav
320,192,104361,1,0,0:0:0:40:bassdrum.wav
448,192,104523,1,0,0:0:0:30:hihat.wav
320,192,104848,1,0,0:0:0:30:hihat.wav
192,192,105172,1,0,0:0:0:30:hihat.wav
448,192,105334,1,0,0:0:0:40:bassdrum.wav
320,192,105496,1,0,0:0:0:30:hihat.wav
192,192,105659,1,0,0:0:0:40:bassdrum.wav
64,192,105821,1,0,0:0:0:30:hihat.wav
320,192,106145,1,0,0:0:0:30:hihat.wav
192,192,106307,1,0,0:0:0:40:bassdrum.wav
448,192,106632,1,0,0:0:0:40:bassdrum.wav
320,192,106794,1,0,0:0:0:30:hihat.wav
192,192,106956,1,0,0:0:0:40:bassdrum.wav
64,192,107118,1,0,0:0:0:30:hihat.wav
192,192,107442,1,0,0:0:0:30:hihat.wav
448,192,107767,128,0,108578:0:0:0:30:hihat.wav
320,192,108578,128,0,109226:0:0:0:40:bassdrum.wav
192,192,109226,128,0,111496:0:0:0:40:bassdrum.wav
448,192,110523,1,0,0:0:0:40:bassdrum.wav
320,192,110848,1,0,0:0:0:40:bassdrum.wav
64,192,111496,1,0,0:0:0:40:bassdrum.wav
320,192,111821,1,0,0:0:0:40:bassdrum.wav
448,192,111821,1,0,0:0:0:70:cymbol.wav
192,192,111983,1,0,0:0:0:30:hihat.wav
64,192,112145,1,0,0:0:0:40:bassdrum.wav
192,192,112307,1,0,0:0:0:30:hihat.wav
448,192,112632,1,0,0:0:0:30:hihat.wav
192,192,112956,1,0,0:0:0:30:hihat.wav
64,192,113118,1,0,0:0:0:40:bassdrum.wav
448,192,113118,1,0,0:0:0:0:
320,192,113280,1,0,0:0:0:30:hihat.wav
192,192,113442,1,0,0:0:0:40:bassdrum.wav
64,192,113605,1,0,0:0:0:30:hihat.wav
320,192,113929,1,0,0:0:0:30:hihat.wav
192,192,114091,1,0,0:0:0:40:bassdrum.wav
64,192,114415,1,0,0:0:0:40:bassdrum.wav
192,192,114415,1,0,0:0:0:0:
320,192,114578,1,0,0:0:0:30:hihat.wav
448,192,114740,1,0,0:0:0:40:bassdrum.wav
320,192,114902,1,0,0:0:0:30:hihat.wav
448,192,115226,1,0,0:0:0:30:hihat.wav
64,192,115550,1,0,0:0:0:30:hihat.wav
448,192,115713,1,0,0:0:0:40:bassdrum.wav
320,192,115875,1,0,0:0:0:30:hihat.wav
192,192,116037,1,0,0:0:0:40:bassdrum.wav
448,192,116199,1,0,0:0:0:30:hihat.wav
192,192,116523,1,0,0:0:0:30:hihat.wav
320,192,116686,1,0,0:0:0:40:bassdrum.wav
64,192,117010,1,0,0:0:0:40:bassdrum.wav
448,192,117172,1,0,0:0:0:40:bassdrum.wav
320,192,117334,1,0,0:0:0:40:bassdrum.wav
192,192,117496,1,0,0:0:0:40:bassdrum.wav
64,192,117659,1,0,0:0:0:40:bassdrum.wav
448,192,117821,1,0,0:0:0:40:bassdrum.wav
64,192,117983,1,0,0:0:0:40:bassdrum.wav
192,192,118145,1,0,0:0:0:40:bassdrum.wav
320,192,118307,1,0,0:0:0:40:bassdrum.wav
448,192,118469,1,0,0:0:0:40:bassdrum.wav
192,192,118632,128,0,119605:0:0:0:40:bassdrum.wav
320,192,118632,1,0,0:0:0:0:
448,192,119605,128,0,120902:0:0:0:40:bassdrum.wav
64,192,120902,1,0,0:0:0:40:bassdrum.wav
192,192,120902,1,0,0:0:0:70:cymbol.wav
64,192,121226,1,0,0:0:0:40:bassdrum.wav
192,192,121226,1,0,0:0:0:70:cymbol.wav
320,192,121550,1,0,0:0:0:40:bassdrum.wav
448,192,121550,1,0,0:0:0:70:cymbol.wav
64,192,121875,1,0,0:0:0:40:bassdrum.wav
192,192,121875,1,0,0:0:0:70:cymbol.wav
64,192,122199,1,0,0:0:0:40:bassdrum.wav
192,192,122199,1,0,0:0:0:70:cymbol.wav
320,192,122199,1,0,0:0:0:0:
448,192,122199,1,0,0:0:0:0:
