osu file format v9

[General]
AudioFilename: Ultramarine.mp3
AudioLeadIn: 2000
PreviewTime: 100471
Countdown: 1
SampleSet: Soft
StackLeniency: 0.7
Mode: 1
LetterboxInBreaks: 1

[Editor]
Bookmarks: 146021
DistanceSpacing: 1.2
BeatDivisor: 4
GridSize: 4

[Metadata]
Title:Ultramarine
Artist:Ryu*
Creator:_Kiva
Version:- IshidaTaikonari -
Source:
Tags:

[Difficulty]
HPDrainRate:6
CircleSize:5
OverallDifficulty:5
ApproachRate:5
SliderMultiplier:1.5
SliderTickRate:1

[Events]
//Background and Video events
0,0,"123.jpg"
//Break Periods
//Storyboard Layer 0 (Background)
//Storyboard Layer 1 (Fail)
//Storyboard Layer 2 (Pass)
//Storyboard Layer 3 (Foreground)
//Storyboard Sound Samples
//Background Colour Transformations
3,100,163,162,255

[TimingPoints]
576,314.13612565445,4,2,0,40,1,0
576,-200,4,2,0,40,0,0
25942,-200,4,2,0,80,0,0
26335,-200,4,2,0,60,0,0
26649,-200,4,2,0,40,0,0
27277,-200,4,2,0,20,0,0
27591,-200,4,2,0,20,0,0
28219,-100,4,1,0,90,0,0
29162,-100,4,1,0,90,0,1
51740,-100,4,1,0,90,0,0
51780,-100,4,1,0,90,0,1
51819,-100,4,1,0,90,0,0
72199,-111.111111111111,4,2,0,90,0,0
72513,-125,4,2,0,70,0,0
72827,-142.857142857143,4,2,0,70,0,0
73062,-142.857142857143,4,1,0,90,0,0
73141,-166.666666666667,4,1,0,90,0,0
73377,-166.666666666667,4,2,0,60,0,0
73455,-200,4,2,0,60,0,0
73455,-200,4,1,0,90,0,0
78089,-200,4,1,0,80,0,0
78246,-200,4,2,0,80,0,0
93246,-181.818181818182,4,2,0,80,0,0
93403,-166.666666666667,4,2,0,80,0,0
93560,-153.846153846154,4,2,0,80,0,0
93717,-142.857142857143,4,2,0,80,0,0
93874,-133.333333333333,4,2,0,80,0,0
94031,-125,4,2,0,80,0,0
94188,-117.647058823529,4,2,0,80,0,0
94267,-200,4,1,0,80,0,0
94345,-111.111111111111,4,1,0,80,0,0
94659,-105.263157894737,4,1,0,80,0,0
94973,-100,4,1,0,80,0,0
96937,-100,4,1,0,100,0,0
100785,-100,4,1,0,100,0,1
108285,-100,4,1,0,100,0,0
108324,-100,4,1,0,100,0,1
108363,-100,4,1,0,100,0,0
110837,-100,4,1,0,100,0,1
120850,-100,4,1,0,100,0,0
120890,-100,4,1,0,100,0,1
120929,-100,4,1,0,100,0,0
123403,-100,4,1,0,100,0,1
133377,-100,4,1,0,100,0,0
133455,-100,4,1,0,100,0,1
145981,-100,4,1,0,100,0,0
146021,-100,4,1,0,100,0,1
146060,-100,4,1,0,100,0,0

[HitObjects]
436,152,576,1,0
396,156,890,1,0
256,164,1204,1,0
400,192,1518,1,2
384,236,1832,1,0
384,236,2146,1,0
432,184,2460,1,2
432,184,2617,1,2
432,184,2774,1,2
432,184,3089,1,2
432,184,3403,1,0
432,184,3717,1,0
452,156,4031,1,0
384,264,4345,1,2
452,156,4659,1,0
452,156,4973,1,2
452,156,5130,1,2
432,184,5288,1,0
480,144,5602,1,2
500,128,5916,1,0
452,156,6230,1,2
416,208,6544,1,6
480,144,6858,1,0
452,156,7172,1,2
500,128,7486,1,0
484,188,7801,1,4
484,188,8115,1,0
480,144,8429,1,2
428,176,8743,1,0
456,208,9057,1,4
484,188,9371,1,0
480,144,9685,1,2
504,128,10000,1,0
480,144,10314,1,2
420,220,10628,1,0
480,144,10942,1,2
428,184,11256,1,2
448,212,11570,1,6
452,164,11884,1,0
480,144,12199,1,2
372,208,12513,1,2
372,208,12670,1,2
372,208,12827,1,2
416,228,13141,1,2
416,228,13455,1,2
452,184,13769,1,0
480,192,14083,1,4
452,216,14397,1,0
452,184,14712,1,2
424,192,15026,1,2
452,184,15340,1,0
424,192,15497,1,0
424,192,15654,1,2
372,260,15968,1,2
452,156,16282,1,0
372,260,16596,1,0
452,156,17539,1,0
408,184,17696,1,0
452,156,17853,1,2
384,236,18167,1,0
464,180,18481,1,0
452,156,18795,1,2
464,180,19110,1,0
384,236,19424,1,0
508,128,19738,1,2
464,180,20052,1,0
452,156,20366,1,2
508,128,20680,1,0
432,200,20994,1,0
480,156,21308,1,2
464,180,21623,1,6
172,156,21937,2,2,B|324:124,1,150
388,208,22879,1,2
464,180,23193,1,2
464,180,23507,1,2
476,148,23822,1,0
392,256,24136,1,0
268,180,24450,1,0
476,148,24764,1,0
444,196,25078,1,2
444,196,25392,1,6
256,192,26021,12,0,27905
144,152,28691,5,0
316,196,28848,1,0
316,196,29005,1,0
440,180,29162,1,6
464,192,29319,1,0
464,192,29476,1,2
360,260,29633,1,0
380,280,29712,1,0
468,160,29790,1,2
440,180,29869,1,2
496,144,29947,1,0
496,144,30104,1,2
464,192,30261,1,0
464,192,30418,1,4
496,144,30575,1,2
464,192,30733,1,0
464,192,30890,1,2
464,192,30968,1,2
468,160,31047,1,0
496,144,31204,1,2
496,144,31361,1,0
368,196,31439,1,0
464,192,31518,1,2
464,192,31675,1,6
464,192,31832,1,0
496,144,31989,1,2
412,200,32146,1,2
412,200,32225,1,2
396,260,32303,1,2
468,160,32460,1,0
468,160,32617,1,2
464,192,32774,1,2
464,192,32932,1,4
496,144,33089,1,2
464,192,33246,1,4
496,144,33403,1,2
496,144,33560,1,4
468,160,33717,1,2
464,192,33874,1,4
428,208,34031,1,4
428,208,34188,1,4
496,144,34345,1,2
504,140,34502,1,0
464,192,34659,1,2
464,192,34738,1,2
496,144,34816,1,0
496,144,34973,1,2
496,144,35130,1,0
408,264,35209,1,0
464,192,35288,1,2
428,208,35366,1,2
464,192,35445,1,0
312,176,35602,1,0
472,156,35759,1,2
424,180,35916,1,2
388,232,36073,1,2
464,192,36151,1,0
428,208,36230,1,0
428,208,36308,1,0
472,156,36387,1,2
428,208,36544,1,2
464,192,36701,1,0
472,156,36858,1,2
472,156,37015,1,0
272,184,37172,1,0
272,184,37251,1,0
472,156,37329,1,2
428,208,37486,1,2
472,156,37644,1,0
428,208,37722,1,0
416,236,37801,1,2
416,236,37879,1,2
472,156,37958,1,0
388,232,38115,1,0
388,232,38272,1,0
472,156,38429,1,2
388,232,38586,1,2
388,268,38665,1,2
472,156,38743,1,0
444,188,38822,1,0
472,156,38900,1,2
428,208,39057,1,2
444,188,39214,1,6
496,124,39371,1,0
496,124,39528,1,2
472,156,39685,1,2
472,156,39764,1,0
472,156,39843,1,0
436,160,40000,1,0
496,124,40157,1,2
472,156,40314,1,0
472,156,40471,1,0
472,156,40628,1,2
496,124,40785,1,0
472,184,40942,1,2
472,156,41021,1,2
496,124,41099,1,0
472,156,41256,1,2
472,156,41413,1,0
472,156,41570,1,2
432,252,41727,1,6
344,272,41884,1,0
420,196,42041,1,2
496,124,42199,1,2
496,124,42277,1,0
472,156,42356,1,2
404,220,42513,1,2
496,124,42670,1,2
472,156,42827,1,0
472,184,42984,1,4
472,184,43141,1,0
472,184,43219,1,0
472,156,43298,1,2
472,156,43455,1,2
380,256,43612,1,2
440,184,43691,1,0
440,184,43769,1,0
472,156,43926,1,2
472,156,44005,1,0
472,156,44083,1,0
472,156,44162,1,2
440,184,44240,1,2
496,140,44397,1,0
440,184,44555,1,2
380,256,44712,1,2
472,184,44790,1,0
440,184,44869,1,0
440,184,45026,1,0
472,156,45183,1,2
372,320,45261,1,2
472,156,45340,1,0
472,184,45497,1,4
312,164,45654,1,0
312,164,45733,1,0
496,140,45811,1,2
380,256,45968,1,2
472,156,46125,1,0
472,156,46204,1,2
472,184,46361,1,2
472,156,46439,1,0
472,156,46518,1,0
496,140,46596,1,2
472,156,46675,1,2
496,140,46754,1,0
400,204,46911,1,0
400,204,47068,1,0
380,256,47225,1,0
400,204,47303,1,0
472,156,47382,1,2
476,124,47539,1,2
472,156,47617,1,0
376,192,47696,1,0
400,204,47853,1,2
424,228,48010,1,2
424,228,48089,1,2
400,204,48167,1,2
424,228,48246,1,2
424,228,48324,1,2
400,204,48403,1,2
400,204,48481,1,2
400,204,48560,1,2
400,204,48638,1,2
400,204,48717,1,2
400,204,48795,1,2
400,204,48874,1,2
400,204,48952,1,2
368,256,49031,1,2
368,256,49110,1,2
368,256,49188,1,2
368,256,49267,1,2
364,208,49738,1,2
364,208,49895,1,2
364,208,50052,1,2
364,208,50209,1,2
436,176,50366,1,0
428,224,50523,1,4
484,184,50994,1,0
484,184,51073,1,0
484,184,51151,1,2
484,184,51308,1,0
428,224,51466,1,2
428,224,51544,1,2
428,224,51623,1,2
428,224,51701,1,2
428,224,51780,1,2
436,176,51937,1,0
436,176,52015,1,0
480,136,52094,1,2
436,176,52251,1,2
480,136,52408,1,0
380,244,52565,1,0
480,136,52722,1,2
456,152,52801,1,2
456,152,52879,1,2
456,152,52958,1,2
436,176,53036,1,0
436,176,53115,1,0
456,152,53193,1,2
428,224,53350,1,0
480,136,53429,1,2
456,152,53586,1,2
456,152,53665,1,0
456,152,53743,1,0
480,136,53822,1,2
480,136,53979,1,0
480,136,54057,1,0
480,136,54136,1,2
480,136,54214,1,2
480,136,54293,1,0
428,224,54450,1,0
400,240,54528,1,0
456,152,54607,1,2
456,152,54764,1,2
480,136,54921,1,0
400,240,55078,1,0
400,240,55157,1,0
456,152,55235,1,2
412,184,55314,1,2
412,184,55392,1,2
412,184,55471,1,2
412,184,55549,1,2
400,240,55628,1,2
480,136,55706,1,0
376,216,55863,1,2
456,152,55942,1,2
456,152,56021,1,2
456,152,56099,1,2
412,184,56178,1,2
344,272,56256,1,2
456,152,56335,1,0
456,152,56492,1,2
448,192,56649,1,0
448,192,56806,1,6
480,136,56963,1,0
456,152,57041,1,0
480,136,57120,1,2
480,136,57277,1,2
448,192,57434,1,0
412,184,57591,1,0
412,184,57670,1,0
456,152,57748,1,2
456,152,57827,1,2
448,192,57905,1,2
412,184,57984,1,2
412,184,58062,1,2
376,256,58141,1,2
456,152,58219,1,0
456,152,58377,1,2
456,152,58455,1,2
480,136,58534,1,0
448,192,58691,1,2
412,184,58769,1,2
412,184,58848,1,2
412,184,58926,1,2
448,192,59005,1,0
412,184,59083,1,0
456,152,59162,1,2
420,212,59240,1,2
456,152,59319,1,0
392,212,59476,1,0
420,212,59555,1,0
456,152,59633,1,2
480,136,59790,1,0
412,184,59947,1,0
412,184,60026,1,0
412,184,60104,1,2
480,164,60261,1,0
448,192,60340,1,0
480,164,60418,1,2
480,136,60497,1,2
480,136,60575,1,0
480,136,60733,1,2
456,152,60890,1,0
480,136,61047,1,2
448,192,61204,1,2
448,192,61282,1,2
480,136,61361,1,0
480,164,61439,1,0
480,164,61518,1,2
412,184,61675,1,2
448,192,61754,1,2
480,136,61832,1,2
448,192,61989,1,0
448,192,62068,1,0
480,136,62146,1,2
448,192,62303,1,2
448,192,62460,1,0
448,192,62774,1,2
424,208,62853,1,2
424,208,62932,1,2
424,208,63010,1,2
424,208,63089,1,2
480,136,63246,1,0
480,136,63403,1,2
432,168,63560,1,2
432,168,63638,1,2
432,168,63717,1,2
512,112,63874,1,0
448,192,64031,1,4
448,192,64188,1,0
480,136,64345,1,2
480,136,64424,1,0
460,160,64502,1,0
432,168,64581,1,0
480,136,64659,1,2
432,168,64816,1,2
412,196,64895,1,2
304,252,64973,1,0
480,136,65052,1,2
412,196,65209,1,2
512,112,65288,1,0
512,112,65366,1,2
448,192,65523,1,2
360,256,65602,1,2
412,196,65759,1,2
484,184,65916,1,6
448,192,66073,1,2
408,232,66230,1,2
460,224,66308,1,0
480,136,66387,1,2
484,184,66466,1,0
484,184,66544,1,0
360,256,66701,1,0
512,112,66858,1,2
480,136,67094,1,0
480,136,67172,1,2
440,152,67329,1,2
480,136,67486,1,0
440,152,67722,1,2
436,180,67800,1,2
440,152,67958,1,2
484,184,68115,1,6
460,168,68272,1,0
480,136,68429,1,2
412,208,68743,1,2
480,136,68900,1,0
492,160,69057,1,4
484,184,69371,1,2
480,136,69528,1,0
444,188,69607,1,0
460,168,69685,1,2
480,136,69843,1,2
480,136,70000,1,0
480,136,70157,1,2
480,136,70314,1,0
392,208,70471,1,2
460,168,70549,1,2
412,232,70628,1,2
392,208,70942,1,2
504,164,71256,1,6
500,100,71413,1,0
504,164,71570,1,4
440,200,71884,1,0
420,172,72199,1,0
420,172,72513,1,0
464,152,72827,1,2
464,152,73141,1,2
464,152,73455,1,0
464,152,73769,1,2
392,244,74083,1,2
392,244,74240,1,2
392,244,74397,1,2
464,152,74712,1,0
484,136,75026,1,2
464,152,75340,1,2
484,136,75654,1,0
484,136,75968,1,2
484,136,76282,1,0
360,252,76439,1,0
484,136,76596,1,2
464,152,76754,1,0
408,228,76911,1,0
484,136,77225,1,2
484,136,77539,1,0
484,136,77853,1,2
408,228,78167,1,6
484,136,78481,1,0
416,180,78795,1,2
376,244,79110,1,2
376,244,79267,1,2
376,244,79424,1,2
392,280,79738,1,2
376,244,80052,1,2
472,148,80366,1,0
452,192,80680,1,4
472,148,80994,1,0
472,148,81308,1,2
412,176,81623,1,2
472,148,81937,1,2
504,136,82041,1,0
472,148,82146,1,0
440,168,82251,1,0
364,260,82408,1,0
364,260,82565,1,0
364,260,82722,1,0
472,148,82879,1,2
412,176,83036,1,2
468,192,83193,1,6
468,192,83507,1,0
468,192,83612,1,0
428,216,83717,1,0
468,192,83822,1,2
468,192,83979,1,0
468,192,84136,1,2
440,172,84293,1,2
412,176,84450,1,2
412,176,84555,1,2
440,172,84659,1,2
472,156,84764,1,0
400,240,84921,1,0
468,192,85078,1,2
468,192,85183,1,2
500,152,85288,1,0
472,156,85392,1,2
400,240,85497,1,2
468,192,85602,1,0
448,228,85706,1,4
356,228,86021,1,0
468,192,86335,1,2
432,192,86649,1,2
408,136,86884,1,2
408,136,86963,1,2
356,228,87277,1,2
432,192,87591,1,0
432,192,87696,1,0
432,192,87801,1,0
468,192,87905,1,2
432,192,88010,1,2
432,192,88115,1,2
468,192,88219,1,0
288,272,88377,1,0
468,192,88534,1,2
484,156,89005,1,0
468,192,89162,1,2
432,192,89319,1,2
468,192,89476,1,0
376,256,89633,1,0
468,192,89790,1,2
372,224,90104,1,0
372,224,90209,1,0
372,224,90314,1,0
452,156,90418,1,2
376,256,90575,1,2
456,216,90733,1,4
484,148,91047,1,2
380,180,91256,1,2
456,216,91361,1,0
484,148,91675,1,2
372,224,91884,1,2
456,216,91989,1,0
484,148,92146,1,2
508,136,92303,1,0
484,148,92460,1,2
456,180,92617,1,0
456,180,92774,1,0
456,180,92932,1,2
456,180,93089,1,2
456,216,93246,1,6
488,180,93403,1,2
512,168,93560,1,6
488,180,93717,1,2
488,180,93874,1,4
488,180,94031,1,0
456,216,94188,1,6
456,180,94345,1,0
456,180,94424,1,0
504,136,94502,1,2
504,136,94659,1,0
456,180,94738,1,0
456,180,94816,1,2
400,252,94973,1,2
456,216,95130,1,0
456,216,95209,1,0
456,216,95288,1,0
456,216,95366,1,0
488,180,95445,1,2
456,180,95523,1,2
456,180,95602,1,2
456,180,95680,1,2
376,240,95759,1,2
504,136,95916,1,0
504,136,96073,1,2
472,156,96230,1,0
456,180,96308,1,0
392,176,96387,1,2
392,176,96466,1,2
504,136,96544,1,0
504,136,96701,1,2
488,180,96858,1,0
488,180,97015,1,2
456,180,97172,1,0
420,188,97251,1,0
472,156,97329,1,2
456,180,97486,1,2
472,156,97644,1,0
456,180,97722,1,0
472,156,97801,1,2
392,176,97958,1,2
392,176,98036,1,2
384,252,98115,1,2
384,252,98193,1,2
384,252,98272,1,2
384,252,98507,1,2
384,252,98586,1,2
384,252,98822,1,2
344,256,98900,1,2
268,224,99110,1,2
268,224,99162,1,2
344,256,99214,1,2
256,160,99424,1,2
384,252,99476,1,2
384,252,99528,1,2
456,172,99685,1,0
344,256,99843,1,2
484,156,100000,1,0
484,156,100078,1,0
484,156,100157,1,2
484,156,100314,1,2
456,172,100471,1,2
456,172,100549,1,2
428,172,100628,1,2
456,172,100706,1,2
428,172,100785,1,2
456,172,100942,1,0
444,196,101021,1,0
484,156,101099,1,2
484,156,101256,1,0
456,172,101413,1,0
484,156,101492,1,2
484,156,101649,1,0
484,156,101727,1,2
484,156,101806,1,0
456,172,101884,1,0
456,172,101963,1,0
456,172,102041,1,0
496,128,102199,1,2
484,156,102356,1,0
456,172,102513,1,2
444,196,102591,1,2
508,132,102670,1,0
484,156,102827,1,2
456,172,102984,1,0
484,156,103141,1,2
444,196,103298,1,6
356,264,103455,1,0
484,156,103612,1,2
356,264,103769,1,2
356,264,103848,1,2
324,272,103926,1,2
484,156,104083,1,0
456,172,104240,1,2
484,156,104397,1,0
356,264,104555,1,0
356,264,104633,1,0
356,264,104712,1,0
356,264,104790,1,0
456,172,104869,1,2
356,264,105026,1,2
356,264,105183,1,2
356,264,105261,1,2
356,264,105418,1,2
484,156,105497,1,0
484,156,105654,1,2
436,224,105811,1,6
456,172,105968,1,0
440,192,106047,1,0
484,156,106125,1,2
424,168,106282,1,2
400,200,106361,1,2
400,200,106439,1,2
504,128,106596,1,0
484,156,106754,1,2
436,224,106832,1,2
456,172,106911,1,0
456,172,106989,1,0
456,172,107068,1,0
504,128,107225,1,2
400,200,107382,1,0
456,172,107539,1,2
440,192,107617,1,2
484,156,107696,1,0
484,156,107853,1,2
484,156,108010,1,2
484,156,108089,1,0
456,172,108167,1,0
456,172,108246,1,0
428,164,108324,1,0
372,272,108481,1,0
440,192,108638,1,2
456,172,108795,1,0
400,200,108874,1,0
456,172,108952,1,2
456,172,109110,1,0
440,192,109267,1,0
440,192,109345,1,0
484,156,109424,1,2
456,172,109502,1,2
484,156,109581,1,0
484,156,109738,1,2
484,156,109895,1,0
456,172,110052,1,2
440,192,110209,1,2
456,172,110288,1,2
484,156,110366,1,0
456,172,110523,1,0
440,192,110680,1,0
440,192,110759,1,0
484,156,110837,1,2
456,172,110994,1,0
484,156,111151,1,2
456,172,111308,1,2
456,172,111387,1,2
456,172,111466,1,2
456,172,111623,1,0
484,156,111780,1,2
456,172,111858,1,2
484,156,111937,1,0
404,200,112094,1,0
440,192,112251,1,2
440,192,112329,1,2
484,156,112408,1,0
456,172,112565,1,2
484,156,112722,1,0
456,172,112801,1,0
484,156,112879,1,2
456,172,112958,1,2
484,156,113036,1,0
456,172,113193,1,2
484,156,113350,1,6
484,156,113507,1,0
484,156,113665,1,2
352,176,113822,1,2
352,176,113900,1,2
352,176,113979,1,2
484,156,114136,1,0
484,156,114293,1,2
484,156,114450,1,6
452,208,114607,1,0
484,156,114685,1,2
484,156,114843,1,0
484,156,114921,1,2
484,156,115078,1,2
396,192,115235,1,2
452,208,115314,1,0
428,196,115392,1,0
428,196,115471,1,0
484,156,115549,1,2
484,156,115628,1,0
484,156,115706,1,2
484,156,115785,1,2
484,156,115863,1,0
504,132,116021,1,2
484,156,116178,1,0
484,156,116335,1,2
484,156,116413,1,2
484,156,116492,1,0
484,156,116649,1,2
484,156,116806,1,2
484,156,116963,1,0
468,208,117120,1,4
484,156,117277,1,0
440,176,117434,1,2
440,176,117591,1,2
272,252,117748,1,2
272,252,117827,1,2
484,156,117905,1,0
484,156,118062,1,2
484,156,118141,1,0
484,156,118219,1,0
484,156,118298,1,0
484,156,118377,1,0
416,212,118534,1,0
416,212,118691,1,0
416,212,118848,1,0
416,212,118926,1,0
440,176,119005,1,2
484,156,119162,1,0
440,176,119319,1,0
484,156,119476,1,2
468,184,119633,1,2
440,176,119712,1,2
484,156,119790,1,0
440,176,119869,1,0
440,176,119947,1,0
440,176,120026,1,0
364,136,120104,1,2
484,156,120183,1,2
336,308,120261,1,2
336,308,120340,1,2
440,176,120418,1,0
440,176,120497,1,0
440,176,120575,1,0
440,176,120654,1,0
484,156,120733,1,2
440,176,120811,1,2
484,156,120890,1,2
376,220,121047,1,2
484,156,121204,1,0
376,220,121361,1,2
440,176,121518,1,6
440,176,121675,1,6
408,188,121832,1,6
496,196,121989,1,0
496,196,122146,1,4
496,196,122303,1,0
440,208,122460,1,6
440,176,122617,1,0
440,208,122670,1,0
440,208,122722,1,0
440,176,122774,1,2
376,220,122932,1,0
476,168,123089,1,2
440,176,123167,1,2
500,140,123246,1,0
504,140,123324,1,2
476,168,123403,1,2
476,168,123560,1,0
440,208,123717,1,0
440,208,123874,1,0
440,208,123952,1,0
476,168,124031,1,2
440,208,124188,1,2
352,248,124345,1,2
472,140,124502,1,0
408,192,124659,1,0
408,192,124816,1,0
452,184,124973,1,2
476,168,125130,1,0
476,168,125209,1,0
476,168,125288,1,2
420,168,125445,1,2
408,192,125602,1,2
472,140,125759,1,0
452,184,125916,1,0
496,152,126073,1,2
472,140,126230,1,0
472,140,126387,1,2
472,140,126466,1,0
472,140,126544,1,2
472,140,126701,1,0
500,184,126858,1,4
496,152,127015,1,2
440,224,127172,1,6
380,248,127329,1,6
396,208,127486,1,6
448,184,127644,1,4
500,184,127958,1,0
500,184,128115,1,0
440,224,128272,1,2
440,224,128429,1,6
448,184,128900,1,0
448,184,128979,1,0
448,184,129057,1,2
392,212,129214,1,2
392,212,129371,1,2
448,184,129528,1,0
500,184,129685,1,4
496,152,129843,1,0
472,172,130000,1,6
436,156,130157,1,2
392,212,130314,1,2
428,216,130392,1,0
428,216,130471,1,0
428,216,130549,1,0
496,152,130628,1,2
436,156,130706,1,0
496,152,130785,1,2
448,184,130863,1,0
448,184,130942,1,0
448,184,131099,1,0
448,184,131256,1,0
428,216,131413,1,0
448,184,131492,1,0
472,172,131570,1,2
496,152,131727,1,0
448,184,131884,1,0
436,156,132041,1,2
472,172,132199,1,4
472,172,132356,1,0
448,184,132513,1,0
448,184,132670,1,2
428,216,132827,1,2
448,184,132984,1,0
428,216,133062,1,0
448,184,133141,1,0
496,152,133298,1,2
448,184,133455,1,6
472,172,133612,1,0
472,172,133769,1,2
472,172,133926,1,0
448,184,134005,1,0
496,152,134083,1,2
496,152,134240,1,0
448,184,134397,1,2
472,172,134555,1,2
392,200,134712,1,2
496,152,134790,1,0
264,156,134947,1,0
448,184,135026,1,2
424,244,135183,1,2
472,172,135340,1,6
472,172,135497,1,2
392,200,135654,1,2
496,152,135811,1,2
348,232,135968,1,0
472,172,136125,1,0
472,172,136282,1,2
496,152,136439,1,2
496,152,136518,1,0
472,172,136596,1,2
472,172,136754,1,0
472,172,136911,1,0
472,172,137068,1,2
468,208,137225,1,6
432,208,137539,1,6
452,152,137696,1,0
376,220,138010,1,0
376,220,138167,1,0
472,172,138324,1,2
468,208,138481,1,6
472,172,138638,1,0
472,172,138795,1,2
472,172,138952,1,0
452,152,139031,1,0
480,144,139110,1,2
452,152,139267,1,2
432,176,139424,1,2
452,152,139502,1,2
472,172,139581,1,0
376,220,139659,1,0
376,220,139738,1,0
400,232,139895,1,0
472,172,140052,1,2
420,204,140209,1,2
364,264,140366,1,2
364,264,140445,1,2
480,144,140523,1,0
480,144,140680,1,2
452,152,140759,1,2
452,152,140837,1,0
432,176,140916,1,0
432,176,140994,1,0
400,232,141151,1,0
480,144,141308,1,2
480,144,141466,1,0
364,264,141544,1,0
472,172,141623,1,2
480,144,141780,1,0
472,172,141937,1,0
512,124,142094,1,2
472,172,142251,1,4
400,232,142408,1,2
380,216,142565,1,0
456,204,142644,1,0
480,144,142722,1,2
424,176,142879,1,2
480,144,143036,1,0
440,224,143193,1,6
424,176,143350,1,2
456,204,143507,1,4
480,144,143665,1,0
480,144,143822,1,2
400,232,143979,1,0
480,144,144136,1,0
480,144,144293,1,0
424,176,144450,1,0
424,176,144607,1,2
456,204,144764,1,6
480,144,145235,1,0
452,168,145314,1,0
480,144,145392,1,2
480,144,145549,1,0
480,144,145706,1,2
452,168,145785,1,2
424,176,145863,1,2
452,168,145942,1,2
